osu file format v14

[General]
AudioFilename: audio.mp3
AudioLeadIn: 0
PreviewTime: 51086
Countdown: 0
SampleSet: Soft
StackLeniency: 0.4
Mode: 0
LetterboxInBreaks: 0
WidescreenStoryboard: 0

[Editor]
Bookmarks: 27186,42186
DistanceSpacing: 0.8
BeatDivisor: 4
GridSize: 4
TimelineZoom: 1.8

[Metadata]
Title:Knew day
TitleUnicode:Knew day
Artist:(K)NoW_NAME
ArtistUnicode:(K)NoW_NAME
Creator:schoolboy
Version:Insane
Source:灰と幻想のグリムガル
Tags:djulus komore kalibe lasse hazu- hazu neilperry hai to gensou no grimgar op opening tv size
BeatmapID:1504335
BeatmapSetID:711568

[Difficulty]
HPDrainRate:5
CircleSize:4.3
OverallDifficulty:7.5
ApproachRate:9
SliderMultiplier:2.8
SliderTickRate:2

[Events]
//Background and Video events
0,0,"sad.jpg",0,0
//Break Periods
//Storyboard Layer 0 (Background)
//Storyboard Layer 1 (Fail)
//Storyboard Layer 2 (Pass)
//Storyboard Layer 3 (Foreground)
//Storyboard Sound Samples

[TimingPoints]
986,400,4,2,1,40,1,0
986,-200,4,2,1,40,0,0
10586,-133.333333333333,4,2,1,50,0,0
11786,-83.3333333333333,4,2,1,60,0,0
12186,-83.3333333333333,4,2,1,75,0,0
24986,-117.647058823529,4,2,1,60,0,0
37786,-133.333333333333,4,2,1,50,0,0
50586,-104.166666666667,4,2,1,60,0,0
52186,-83.3333333333333,4,2,1,75,0,0
75986,-116.279069767442,4,2,1,55,0,0
77186,-100,4,2,1,60,0,0
78386,-133.333333333333,4,2,1,55,0,0
81586,-133.333333333333,4,2,1,65,0,0
82386,-780.333333333333,4,2,0,60,0,0
82486,-780.333333333333,4,2,1,30,0,0
85586,-66.6666666666667,4,2,1,25,0,0

[Colours]
Combo1 : 193,255,193
Combo2 : 255,191,223
Combo3 : 191,223,255
Combo4 : 231,207,207

[HitObjects]
91,251,1586,6,0,P|86:216|83:181,1,70,2|0,0:0|0:0,0:0:0:0:
178,107,1986,2,0,P|182:141|185:176,1,70,2|0,0:0|0:0,0:0:0:0:
185,176,2286,1,0,0:0:0:0:
185,176,2386,1,2,0:0:0:0:
301,251,2586,6,0,P|365:212|435:233,1,140,2|2,3:2|0:0,0:0:0:0:
340,357,3186,2,0,B|283:338|239:357|239:357|199:325,1,140,0|0,0:0|0:0,0:0:0:0:
127,372,3786,1,2,0:0:0:0:
0,247,3986,6,0,P|22:205|111:215,1,140,0|2,0:0|0:0,0:0:0:0:
262,184,4586,1,0,0:0:0:0:
198,98,4786,2,0,P|188:167|179:236,1,140,2|2,0:0|0:0,0:0:0:0:
243,334,5386,1,0,0:0:0:0:
146,382,5586,6,0,P|140:347|139:312,1,70,0|0,0:0|3:0,0:0:0:0:
281,201,5986,2,0,P|286:235|287:270,1,70,2|0,0:0|0:0,0:0:0:0:
106,181,6386,2,0,P|153:131|220:133,1,140,2|0,0:0|0:0,0:0:0:0:
359,38,6986,2,0,P|306:37|254:28,1,105,0|0,0:0|0:0,0:0:0:0:
226,18,7386,5,2,0:0:0:0:
334,159,7586,1,0,3:0:0:0:
334,159,7686,1,0,0:0:0:0:
334,159,7786,1,0,0:0:0:0:
218,119,7986,5,2,0:0:0:0:
349,67,8186,1,0,3:0:0:0:
189,19,8386,1,0,0:0:0:0:
364,161,8586,1,2,0:0:0:0:
148,223,8786,2,0,L|144:198,2,17.5,2|0|0,0:0|0:0|0:0,0:0:0:0:
123,183,8986,6,0,P|57:165|2:205,1,140,2|0,0:0|0:0,0:0:0:0:
208,255,9586,2,0,B|234:217|234:217|212:113,1,140,2|0,0:0|0:0,0:0:0:0:
112,275,10186,2,0,L|123:358,1,70,0|0,0:0|0:0,0:0:0:0:
381,359,10586,6,0,P|399:317|393:290,1,52.5000020027161,2|0,0:3|0:0,0:0:0:0:
333,250,10786,2,0,B|239:262|289:305|195:315,1,157.500006008148,0|0,0:0|0:0,0:0:0:0:
26,209,11186,6,0,P|104:217|182:224,1,157.500006008148,2|0,0:0|0:0,0:0:0:0:
243,129,11586,2,0,P|216:132|190:135,1,52.5000020027161,0|0,0:0|0:0,0:0:0:0:
333,250,11786,5,2,0:0:0:0:
369,270,11886,1,2,0:0:0:0:
411,270,11986,1,2,0:0:0:0:
448,250,12086,1,2,0:0:0:0:
463,219,12186,6,0,B|393:194|374:266|303:241,1,167.999994873047,4|8,3:2|0:0,0:0:0:0:
228,202,12486,1,2,0:0:0:0:
228,202,12586,2,0,P|210:240|223:279,1,83.9999974365235,0|0,0:0|3:0,0:0:0:0:
305,163,12786,2,0,L|287:52,1,83.9999974365235,10|0,0:0|0:0,0:0:0:0:
372,31,12986,6,0,P|451:31|485:103,1,167.999994873047,0|8,3:0|0:0,0:0:0:0:
427,171,13286,1,0,0:0:0:0:
427,171,13386,2,0,P|385:163|343:159,1,83.9999974365235,2|0,0:0|3:0,0:0:0:0:
241,108,13586,2,0,L|254:211,1,83.9999974365235,10|2,0:0|0:0,0:0:0:0:
172,287,13786,6,0,B|57:307|57:307|0:266,1,167.999994873047,2|8,3:2|0:0,0:0:0:0:
85,213,14086,1,0,0:0:0:0:
85,213,14186,2,0,P|80:171|73:129,1,83.9999974365235,2|0,0:0|3:0,0:0:0:0:
10,52,14386,2,0,P|48:30|115:41,1,83.9999974365235,8|0,0:0|0:0,0:0:0:0:
200,105,14586,6,0,B|270:130|289:58|359:82,1,167.999994873047,0|8,3:0|0:0,0:0:0:0:
442,132,14886,1,8,3:0:0:0:
442,132,14986,2,0,P|453:64|423:19,1,83.9999974365235,2|0,0:0|3:0,0:0:0:0:
351,183,15186,1,10,0:0:0:0:
356,227,15286,1,2,0:0:0:0:
361,274,15386,6,0,P|445:248|505:308,1,167.999994873047,2|8,3:2|0:0,0:0:0:0:
296,353,15686,2,0,B|263:305|263:305|284:180,1,167.999994873047,2|0,0:0|3:0,0:0:0:0:
147,116,15986,2,0,P|157:156|163:198,1,83.9999974365235,12|0,0:0|0:0,0:0:0:0:
11,298,16186,6,0,B|81:272|100:344|170:320,1,167.999994873047,0|8,3:0|0:0,0:0:0:0:
247,271,16486,1,0,0:0:0:0:
247,271,16586,2,0,P|261:227|241:190,1,83.9999974365235,2|2,0:0|3:2,0:0:0:0:
147,116,16786,2,0,L|154:199,1,83.9999974365235,10|0,0:0|0:0,0:0:0:0:
335,273,16986,6,0,B|396:283|396:283|435:258|435:258|495:269,1,167.999994873047,0|8,3:0|0:0,0:0:0:0:
308,193,17286,2,0,P|253:252|275:329,1,167.999994873047,2|0,0:0|3:0,0:0:0:0:
411,183,17586,2,0,P|405:141|399:99,1,83.9999974365235,10|0,0:0|0:0,0:0:0:0:
287,50,17786,6,0,B|166:75|166:75|99:40,1,167.999994873047,0|8,3:0|0:0,0:0:0:0:
53,8,18086,1,2,0:0:0:0:
30,53,18186,1,2,0:2:0:0:
53,97,18286,1,2,3:2:0:0:
30,142,18386,1,10,0:0:0:0:
53,186,18486,1,2,0:0:0:0:
33,232,18586,6,0,P|71:217|122:223,1,83.9999974365235,6|0,0:0|0:0,0:0:0:0:
188,279,18786,1,8,0:0:0:0:
188,279,18886,2,0,B|258:304|277:232|347:256,1,167.999994873047,2|0,0:0|3:0,0:0:0:0:
435,304,19186,2,0,P|446:345|429:386,1,83.9999974365235,12|0,0:0|0:0,0:0:0:0:
348,256,19386,6,0,P|355:172|363:89,1,167.999994873047,0|8,3:0|0:0,0:0:0:0:
279,140,19686,1,0,0:0:0:0:
279,140,19786,2,0,P|233:146|173:121,1,83.9999974365235,2|0,0:0|3:0,0:0:0:0:
426,207,19986,2,0,P|472:201|532:226,1,83.9999974365235,10|2,0:0|0:0,0:0:0:0:
281,307,20186,6,0,P|214:338|115:295,1,167.999994873047,2|8,3:2|0:0,0:0:0:0:
46,267,20486,1,2,0:0:0:0:
46,267,20586,2,0,P|52:308|59:349,1,83.9999974365235,0|0,0:0|3:0,0:0:0:0:
110,198,20786,2,0,P|76:173|34:169,1,83.9999974365235,10|0,0:0|0:0,0:0:0:0:
191,272,20986,6,0,B|252:262|252:262|291:287|291:287|351:275,1,167.999994873047,0|8,3:0|0:0,0:0:0:0:
418,210,21286,1,8,3:0:0:0:
418,210,21386,2,0,P|364:180|307:197,1,83.9999974365235,2|0,0:0|3:0,0:0:0:0:
287,339,21586,2,0,P|341:369|398:352,1,83.9999974365235,8|2,0:0|0:0,0:0:0:0:
207,253,21786,6,0,L|99:269,1,83.9999974365235,2|0,3:2|0:0,0:0:0:0:
53,187,21986,1,8,0:0:0:0:
53,186,22086,2,0,P|118:138|196:160,1,167.999994873047,2|0,0:0|3:0,0:0:0:0:
315,198,22386,2,0,B|327:157|327:157|305:95,1,83.9999974365235,12|0,0:0|0:0,0:0:0:0:
238,246,22586,5,0,3:0:0:0:
238,246,22686,1,2,0:0:0:0:
238,246,22786,2,0,P|243:287|248:329,1,83.9999974365235,8|0,0:0|0:0,0:0:0:0:
163,367,22986,2,0,P|123:381|82:375,1,83.9999974365235,2|0,0:0|3:0,0:0:0:0:
341,303,23186,2,0,P|382:296|421:310,1,83.9999974365235,12|2,0:0|0:0,0:0:0:0:
492,132,23386,5,2,3:2:0:0:
481,154,23486,1,2,0:0:0:0:
468,175,23586,2,0,P|426:170|384:165,1,83.9999974365235,14|2,0:0|0:0,0:0:0:0:
261,43,23786,1,6,3:2:0:0:
261,43,23886,1,2,0:0:0:0:
261,43,23986,2,0,P|266:84|271:126,1,83.9999974365235,2|8,0:0|0:0,0:0:0:0:
164,354,24186,5,8,0:0:0:0:
121,326,24286,1,8,3:0:0:0:
104,278,24386,1,4,0:3:0:0:
117,229,24486,1,0,0:0:0:0:
157,198,24586,1,8,3:0:0:0:
360,350,24786,1,8,0:0:0:0:
360,350,24886,1,8,0:0:0:0:
360,350,24986,6,0,P|312:316|241:356,1,119.000002269745,4|8,0:0|0:0,0:0:0:0:
149,247,25286,2,0,P|217:262|258:210,1,119.000002269745,0|0,0:0|3:0,0:0:0:0:
332,171,25586,2,0,L|318:289,1,119.000002269745,8|0,0:0|3:0,0:0:0:0:
493,378,25986,1,8,0:0:0:0:
493,378,26086,1,0,0:0:0:0:
493,378,26186,2,0,P|501:339|485:300,1,59.5000011348725,2|0,0:0|3:0,0:0:0:0:
409,280,26386,2,0,L|415:339,1,59.5000011348725,8|0,0:0|0:0,0:0:0:0:
477,229,26586,6,0,L|490:76,1,119.000002269745,0|8,3:0|0:0,0:0:0:0:
417,47,26886,2,0,P|362:21|304:53,1,119.000002269745,0|0,0:0|3:0,0:0:0:0:
306,143,27186,2,0,P|360:168|418:136,1,119.000002269745,8|0,0:0|3:0,0:0:0:0:
228,102,27586,1,8,0:0:0:0:
228,102,27686,1,0,3:0:0:0:
228,102,27786,2,0,L|152:113,1,59.5000011348725,8|0,3:0|3:0,0:0:0:0:
89,58,27986,2,0,L|159:68,1,59.5000011348725,8|0,0:0|0:0,0:0:0:0:
87,150,28186,6,0,P|52:201|65:257,1,119.000002269745,8|8,3:0|0:0,0:0:0:0:
125,334,28486,2,0,P|67:341|8:353,1,119.000002269745,0|0,0:0|3:0,0:0:0:0:
144,252,28786,2,0,L|285:272,1,119.000002269745,8|0,0:0|3:0,0:0:0:0:
63,102,29186,1,8,0:0:0:0:
63,102,29286,1,0,0:0:0:0:
63,102,29386,2,0,L|72:169,1,59.5000011348725,2|0,0:0|3:0,0:0:0:0:
115,239,29586,2,0,P|87:250|57:248,1,59.5000011348725,12|0,0:0|0:0,0:0:0:0:
160,162,29786,6,0,L|312:176,1,119.000002269745,0|8,3:0|0:0,0:0:0:0:
347,117,30086,2,0,P|281:82|218:108,1,119.000002269745,0|0,0:0|3:0,0:0:0:0:
210,230,30386,2,0,P|276:265|339:239,1,119.000002269745,8|0,0:0|3:0,0:0:0:0:
133,156,30786,1,8,0:0:0:0:
133,156,30886,1,0,0:0:0:0:
133,156,30986,2,0,L|41:171,1,59.5000011348725,2|0,0:0|3:0,0:0:0:0:
182,81,31186,2,0,L|274:96,1,59.5000011348725,8|0,0:0|0:0,0:0:0:0:
288,180,31386,6,0,P|352:192|416:143,1,119.000002269745,4|8,3:2|0:0,0:0:0:0:
485,96,31686,2,0,P|475:154|466:213,1,119.000002269745,2|0,0:0|3:0,0:0:0:0:
512,291,31986,2,0,P|455:304|403:277,1,119.000002269745,8|0,0:0|3:0,0:0:0:0:
258,191,32386,2,0,L|265:256,1,59.5000011348725,8|0,0:0|0:0,0:0:0:0:
172,305,32586,2,0,L|179:240,1,59.5000011348725,2|0,0:0|3:0,0:0:0:0:
108,183,32786,6,0,P|36:167|-8:224,1,119.000002269745,12|8,0:0|3:0,0:0:0:0:
76,260,33086,1,2,0:0:0:0:
76,260,33186,2,0,L|217:245,1,119.000002269745,12|2,0:0|0:0,0:0:0:0:
267,184,33486,1,8,3:0:0:0:
267,184,33586,2,0,L|408:199,1,119.000002269745,12|8,0:0|3:0,0:0:0:0:
458,253,33886,1,2,0:0:0:0:
458,253,33986,2,0,B|484:198|484:198|457:145,1,119.000002269745,12|2,0:0|0:0,0:0:0:0:
383,227,34286,1,8,3:0:0:0:
383,227,34386,2,0,L|391:303,1,59.5000011348725,12|0,0:0|3:0,0:0:0:0:
298,243,34586,6,0,P|248:211|190:219,1,119.000002269745,8|8,3:0|0:0,0:0:0:0:
118,147,34886,1,0,0:0:0:0:
118,147,34986,2,0,L|194:138,1,59.5000011348725,2|0,0:0|3:0,0:0:0:0:
93,230,35186,2,0,L|-7:219,1,59.5000011348725,8|0,0:0|0:0,0:0:0:0:
163,330,35386,5,12,3:0:0:0:
204,353,35486,1,8,3:0:0:0:
251,347,35586,1,0,3:0:0:0:
287,316,35686,1,0,3:0:0:0:
324,287,35786,1,8,0:0:0:0:
371,283,35886,1,8,0:0:0:0:
412,306,35986,1,4,0:0:0:0:
429,56,36386,6,0,L|444:9,2,39.6666674232483,10|2|2,3:2|3:2|3:2,3:2:0:0:
438,77,36586,1,12,0:0:0:0:
249,189,36786,5,2,0:0:0:0:
239,142,36886,1,8,0:0:0:0:
229,95,36986,1,8,3:0:0:0:
296,15,37186,1,0,3:0:0:0:
334,81,37386,1,2,3:2:0:0:
329,109,37586,1,2,3:2:0:0:
179,318,37786,6,0,P|160:271|183:225,1,105.000004005432,4|0,0:0|0:0,0:0:0:0:
390,172,38186,2,0,P|465:189|526:188,1,105.000004005432,0|0,3:0|0:0,0:0:0:0:
281,16,38586,2,0,L|269:121,1,105.000004005432,0|2,3:0|0:0,0:0:0:0:
392,336,38986,2,0,P|411:288|388:242,1,105.000004005432,0|2,3:0|0:0,0:0:0:0:
186,115,39386,6,0,P|192:168|198:220,1,105.000004005432,0|0,3:0|0:0,0:0:0:0:
456,145,39786,2,0,B|414:116|414:116|361:128,1,105.000004005432,2|0,3:2|0:0,0:0:0:0:
326,301,40186,1,0,3:0:0:0:
326,301,40386,2,0,B|368:330|368:330|420:317,1,105.000004005432,2|8,0:0|0:0,0:0:0:0:
243,216,40786,1,2,0:0:0:0:
235,228,40986,6,0,L|131:243,1,105.000004005432,0|2,3:0|0:0,0:0:0:0:
358,115,41386,2,0,P|410:121|462:128,1,105.000004005432,0|2,3:0|0:0,0:0:0:0:
235,5,41786,2,0,P|241:57|248:109,1,105.000004005432,0|2,3:0|0:0,0:0:0:0:
390,282,42186,2,0,P|411:221|363:175,1,105.000004005432,0|0,3:0|0:0,0:0:0:0:
248,109,42586,6,0,P|146:136|57:139,1,157.500006008148,0|0,3:0|0:0,0:0:0:0:
31,78,42986,1,2,0:0:0:0:
133,262,43186,1,2,0:0:0:0:
133,262,43286,1,0,0:0:0:0:
133,262,43386,2,0,P|210:239|253:245,1,105.000004005432,0|0,3:0|0:0,0:0:0:0:
413,109,43786,1,8,0:0:0:0:
376,246,43986,1,2,0:0:0:0:
263,116,44186,6,0,P|239:65|259:-4,1,105.000004005432,4|0,0:0|0:0,0:0:0:0:
511,177,44586,2,0,P|427:164|381:166,1,105.000004005432,8|2,0:0|0:0,0:0:0:0:
241,334,44986,1,0,3:0:0:0:
389,267,45186,1,2,0:0:0:0:
254,184,45386,1,8,0:0:0:0:
350,376,45586,1,0,0:0:0:0:
78,285,45786,6,0,P|133:254|197:282,1,105.000004005432,0|2,3:0|0:0,0:0:0:0:
339,108,46186,1,8,0:0:0:0:
129,183,46386,1,2,0:0:0:0:
306,337,46586,1,0,3:0:0:0:
306,337,46786,2,0,P|321:266|282:229,1,105.000004005432,2|12,0:0|0:0,0:0:0:0:
225,178,47186,1,2,0:0:0:0:
424,112,47386,5,12,0:0:0:0:
405,264,47586,1,8,3:0:0:0:
256,92,47786,5,12,0:0:0:0:
256,304,47986,1,8,3:0:0:0:
88,112,48186,5,12,0:0:0:0:
107,264,48386,1,8,3:0:0:0:
351,192,48586,5,8,0:0:0:0:
178,17,48786,2,0,L|196:183,1,157.500006008148,4|0,0:0|0:0,0:0:0:0:
159,253,49186,5,14,0:0:0:0:
285,147,49386,1,8,3:2:0:0:
72,108,49586,1,8,3:2:0:0:
265,246,49786,1,10,3:2:0:0:
258,5,49986,1,10,3:2:0:0:
264,18,50052,2,0,L|256:64,2,35.0000013351441,2|2|8,0:0|0:0|3:2,0:0:0:0:
173,129,50386,1,8,3:2:0:0:
494,222,50586,1,8,3:2:0:0:
198,363,51186,5,0,0:0:0:0:
309,264,51386,1,2,0:0:0:0:
193,226,51586,1,6,0:0:0:0:
299,344,51786,1,6,0:0:0:0:
366,177,51986,1,2,0:0:0:0:
299,31,52186,6,0,P|286:114|273:197,1,167.999994873047,2|8,1:3|0:0,0:0:0:0:
355,262,52486,1,0,0:0:0:0:
355,262,52586,2,0,P|366:218|348:179,1,83.9999974365235,0|0,0:0|3:0,0:0:0:0:
299,344,52786,6,0,P|386:308|459:353,1,167.999994873047,10|8,0:0|3:0,0:0:0:0:
512,259,53086,1,0,0:0:0:0:
512,259,53186,2,0,L|409:243,1,83.9999974365235,10|0,0:0|0:0,0:0:0:0:
318,159,53386,2,0,P|353:138|395:140,1,83.9999974365235,2|0,0:0|3:0,0:0:0:0:
343,258,53586,6,0,P|259:249|175:242,2,167.999994873047,10|8|10,0:0|3:0|0:0,0:0:0:0:
416,169,54086,1,0,0:0:0:0:
416,169,54186,2,0,P|374:175|332:179,1,83.9999974365235,0|0,0:0|3:0,0:0:0:0:
292,338,54386,6,0,B|362:363|381:291|452:316,1,167.999994873047,10|0,0:0|3:0,0:0:0:0:
512,242,54686,1,2,0:0:0:0:
512,242,54786,2,0,P|455:220|403:238,1,83.9999974365235,10|8,0:0|3:0,0:0:0:0:
332,130,54986,2,0,P|375:137|436:110,1,83.9999974365235,0|0,0:0|3:0,0:0:0:0:
508,69,55186,6,0,P|447:17|356:61,2,167.999994873047,10|2|12,0:0|3:2|0:0,0:0:0:0:
443,183,55686,1,0,0:0:0:0:
443,183,55786,2,0,L|433:94,1,83.9999974365235,2|0,0:0|3:0,0:0:0:0:
505,271,55986,6,0,B|392:243|392:243|351:275,1,167.999994873047,10|0,0:0|3:0,0:0:0:0:
423,73,56386,1,12,0:0:0:0:
423,73,56486,1,0,0:0:0:0:
423,73,56586,2,0,P|445:112|421:181,1,83.9999974365235,2|0,0:0|3:0,0:0:0:0:
271,140,56786,2,0,P|312:135|354:131,1,83.9999974365235,12|0,0:0|0:0,0:0:0:0:
503,236,56986,6,0,B|444:225|444:225|405:250|405:250|344:240,1,167.999994873047,0|12,3:0|0:0,0:0:0:0:
272,190,57286,1,0,0:0:0:0:
272,190,57386,2,0,P|253:242|293:292,1,83.9999974365235,2|0,0:0|3:0,0:0:0:0:
354,131,57586,6,0,L|334:8,1,83.9999974365235,12|0,0:0|0:0,0:0:0:0:
179,115,57786,2,0,P|222:115|276:103,1,83.9999974365235,2|0,3:2|0:0,0:0:0:0:
401,226,57986,2,0,P|358:226|304:238,1,83.9999974365235,10|0,0:0|3:0,0:0:0:0:
429,75,58186,2,0,P|470:82|512:82,1,83.9999974365235,2|0,0:0|3:0,0:0:0:0:
317,233,58386,2,0,P|276:226|234:226,1,83.9999974365235,10|8,0:0|0:0,0:0:0:0:
462,347,58586,6,0,P|496:268|399:204,2,167.999994873047,4|10|2,0:0|0:0|0:0,0:0:0:0:
324,300,59086,1,0,3:0:0:0:
324,300,59186,2,0,P|409:283|441:302,1,83.9999974365235,10|0,0:0|0:0,0:0:0:0:
512,168,59386,2,0,L|397:149,1,83.9999974365235,0|0,3:0|0:0,0:0:0:0:
328,37,59586,2,0,L|352:204,1,167.999994873047,12|2,0:0|0:0,0:0:0:0:
252,311,59886,1,0,3:0:0:0:
252,311,59986,6,0,P|215:240|290:156,1,167.999994873047,12|2,0:0|3:2,0:0:0:0:
339,353,60286,1,0,0:0:0:0:
339,353,60386,2,0,P|211:357|140:375,1,167.999994873047,10|2,0:0|0:0,0:0:0:0:
302,244,60686,1,0,3:0:0:0:
302,244,60786,2,0,B|372:269|391:197|461:221,1,167.999994873047,12|0,0:0|3:0,0:0:0:0:
512,135,61086,1,0,0:0:0:0:
512,135,61186,2,0,P|475:133|396:122,1,83.9999974365235,10|0,0:0|3:0,0:0:0:0:
409,303,61386,2,0,P|446:305|525:316,1,83.9999974365235,2|0,0:0|3:0,0:0:0:0:
341,205,61586,2,0,L|236:217,1,83.9999974365235,10|0,0:0|0:0,0:0:0:0:
108,343,61786,6,0,B|195:357|195:357|228:342|228:309|210:285,1,167.999994873047,4|10,3:2|0:0,0:0:0:0:
134,237,62086,1,0,0:0:0:0:
134,237,62186,2,0,L|37:256,1,83.9999974365235,2|0,0:0|3:0,0:0:0:0:
201,119,62386,2,0,P|217:166|196:224,1,83.9999974365235,12|0,0:0|0:0,0:0:0:0:
331,360,62586,5,8,3:2:0:0:
336,309,62686,1,8,3:0:0:0:
341,258,62786,1,0,3:0:0:0:
346,207,62886,1,0,3:0:0:0:
352,157,62986,1,8,3:0:0:0:
358,107,63086,1,8,3:0:0:0:
364,56,63186,1,6,0:0:0:0:
364,56,63586,5,12,0:0:0:0:
445,222,63786,1,12,0:0:0:0:
512,159,63986,6,0,P|474:136|414:138,1,83.9999974365235,6|0,0:0|0:0,0:0:0:0:
339,249,64186,2,0,P|380:257|428:233,1,83.9999974365235,0|0,0:0|0:0,0:0:0:0:
273,128,64386,1,8,0:0:0:0:
222,134,64486,1,8,0:0:0:0:
171,139,64586,5,2,0:0:0:0:
145,136,64686,1,8,3:0:0:0:
119,133,64786,1,8,3:0:0:0:
93,130,64886,1,0,3:0:0:0:
68,125,64986,6,0,P|123:60|197:88,1,167.999994873047,6|8,0:0|0:0,0:0:0:0:
273,122,65286,1,0,0:0:0:0:
273,122,65386,2,0,L|378:106,1,83.9999974365235,2|0,0:0|3:0,0:0:0:0:
512,45,65586,6,0,L|338:22,1,167.999994873047,12|0,0:0|3:0,0:0:0:0:
426,165,65886,1,0,0:0:0:0:
426,165,65986,2,0,P|439:94|414:62,1,83.9999974365235,12|0,0:0|0:0,0:0:0:0:
322,198,66186,2,0,P|327:238|333:289,1,83.9999974365235,2|0,0:0|3:0,0:0:0:0:
442,365,66386,6,0,P|385:331|288:374,2,167.999994873047,12|8|10,0:0|3:0|0:0,0:0:0:0:
512,266,66886,1,0,0:0:0:0:
512,266,66986,2,0,L|407:255,1,83.9999974365235,0|0,0:0|3:0,0:0:0:0:
302,167,67186,6,0,B|186:189|186:189|148:156,1,167.999994873047,10|2,0:0|3:2,0:0:0:0:
84,88,67486,1,2,0:0:0:0:
84,88,67586,2,0,P|151:66|190:84,1,83.9999974365235,8|8,0:0|3:0,0:0:0:0:
88,215,67786,2,0,L|-17:207,1,83.9999974365235,0|0,0:0|3:0,0:0:0:0:
109,346,67986,6,0,B|179:371|198:299|269:324,1,167.999994873047,10|2,0:0|3:2,0:0:0:0:
422,208,68286,1,0,0:0:0:0:
422,208,68386,2,0,P|333:251|245:194,1,167.999994873047,12|0,0:0|0:0,0:0:0:0:
243,128,68686,1,0,3:0:0:0:
243,128,68786,2,0,P|312:73|411:106,1,167.999994873047,12|0,0:0|3:0,0:0:0:0:
194,200,69086,1,0,0:0:0:0:
194,200,69186,2,0,P|153:191|97:183,1,83.9999974365235,12|0,0:0|0:0,0:0:0:0:
311,284,69386,2,0,P|353:277|408:267,1,83.9999974365235,2|0,0:0|0:0,0:0:0:0:
215,351,69586,2,0,L|232:250,2,55.9999982910157,12|2|2,0:0|0:0|0:0,0:0:0:0:
201,379,69786,6,0,P|186:281|175:196,2,167.999994873047,0|10|2,3:0|0:0|0:0,0:0:0:0:
349,249,70286,1,0,3:0:0:0:
349,249,70386,2,0,P|309:254|253:225,1,83.9999974365235,10|0,0:0|0:0,0:0:0:0:
409,367,70586,2,0,L|509:352,1,83.9999974365235,0|8,3:0|3:0,0:0:0:0:
428,182,70786,2,0,L|442:284,1,83.9999974365235,10|0,0:0|3:0,0:0:0:0:
312,384,70986,2,0,L|301:293,1,83.9999974365235,2|0,0:0|3:0,0:0:0:0:
206,184,71186,6,0,P|181:96|252:29,2,167.999994873047,10|6|8,0:0|0:0|0:0,0:0:0:0:
358,125,71686,1,0,0:0:0:0:
358,125,71786,2,0,P|315:121|262:116,1,83.9999974365235,2|0,0:0|3:0,0:0:0:0:
204,313,71986,6,0,B|305:283|305:283|343:304|336:355,1,167.999994873047,10|0,0:0|3:0,0:0:0:0:
477,264,72286,1,0,0:0:0:0:
477,264,72386,2,0,P|393:268|369:249,1,83.9999974365235,10|0,0:0|3:0,0:0:0:0:
284,174,72586,2,0,L|296:268,1,83.9999974365235,2|0,0:0|3:0,0:0:0:0:
505,143,72786,6,0,B|462:129|422:151|422:151|386:112|317:127,1,167.999994873047,10|8,0:0|3:0,0:0:0:0:
263,176,73086,1,0,0:0:0:0:
263,176,73186,2,0,L|238:3,1,167.999994873047,10|2,0:0|0:0,0:0:0:0:
347,122,73486,1,0,3:0:0:0:
347,122,73586,2,0,L|322:295,1,167.999994873047,10|0,0:0|3:0,0:0:0:0:
393,355,73886,1,2,0:0:0:0:
393,355,73986,2,0,P|415:287|388:245,1,83.9999974365235,10|0,0:0|0:0,0:0:0:0:
254,232,74186,2,0,P|232:300|259:342,1,83.9999974365235,2|0,0:0|3:0,0:0:0:0:
360,172,74386,2,0,L|345:89,1,83.9999974365235,10|0,0:0|0:0,0:0:0:0:
266,28,74586,5,4,3:2:0:0:
24,197,74786,2,0,L|130:183,1,83.9999974365235,12|0,0:0|0:0,0:0:0:0:
228,295,74986,1,8,3:2:0:0:
228,295,75086,1,8,3:0:0:0:
228,295,75186,2,0,P|159:303|120:264,1,83.9999974365235,0|8,3:0|3:0,0:0:0:0:
313,205,75386,2,0,P|382:197|421:236,1,83.9999974365235,12|0,0:0|0:0,0:0:0:0:
208,79,75586,1,2,3:2:0:0:
219,136,75686,1,0,0:0:0:0:
232,193,75786,2,0,L|253:91,1,83.9999974365235,2|2,0:0|0:0,0:0:0:0:
151,25,75986,6,0,P|62:40|81:141,1,180.600002755737,4|0,0:0|0:0,0:0:0:0:
175,182,76386,2,0,B|259:207|269:126|346:154,1,180.600002755737,0|0,0:0|0:0,0:0:0:0:
427,87,76786,2,0,B|368:22|368:22|283:68,1,180.600002755737,2|0,0:0|0:0,0:0:0:0:
433,259,77186,6,0,P|450:207|435:167,1,70,0|0,3:0|0:0,0:0:0:0:
341,313,77386,2,0,P|452:295|501:369,1,210,12|0,0:0|0:0,0:0:0:0:
411,373,77786,5,6,3:2:0:0:
449,193,77986,1,0,0:0:0:0:
242,261,78186,5,8,0:0:0:0:
496,292,78386,1,6,0:0:0:0:
327,76,78786,5,2,0:0:0:0:
405,40,78986,1,8,0:0:0:0:
368,232,79186,1,6,0:0:0:0:
185,76,79586,5,2,3:2:0:0:
107,40,79786,1,12,0:0:0:0:
144,232,79986,1,8,3:0:0:0:
139,268,80086,1,8,3:0:0:0:
135,304,80186,5,8,3:2:0:0:
233,267,80386,1,0,3:0:0:0:
27,172,80586,2,0,L|78:164,1,52.5000020027161,8|8,3:0|3:0,0:0:0:0:
129,108,80786,2,0,L|181:101,1,52.5000020027161,8|8,3:0|3:0,0:0:0:0:
245,148,80986,5,6,0:0:0:0:
177,4,81186,1,0,3:0:0:0:
159,236,81386,5,8,0:0:0:0:
425,166,81586,1,6,0:0:0:0:
94,339,81986,5,14,0:0:0:0:
352,361,82386,6,0,B|409:305|409:255|401:196|352:185|307:203|288:249|327:289,1,287.056820811857,4|0,0:0|0:0,0:0:0:0:
