osu file format v14

[General]
AudioFilename: audio.mp3
AudioLeadIn: 0
PreviewTime: 50886
Countdown: 0
SampleSet: Soft
StackLeniency: 0.3
Mode: 0
LetterboxInBreaks: 0
WidescreenStoryboard: 0

[Editor]
Bookmarks: 18620,25220,32820,38020,38420,38820,39220,39620,40020,40420,40620,41220,46820,68020
DistanceSpacing: 1.4
BeatDivisor: 4
GridSize: 4
TimelineZoom: 2.6

[Metadata]
Title:Knew day (TV Size)
TitleUnicode:Knew day (TV Size)
Artist:(K)NoW_NAME
ArtistUnicode:(K)NoW_NAME
Creator:Avishay
Version:Insane
Source:灰と幻想のグリムガル
Tags:hai to gensou no grimgar op opening tv size
BeatmapID:921368
BeatmapSetID:426716

[Difficulty]
HPDrainRate:5
CircleSize:3.5
OverallDifficulty:7.5
ApproachRate:9.1
SliderMultiplier:1.6
SliderTickRate:2

[Events]
//Background and Video events
0,0,"grimgar.jpg",0,0
Video,-629,"(K)NoW_NAME Official Site Clean version.avi"
//Break Periods
//Storyboard Layer 0 (Background)
//Storyboard Layer 1 (Fail)
//Storyboard Layer 2 (Pass)
//Storyboard Layer 3 (Foreground)
//Storyboard Sound Samples

[TimingPoints]
986,400,4,2,1,50,1,0
1986,-100,4,2,1,40,0,0
2386,-100,4,2,1,30,0,0
2586,-100,4,2,1,45,0,0
8986,-125,4,2,1,45,0,0
10586,-125,4,2,1,57,0,0
10786,-166.666666666667,4,2,1,70,0,0
11186,-133.333333333333,4,2,1,70,0,0
11786,-100,4,2,1,70,0,0
12186,-80,4,2,1,70,0,0
24986,-100,4,2,1,70,0,0
35386,-80,4,2,1,70,0,0
35986,-133.333333333333,4,2,1,70,0,0
36586,-83.3333333333333,4,2,1,70,0,0
36986,-100,4,2,1,70,0,0
37386,-125,4,2,1,70,0,0
37786,-100,4,2,1,70,0,0
47386,-80,4,2,1,70,0,0
52186,-66.6666666666667,4,2,2,70,0,1
62686,-66.6666666666667,4,2,1,70,0,1
63186,-80,4,2,2,55,0,0
63286,-80,4,2,2,70,0,0
64986,-66.6666666666667,4,2,2,70,0,1
75386,-66.6666666666667,4,2,2,70,0,1
75986,-66.6666666666667,4,2,1,70,0,0
77386,-133.333333333333,4,2,1,70,0,0
77686,-200,4,2,1,5,0,0
77786,-80,4,2,1,70,0,0
81786,-80,4,2,1,5,0,0
81986,-142.857142857143,4,2,1,70,0,0
82286,-142.857142857143,4,2,1,5,0,0
82386,-101.010101010101,4,2,1,70,0,0
82486,-101.010101010101,4,2,1,10,0,0
85886,-101.010101010101,4,2,1,50,0,0

[Colours]
Combo1 : 202,140,242
Combo2 : 242,57,62
Combo3 : 105,120,250
Combo4 : 12,148,43

[HitObjects]
75,108,1586,5,0,0:0:0:0:
63,196,1786,1,0,0:0:0:0:
177,81,1986,1,0,0:0:0:0:
184,184,2186,1,0,0:0:0:0:
280,28,2386,1,0,0:0:0:0:
320,152,2586,6,0,P|380:171|476:143,1,160,4|0,0:0|0:0,0:0:0:0:
480,280,3186,2,0,P|420:261|324:289,1,160,0|0,0:0|0:0,0:0:0:0:
256,364,3786,1,0,0:0:0:0:
183,285,3986,6,0,P|108:260|32:280,1,160,0|0,0:0|0:0,0:0:0:0:
32,279,4486,1,0,0:0:0:0:
32,279,4586,1,0,0:0:0:0:
68,165,4786,2,0,L|120:176,2,40,2|0|0,1:0|0:0|0:0,0:0:0:0:
47,47,5186,1,2,1:0:0:0:
47,47,5286,1,0,0:0:0:0:
47,47,5386,1,0,0:0:0:0:
184,72,5586,6,0,B|213:91|229:123|229:123|253:84|253:84|274:85|296:73,1,160,0|0,0:0|0:0,0:0:0:0:
396,104,6186,1,0,0:0:0:0:
460,272,6386,1,0,0:0:0:0:
460,272,6486,1,0,0:0:0:0:
460,272,6586,2,0,B|416:268|416:268|382:281,1,80,2|0,1:0|0:0,0:0:0:0:
256,336,6986,1,0,0:0:0:0:
256,336,7086,2,0,P|300:268|300:256,1,80,0|0,0:0|0:0,0:0:0:0:
316,185,7386,6,0,L|308:97,1,80,2|0,0:0|0:0,0:0:0:0:
335,21,7686,1,0,0:0:0:0:
335,21,7786,1,0,0:0:0:0:
392,128,7986,1,0,0:0:0:0:
240,52,8186,5,2,1:0:0:0:
205,32,8286,1,0,0:0:0:0:
166,37,8386,1,0,0:0:0:0:
139,65,8486,1,0,0:0:0:0:
134,104,8586,2,0,L|140:136,6,20,0|0|0|0|0|0|0,0:0|0:0|0:0|0:0|0:0|0:0|0:0,0:0:0:0:
148,168,8986,6,0,L|64:160,1,64,2|0,0:0|0:0,0:0:0:0:
16,244,9386,1,0,0:0:0:0:
175,257,9586,2,0,L|16:244,1,160,0|0,0:0|0:0,0:0:0:0:
8,224,10186,1,0,0:0:0:0:
84,161,10386,1,0,0:0:0:0:
175,257,10586,5,4,0:0:0:0:
185,161,10786,6,0,L|182:113,1,47.9999985351563,2|0,0:0|0:0,0:0:0:0:
279,304,11186,6,0,P|286:275|289:246,1,60.0000022888184,2|0,0:0|0:0,0:0:0:0:
260,100,11586,1,2,0:0:0:0:
112,121,11786,1,2,0:0:0:0:
95,130,11886,1,0,0:0:0:0:
81,143,11986,1,2,0:0:0:0:
70,159,12086,1,2,0:0:0:0:
63,177,12186,6,0,P|56:226|72:273,1,100,4|10,0:0|0:0,0:0:0:0:
136,336,12486,2,0,P|208:340|256:328,1,100,2|8,0:0|1:0,0:0:0:0:
320,280,12786,1,8,0:0:0:0:
309,276,12886,1,2,0:0:0:0:
298,271,12986,6,0,B|294:235|294:235|302:215,1,50,0|2,0:0|0:0,0:0:0:0:
424,217,13186,2,0,B|394:238|394:238|373:241,1,50,8|2,0:0|0:0,0:0:0:0:
312,133,13386,2,0,B|345:147|345:147|358:164,1,50,2|8,0:0|1:0,0:0:0:0:
424,217,13586,1,8,0:0:0:0:
444,192,13686,1,2,0:0:0:0:
463,166,13786,6,0,P|440:108|447:67,1,100,2|10,0:0|0:0,0:0:0:0:
364,32,14086,2,0,B|332:40|332:40|300:28|300:28|268:36,1,100,2|8,0:0|1:0,0:0:0:0:
260,76,14386,1,10,0:0:0:0:
257,108,14486,1,2,0:0:0:0:
241,138,14586,5,0,0:0:0:0:
215,159,14686,1,0,0:0:0:0:
183,170,14786,2,0,P|152:144|144:124,1,50,8|8,0:0|1:0,0:0:0:0:
39,27,14986,2,0,L|32:76,1,50,2|8,0:0|1:0,0:0:0:0:
44,168,15186,2,0,L|37:217,1,50,8|2,0:0|0:0,0:0:0:0:
49,308,15386,6,0,P|104:336|160:312,1,100,6|8,0:0|0:0,0:0:0:0:
216,280,15686,2,0,B|204:224|204:224|210:181,1,100,2|8,0:0|1:0,0:0:0:0:
240,96,15986,2,0,L|228:40,1,50,8|2,0:0|0:0,0:0:0:0:
316,24,16186,6,0,B|376:44|376:44|448:32,1,100,0|10,0:0|0:0,0:0:0:0:
496,24,16486,1,2,0:0:0:0:
496,24,16586,2,0,L|504:92,1,50,2|8,0:0|1:0,0:0:0:0:
481,160,16786,2,0,L|489:244,1,50,10|2,0:0|0:0,0:0:0:0:
436,284,16986,6,0,B|400:288|360:276|360:276|338:283,1,100,2|10,0:0|0:0,0:0:0:0:
252,310,17286,2,0,B|200:324|200:324|172:312|155:312,1,100,2|8,0:0|1:0,0:0:0:0:
100,236,17586,2,0,L|64:200,1,50,10|2,0:0|0:0,0:0:0:0:
85,71,17786,6,0,P|108:115|141:152,1,100,2|10,0:0|0:0,0:0:0:0:
174,172,18086,1,2,0:0:0:0:
210,179,18186,1,2,0:0:0:0:
247,173,18286,1,8,1:0:0:0:
280,155,18386,2,0,P|304:124|308:112,1,50,10|2,0:0|0:0,0:0:0:0:
356,40,18586,6,0,B|416:28,1,50,6|2,0:0|0:0,0:0:0:0:
468,136,18786,1,8,0:0:0:0:
437,131,18886,1,2,0:0:0:0:
407,126,18986,2,0,L|414:175,1,50,2|8,0:0|1:0,0:0:0:0:
324,296,19186,2,0,L|311:196,1,100,8|0,0:0|0:0,0:0:0:0:
340,8,19586,5,8,0:0:0:0:
306,28,19686,1,2,0:0:0:0:
266,30,19786,2,0,L|216:24,1,50,2|8,0:0|1:0,0:0:0:0:
168,100,19986,2,0,L|217:106,1,50,8|2,0:0|0:0,0:0:0:0:
292,156,20186,6,0,B|280:208|308:208|293:254,1,100,8|8,1:0|0:0,0:0:0:0:
284,296,20486,1,0,0:0:0:0:
276,340,20586,2,0,L|224:348,1,50,0|8,1:0|1:0,0:0:0:0:
143,291,20786,2,0,B|92:304|92:304|48:288,1,100,8|0,0:0|0:0,0:0:0:0:
19,115,21186,5,8,0:0:0:0:
19,115,21286,2,0,P|67:127|116:119,1,100,0|8,0:0|1:0,0:0:0:0:
170,141,21586,1,8,0:0:0:0:
226,149,21686,1,2,0:0:0:0:
282,157,21786,6,0,L|381:148,1,100,4|8,0:0|0:0,0:0:0:0:
464,196,22086,1,0,0:0:0:0:
468,176,22186,2,0,L|524:156,1,50,2|8,0:0|1:0,0:0:0:0:
404,276,22386,2,0,L|393:334,1,50,10|2,0:0|0:0,0:0:0:0:
300,348,22586,5,2,0:0:0:0:
278,327,22686,1,2,0:0:0:0:
251,312,22786,1,8,0:0:0:0:
221,305,22886,1,0,0:0:0:0:
191,307,22986,2,0,B|176:356,1,50,2|8,0:0|1:0,0:0:0:0:
124,260,23186,1,8,0:0:0:0:
96,212,23286,1,2,0:0:0:0:
60,168,23386,6,0,P|36:168|4:180,1,50,6|0,0:0|0:0,0:0:0:0:
124,88,23586,1,10,0:0:0:0:
176,95,23686,1,2,0:0:0:0:
229,102,23786,2,0,L|232:168,2,50,8|2|10,1:0|0:0|0:0,0:0:0:0:
288,48,24086,5,8,3:0:0:0:
363,41,24186,1,8,3:0:0:0:
438,34,24286,2,0,B|453:100|453:100|442:181,1,150,8|8,3:0|0:0,0:0:0:0:
496,356,24786,5,8,0:0:0:0:
496,356,24886,1,8,0:0:0:0:
496,356,24986,2,0,P|446:355|400:348,1,80,4|8,0:0|0:0,0:0:0:0:
376,332,25286,2,0,P|326:333|280:340,1,80,2|0,0:0|0:0,0:0:0:0:
252,348,25586,2,0,B|220:336|220:336|174:336,1,80,8|0,0:0|0:0,0:0:0:0:
132,336,25886,1,0,0:0:0:0:
132,336,25986,2,0,L|68:328,1,40,8|0,0:0|0:0,0:0:0:0:
32,220,26186,2,0,L|22:258,1,40,8|0,0:0|0:0,0:0:0:0:
164,224,26386,2,0,L|100:216,1,40,8|0,0:0|0:0,0:0:0:0:
48,112,26586,6,0,B|72:112|96:124|96:124|160:116,1,80,4|8,0:0|0:0,0:0:0:0:
168,100,26886,2,0,B|212:124|212:124|222:95,1,80,2|0,0:0|0:0,0:0:0:0:
251,57,27186,2,0,B|268:44|268:44|300:56|326:49,1,80,8|0,0:0|0:0,0:0:0:0:
357,37,27486,1,0,0:0:0:0:
388,24,27586,2,0,L|456:24,1,40,8|0,0:0|0:0,0:0:0:0:
452,104,27786,2,0,L|412:104,1,40,8|0,0:0|0:0,0:0:0:0:
436,184,27986,2,0,L|504:184,1,40,8|0,0:0|0:0,0:0:0:0:
336,245,28186,6,0,B|392:247|392:247|427:275,1,80,4|8,0:0|0:0,0:0:0:0:
444,300,28486,2,0,B|452:324|472:340|472:340|444:344|404:336,1,80,2|0,0:0|0:0,0:0:0:0:
392,344,28786,2,0,P|336:344|304:324,1,80,8|0,0:0|0:0,0:0:0:0:
260,352,29086,1,0,0:0:0:0:
260,352,29186,2,0,L|208:360,1,40,8|0,0:0|0:0,0:0:0:0:
84,348,29386,2,0,L|123:341,1,40,8|0,0:0|0:0,0:0:0:0:
208,260,29586,2,0,L|156:268,1,40,8|0,0:0|0:0,0:0:0:0:
40,216,29786,6,0,L|48:136,1,80,4|8,0:0|0:0,0:0:0:0:
80,96,30086,2,0,P|120:104|160:72,1,80,2|0,0:0|0:0,0:0:0:0:
188,44,30386,2,0,L|180:124,1,80,8|0,0:0|0:0,0:0:0:0:
196,172,30686,1,0,0:0:0:0:
220,220,30786,2,0,L|272:228,1,40,8|0,0:0|0:0,0:0:0:0:
340,148,30986,2,0,L|288:156,1,40,8|0,0:0|0:0,0:0:0:0:
343,277,31186,2,0,L|355:239,1,40,8|0,0:0|0:0,0:0:0:0:
424,136,31386,6,0,B|432:96|432:96|424:57,1,80,4|8,0:0|0:0,0:0:0:0:
380,24,31686,2,0,B|343:14|343:14|301:21,1,80,2|0,0:0|0:0,0:0:0:0:
259,58,31986,2,0,B|251:96|251:96|259:136,1,80,8|0,0:0|0:0,0:0:0:0:
309,208,32286,1,0,0:0:0:0:
309,208,32386,2,0,L|337:260,1,40,8|0,0:0|0:0,0:0:0:0:
256,280,32586,2,0,L|256:320,1,40,8|0,0:0|0:0,0:0:0:0:
203,208,32786,2,0,L|175:260,1,40,8|0,0:0|0:0,0:0:0:0:
88,292,32986,1,4,0:0:0:0:
92,296,33186,6,0,B|108:248|108:248|92:188,1,80,8|0,0:0|0:0,0:0:0:0:
36,164,33486,1,0,0:0:0:0:
36,164,33586,2,0,B|20:212|20:212|27:240,1,80,8|0,0:0|0:0,0:0:0:0:
92,296,33886,1,0,0:0:0:0:
92,296,33986,2,0,B|96:348,1,40,8|0,0:0|0:0,0:0:0:0:
184,228,34186,2,0,L|181:189,1,40,8|0,0:0|0:0,0:0:0:0:
240,320,34386,2,0,B|236:372,1,40,8|0,0:0|0:0,0:0:0:0:
344,298,34586,6,0,P|383:297|422:305,1,80,4|8,0:0|0:0,0:0:0:0:
464,316,34886,2,0,L|468:368,1,40,0|0,0:0|0:0,0:0:0:0:
488,220,35086,1,0,0:0:0:0:
484,204,35186,2,0,L|488:152,1,40,8|0,0:0|0:0,0:0:0:0:
392,88,35386,6,0,L|387:137,1,50,8|0,1:0|0:0,0:0:0:0:
336,208,35586,1,8,0:0:0:0:
252,228,35686,1,8,0:0:0:0:
174,193,35786,1,8,1:0:0:0:
134,118,35886,1,8,1:0:0:0:
147,33,35986,6,0,B|192:40|224:28|224:28|260:64,1,120.000004577637,4|0,0:0|0:0,0:0:0:0:
134,118,36586,6,0,P|89:120|28:40,1,143.999995605469,8|8,0:0|3:0,0:0:0:0:
36,108,36986,6,0,P|43:147|41:187,1,80,8|8,3:0|3:0,0:0:0:0:
77,293,37386,6,0,B|60:288|60:288|16:300,1,64,4|8,0:0|1:0,0:0:0:0:
200,304,37786,6,0,L|279:310,1,80,2|0,0:0|0:0,0:0:0:0:
379,234,38186,2,0,L|300:228,1,80,8|0,0:0|0:0,0:0:0:0:
368,332,38586,2,0,L|447:338,1,80,2|0,0:0|0:0,0:0:0:0:
211,206,38986,2,0,L|131:199,1,80,8|0,0:0|0:0,0:0:0:0:
308,59,39386,6,0,P|344:43|383:34,1,80,2|0,0:0|0:0,0:0:0:0:
297,184,39787,2,0,P|292:223|281:261,1,80,8|0,0:0|0:0,0:0:0:0:
156,276,40186,1,2,0:0:0:0:
112,160,40386,1,2,0:0:0:0:
200,72,40586,1,8,0:0:0:0:
320,110,40786,5,0,0:0:0:0:
320,110,40886,1,0,0:0:0:0:
320,110,40987,2,0,P|353:86|380:57,1,80,2|0,0:0|0:0,0:0:0:0:
308,224,41386,2,0,P|348:216|384:201,1,80,8|0,0:0|0:0,0:0:0:0:
203,160,41786,2,0,P|164:167|127:182,1,80,2|0,0:0|0:0,0:0:0:0:
191,274,42186,2,0,P|159:297|132:326,1,80,8|0,0:0|0:0,0:0:0:0:
72,192,42586,6,0,B|128:200|128:200|150:195,1,80,2|0,0:0|0:0,0:0:0:0:
252,148,42986,1,8,0:0:0:0:
144,56,43186,1,0,0:0:0:0:
140,80,43286,1,0,0:0:0:0:
137,104,43386,1,8,1:0:0:0:
140,240,43586,1,8,3:0:0:0:
146,276,43686,1,8,3:0:0:0:
150,312,43786,2,0,L|240:308,1,80,8|8,3:0|0:0,0:0:0:0:
328,200,44186,6,0,L|336:120,1,80,2|0,0:0|0:0,0:0:0:0:
176,120,44586,2,0,L|184:200,1,80,8|0,0:0|0:0,0:0:0:0:
320,316,44986,2,0,L|412:320,1,80,2|0,0:0|0:0,0:0:0:0:
184,200,45386,1,8,0:0:0:0:
328,200,45586,1,0,0:0:0:0:
192,316,45786,6,0,L|100:320,1,80,2|0,0:0|0:0,0:0:0:0:
256,220,46186,2,0,L|256:108,1,80,8|0,0:0|0:0,0:0:0:0:
164,76,46586,1,0,0:0:0:0:
92,160,46786,1,0,0:0:0:0:
147,255,46986,1,8,0:0:0:0:
256,304,47186,1,0,0:0:0:0:
364,255,47386,6,0,P|406:231|456:230,1,100,4|0,0:0|0:0,0:0:0:0:
256,356,47786,1,0,0:0:0:0:
147,255,47986,2,0,P|105:231|56:230,1,100,2|8,0:0|0:0,0:0:0:0:
80,317,48386,1,0,0:0:0:0:
256,192,48586,1,8,1:0:0:0:
432,317,48786,1,4,0:0:0:0:
448,296,49186,5,0,3:0:0:0:
456,256,49386,5,0,3:0:0:0:
448,184,49586,5,0,3:0:0:0:
409,113,49786,5,0,3:0:0:0:
334,62,49986,5,0,3:0:0:0:
231,55,50186,5,0,3:0:0:0:
133,100,50386,5,0,3:0:0:0:
96,208,50586,5,4,0:0:0:0:
96,240,51186,5,0,0:0:0:0:
120,256,51386,1,0,0:0:0:0:
40,304,51586,1,0,0:0:0:0:
136,344,51786,1,0,0:0:0:0:
16,384,51986,1,0,0:0:0:0:
264,359,52186,6,0,L|382:348,1,120.000004577637,4|8,0:0|0:0,0:0:0:0:
448,296,52486,1,0,0:0:0:0:
457,267,52586,2,0,L|429:207,1,60.0000022888184,0|8,0:0|1:0,0:0:0:0:
504,152,52786,2,0,B|483:103|483:103|508:37,2,120.000004577637,8|0|8,0:0|0:0|0:0,0:0:0:0:
406,138,53286,1,0,0:0:0:0:
379,123,53386,2,0,B|348:128|348:128|316:120,1,60.0000022888184,0|8,0:0|1:0,0:0:0:0:
220,120,53586,6,0,L|100:133,2,120.000004577637,8|0|8,0:0|0:0|0:0,0:0:0:0:
276,192,54086,1,2,0:0:0:0:
256,220,54186,2,0,L|269:281,1,60.0000022888184,0|8,0:0|1:0,0:0:0:0:
356,252,54386,2,0,L|480:272,2,120.000004577637,8|8|8,0:0|1:0|0:0,0:0:0:0:
256,220,54886,1,8,1:0:0:0:
276,192,54986,2,0,L|244:136,1,60.0000022888184,0|8,0:0|1:0,0:0:0:0:
308,72,55186,6,0,B|364:88|364:88|425:78,2,120.000004577637,8|0|8,0:0|0:0|0:0,0:0:0:0:
218,41,55686,1,0,0:0:0:0:
217,75,55786,2,0,L|164:112,1,60.0000022888184,0|8,0:0|1:0,0:0:0:0:
236,172,55986,2,0,B|224:232|224:232|179:296,2,120.000004577637,8|0|8,0:0|0:0|0:0,0:0:0:0:
312,220,56486,2,0,P|396:236|440:220,1,120.000004577637,0|8,0:0|1:0,0:0:0:0:
488,160,56786,2,0,B|464:112|464:112|478:47,1,120.000004577637,10|8,0:0|1:0,0:0:0:0:
266,47,57186,6,0,B|280:112|280:112|256:160,1,120.000004577637,10|2,0:0|0:0,0:0:0:0:
129,196,57486,1,0,0:0:0:0:
88,188,57586,2,0,L|20:192,1,60.0000022888184,8|0,0:0|0:0,0:0:0:0:
176,204,57786,2,0,L|235:200,1,60.0000022888184,0|0,0:0|0:0,0:0:0:0:
152,124,57986,2,0,L|148:64,1,60.0000022888184,8|0,0:0|1:0,0:0:0:0:
112,268,58186,2,0,L|115:327,1,60.0000022888184,0|8,0:0|1:0,0:0:0:0:
256,368,58386,2,0,P|204:320|244:300,1,120.000004577637,8|0,0:0|0:0,0:0:0:0:
461,302,58786,6,0,P|479:353|428:368,1,120.000004577637,8|0,0:0|0:0,0:0:0:0:
372,296,59086,1,8,1:0:0:0:
360,265,59186,2,0,L|376:205,1,60.0000022888184,8|0,0:0|0:0,0:0:0:0:
476,152,59386,2,0,L|460:209,1,60.0000022888184,0|0,0:0|0:0,0:0:0:0:
288,316,59586,2,0,L|168:321,1,120.000004577637,8|0,0:0|0:0,0:0:0:0:
82,254,59886,1,8,1:0:0:0:
82,254,59986,6,0,P|58:201|65:142,1,120.000004577637,8|0,0:0|0:0,0:0:0:0:
124,52,60286,1,0,0:0:0:0:
124,52,60386,2,0,B|186:69|186:69|243:46,1,120.000004577637,8|0,0:0|0:0,0:0:0:0:
336,92,60686,1,8,1:0:0:0:
336,92,60786,2,0,B|416:72|416:72|371:66,1,120.000004577637,8|0,0:0|0:0,0:0:0:0:
165,239,61186,1,8,0:0:0:0:
165,239,61286,2,0,B|236:268|236:268|284:256,1,120.000004577637,0|8,0:0|1:0,0:0:0:0:
388,208,61586,2,0,L|380:272,1,60.0000022888184,8|0,0:0|0:0,0:0:0:0:
492,244,61786,6,0,B|507:209|507:209|487:165|491:129,1,120.000004577637,4|8,0:0|0:0,0:0:0:0:
444,52,62086,1,2,0:0:0:0:
444,52,62186,2,0,L|376:44,1,60.0000022888184,0|8,0:0|1:0,0:0:0:0:
228,64,62386,2,0,B|269:109|269:109|329:115,1,120.000004577637,8|8,0:0|0:0,0:0:0:0:
410,153,62686,5,8,1:0:0:0:
353,209,62786,1,8,0:0:0:0:
274,231,62886,1,8,1:0:0:0:
194,214,62986,1,8,0:0:0:0:
133,160,63086,1,8,0:0:0:0:
106,83,63186,6,0,P|27:64|58:139,1,200,4|10,1:0|0:0,0:0:0:0:
192,63,63786,1,10,0:0:0:0:
194,214,63986,1,8,1:0:0:0:
271,135,64186,1,0,0:0:0:0:
353,209,64386,5,8,0:0:0:0:
361,258,64486,1,8,3:0:0:0:
370,307,64586,5,8,0:0:0:0:
443,296,64686,1,8,3:0:0:0:
493,242,64786,1,8,0:0:0:0:
500,169,64886,1,8,3:0:0:0:
461,107,64986,6,0,B|416:88|396:64|396:64|354:66,1,120.000004577637,4|8,0:0|0:0,0:0:0:0:
260,84,65286,1,2,0:0:0:0:
232,68,65386,2,0,L|148:48,1,60.0000022888184,0|8,0:0|1:0,0:0:0:0:
64,168,65586,2,0,L|183:160,2,120.000004577637,8|0|8,0:0|0:0|0:0,0:0:0:0:
28,256,66086,1,0,0:0:0:0:
28,256,66186,2,0,B|53:288|53:288|70:297,1,60.0000022888184,0|8,0:0|1:0,0:0:0:0:
188,320,66386,6,0,B|204:260|204:260|191:203,1,120.000004577637,8|0,0:0|0:0,0:0:0:0:
272,312,66686,1,0,0:0:0:0:
352,300,66786,2,0,L|416:312,1,60.0000022888184,8|0,0:0|0:0,0:0:0:0:
496,344,66986,2,0,L|484:260,1,60.0000022888184,0|8,0:0|1:0,0:0:0:0:
440,116,67186,2,0,L|424:248,2,120.000004577637,8|2|10,0:0|0:0|0:0,0:0:0:0:
372,48,67686,1,8,1:0:0:0:
372,48,67786,2,0,B|340:44|308:48,1,60.0000022888184,0|8,0:0|1:0,0:0:0:0:
200,196,67986,6,0,P|237:150|235:91,1,120.000004577637,8|0,0:0|0:0,0:0:0:0:
158,278,68286,1,0,0:0:0:0:
158,278,68386,2,0,P|216:287|265:255,1,120.000004577637,8|0,0:0|0:0,0:0:0:0:
64,281,68686,1,8,1:0:0:0:
64,281,68786,2,0,P|84:336|137:362,1,120.000004577637,8|0,0:0|0:0,0:0:0:0:
44,200,69086,1,0,0:0:0:0:
43,200,69186,2,0,P|53:171|69:146,1,60.0000022888184,8|0,0:0|0:0,0:0:0:0:
184,52,69386,6,0,P|130:76|76:56,1,120.000004577637,0|8,0:0|0:0,0:0:0:0:
208,136,69686,1,0,0:0:0:0:
284,168,69786,2,0,B|320:152|320:152|400:160,1,120.000004577637,2|10,0:0|0:0,0:0:0:0:
456,68,70086,2,0,B|420:84|420:84|339:75,1,120.000004577637,0|8,0:0|1:0,0:0:0:0:
476,144,70386,2,0,B|488:212|488:212|476:280,1,120.000004577637,10|8,0:0|1:0,0:0:0:0:
416,320,70686,1,8,1:0:0:0:
332,340,70786,1,8,0:0:0:0:
332,340,70886,2,0,B|304:336|276:320|276:320|240:320|217:333,1,120.000004577637,8|8,1:0|1:0,0:0:0:0:
104,324,71186,6,0,B|64:304|64:304|104:300|138:315,1,120.000004577637,8|8,0:0|1:0,0:0:0:0:
195,254,71486,1,2,0:0:0:0:
227,176,71586,2,0,P|232:146|229:116,1,60.0000022888184,8|0,0:0|0:0,0:0:0:0:
144,72,71786,2,0,P|141:101|145:131,1,60.0000022888184,0|8,0:0|1:0,0:0:0:0:
280,244,71986,2,0,L|399:232,1,120.000004577637,8|8,0:0|1:0,0:0:0:0:
447,307,72286,1,2,0:0:0:0:
447,307,72386,2,0,L|327:318,1,120.000004577637,10|0,0:0|0:0,0:0:0:0:
240,348,72686,1,8,1:0:0:0:
152,336,72786,6,0,B|132:312|132:312|152:216,1,120.000004577637,8|8,0:0|1:0,0:0:0:0:
360,48,73186,2,0,B|380:72|380:72|361:158,1,120.000004577637,8|0,0:0|0:0,0:0:0:0:
196,152,73486,1,8,1:0:0:0:
196,152,73586,2,0,B|206:122|206:122|290:96,1,120.000004577637,8|0,0:0|0:0,0:0:0:0:
368,242,73886,1,2,0:0:0:0:
368,242,73986,2,0,B|337:247|337:247|315:228,1,60.0000022888184,8|8,0:0|1:0,0:0:0:0:
268,292,74186,2,0,P|318:324|376:321,1,120.000004577637,0|10,0:0|0:0,0:0:0:0:
224,220,74486,1,0,0:0:0:0:
216,192,74586,6,0,L|228:116,1,60.0000022888184,2|0,0:0|0:0,0:0:0:0:
132,260,74786,2,0,L|122:319,1,60.0000022888184,10|0,0:0|0:0,0:0:0:0:
52,200,74986,1,8,0:0:0:0:
48,108,75086,1,10,0:0:0:0:
107,38,75186,1,8,3:0:0:0:
197,25,75286,1,8,3:0:0:0:
273,75,75386,6,0,B|464:72|464:72|396:136,1,240.000009155274,6|0,0:0|0:0,0:0:0:0:
176,192,75986,2,0,B|64:148,1,120.000004577637,4|0,0:0|0:0,0:0:0:0:
447,235,76386,2,0,B|336:192,1,120.000004577637,0|0,0:0|0:0,0:0:0:0:
123,318,76786,2,0,B|202:283|202:359|296:328,1,180.000006866455,0|0,0:0|0:0,0:0:0:0:
295,328,77186,1,0,0:0:0:0:
124,108,77386,6,0,L|220:112,1,90.0000034332277,8|0,3:0|0:0,0:0:0:0:
259,115,77786,5,4,0:0:0:0:
401,184,77986,1,0,0:0:0:0:
309,42,78186,1,8,0:0:0:0:
452,112,78386,2,0,B|355:75|355:151|259:115,1,200,4|0,0:0|0:0,0:0:0:0:
184,264,78986,1,8,0:0:0:0:
40,192,79186,2,0,B|137:229|137:153|233:189,1,200,4|0,0:0|0:0,0:0:0:0:
344,268,79786,5,8,0:0:0:0:
448,188,79986,1,0,0:0:0:0:
444,168,80086,1,0,0:0:0:0:
440,148,80186,1,8,0:0:0:0:
432,272,80386,1,0,0:0:0:0:
500,88,80586,1,8,0:0:0:0:
504,352,80786,1,0,0:0:0:0:
444,356,80886,1,0,0:0:0:0:
384,360,80986,5,12,0:0:0:0:
172,324,81186,1,0,0:0:0:0:
336,284,81386,1,8,0:0:0:0:
64,228,81586,2,0,P|111:240|159:226,1,100,4|0,0:0|0:0,0:0:0:0:
360,81,81986,6,0,P|320:91|280:82,1,83.9999974365235,4|0,0:0|0:0,0:0:0:0:
188,56,82386,6,0,B|171:106|197:165|259:181|259:181|277:230|268:312|200:412|136:376|148:364|120:312|108:232|244:256|196:364|300:354|377:346|377:346|368:264|436:216|400:16|400:16|460:164|472:284|456:328|456:328|472:300|504:272,1,1385.99999577026,6|0,0:0|0:0,0:0:0:0:
