osu file format v14

[General]
AudioFilename: audio.mp3
AudioLeadIn: 0
PreviewTime: 54054
Countdown: 0
SampleSet: Soft
StackLeniency: 0.7
Mode: 0
LetterboxInBreaks: 0
WidescreenStoryboard: 0

[Editor]
DistanceSpacing: 1.2
BeatDivisor: 4
GridSize: 4
TimelineZoom: 1.8

[Metadata]
Title:KNOCK on the CORE (TV Size)
TitleUnicode:KNOCK on the CORE (TV Size)
Artist:(K)NoW_NAME
ArtistUnicode:(K)NoW_NAME
Creator:kunka
Version:Easy
Source:Fairy gone フェアリーゴーン
Tags:op opening anime japanese jrock j rock know name moph Kalibe Akitoshi Corinn -Laura- kunkakunkakunkakunka
BeatmapID:2483467
BeatmapSetID:1188929

[Difficulty]
HPDrainRate:3
CircleSize:3
OverallDifficulty:4
ApproachRate:4
SliderMultiplier:0.9
SliderTickRate:1

[Events]
//Background and Video events
0,0,"BG.jpg",0,0
Video,-395,"KNOCK on the CORE.mp4"
//Break Periods
2,41307,44839
//Storyboard Layer 0 (Background)
//Storyboard Layer 1 (Fail)
//Storyboard Layer 2 (Pass)
//Storyboard Layer 3 (Foreground)
//Storyboard Layer 4 (Overlay)
//Storyboard Sound Samples

[TimingPoints]
686,315.789473684211,4,2,1,50,1,0
686,-111.111111111111,4,2,1,50,0,0
10791,-111.111111111111,4,2,1,65,0,0
20896,-111.111111111111,4,2,1,60,0,0
30370,-111.111111111111,4,2,1,62,0,0
31001,-111.111111111111,4,2,1,65,0,0
41107,-111.111111111111,4,2,1,50,0,0
46159,-111.111111111111,4,2,1,65,0,0
51212,-111.111111111111,4,2,1,70,0,0
55001,-111.111111111111,4,2,1,75,0,1
65107,-111.111111111111,4,2,1,60,0,1
70159,-111.111111111111,4,2,1,75,0,1
73949,-111.111111111111,4,2,1,60,0,0
75212,-111.111111111111,4,2,1,65,0,0
85317,-111.111111111111,4,2,1,60,0,0

[Colours]
Combo1 : 255,128,255
Combo2 : 128,255,128
Combo3 : 128,255,255
Combo4 : 255,128,128
Combo5 : 255,255,128

[HitObjects]
48,205,686,5,4,1:0:0:0:
201,324,1317,6,0,P|278:343|352:307,1,161.999995056153,2|2,0:0|0:0,0:0:0:0:
395,223,2264,2,0,B|395:150|415:84|415:84|361:54|314:69,1,242.999992584229,2|4,0:0|1:0,0:0:0:0:
221,237,3843,6,0,P|149:270|72:251,1,161.999995056153,2|2,0:0|0:0,0:0:0:0:
36,160,4791,2,0,B|86:103|88:51|88:51|134:75|212:58,1,242.999992584229,2|4,0:0|1:0,0:0:0:0:
329,208,6370,6,0,P|406:226|477:193,1,161.999995056153,2|2,0:0|0:0,0:0:0:0:
491,95,7317,2,0,P|381:56|282:124,1,242.999992584229,2|4,0:0|1:0,0:0:0:0:
95,72,8896,6,0,P|69:147|96:220,1,161.999995056153,2|2,0:0|0:0,0:0:0:0:
161,296,9843,2,0,B|241:289|227:340|312:336,1,161.999995056153,2|2,0:0|0:0,0:0:0:0:
405,303,10791,5,4,1:0:0:0:
490,131,11422,1,10,0:0:0:0:
418,65,11738,2,0,P|339:54|255:65,1,161.999995056153,2|8,1:0|0:0,0:0:0:0:
164,94,12686,1,10,0:0:0:0:
67,84,13001,1,10,0:0:0:0:
24,171,13317,6,0,B|6:211|6:250|6:250|22:291|54:318,1,161.999995056153,4|10,1:0|0:0,0:0:0:0:
142,354,14264,1,2,1:0:0:0:
231,316,14580,2,0,P|312:315|391:340,1,161.999995056153,2|8,0:0|1:0,0:0:0:0:
392,144,15843,6,0,P|350:142|314:161,1,80.9999975280763,4|2,1:0|0:0,0:0:0:0:
244,226,16475,1,10,0:0:0:0:
147,240,16791,1,4,1:0:0:0:
63,189,17107,2,0,B|45:148|46:109|46:109|63:68|92:44,1,161.999995056153,2|10,0:0|0:0,0:0:0:0:
188,29,18054,1,8,0:0:0:0:
285,35,18370,6,0,P|326:31|368:45,1,80.9999975280763,12|10,1:0|1:0,0:0:0:0:
408,128,19001,2,0,L|398:211,1,80.9999975280763,10|10,1:0|1:0,0:0:0:0:
422,302,19633,2,0,P|463:306|505:292,2,80.9999975280763,10|10|10,1:0|1:0|1:0,0:0:0:0:
328,274,20580,1,10,1:0:0:0:
249,331,20896,6,0,P|177:364|100:345,1,161.999995056153,4|8,1:0|0:0,0:0:0:0:
90,249,21843,2,0,P|161:215|238:234,1,161.999995056153,10|8,0:0|0:0,0:0:0:0:
413,320,23107,1,10,0:0:0:0:
452,232,23422,6,0,B|436:196|436:196|468:120|468:120|452:80,1,161.999995056153,10|8,1:0|0:0,0:0:0:0:
375,23,24370,2,0,B|320:55|261:63|261:63|234:58|216:48,1,161.999995056153,10|10,0:0|0:0,0:0:0:0:
126,36,25317,2,0,P|85:46|53:68,1,80.9999975280763,8|8,0:0|0:0,0:0:0:0:
24,161,25949,6,0,B|14:205|14:240|14:240|27:276|56:324,1,161.999995056153,12|10,0:0|0:0,0:0:0:0:
139,354,26896,1,10,0:0:0:0:
222,303,27212,2,0,P|261:296|303:298,1,80.9999975280763,10|10,0:0|0:0,0:0:0:0:
374,232,27843,2,0,P|375:191|368:151,1,80.9999975280763,10|10,0:0|0:0,0:0:0:0:
298,83,28475,6,0,B|252:66|220:59|220:59|187:67|141:88,1,161.999995056153,8|10,1:0|0:0,0:0:0:0:
69,148,29422,1,10,0:0:0:0:
49,243,29738,2,0,P|47:283|54:323,2,80.9999975280763,10|10|10,0:0|0:0|1:0,0:0:0:0:
236,301,31001,6,0,B|270:271|309:269|309:269|356:287,1,121.499996292114,4|2,1:0|0:0,0:0:0:0:
465,198,31949,2,0,B|494:163|497:125|497:125|479:78,2,121.499996292114,10|2|2,0:0|0:0|1:0,0:0:0:0:
372,168,33212,1,10,0:0:0:0:
277,192,33528,6,0,L|265:274,1,80.9999975280763,2|10,1:0|0:0,0:0:0:0:
175,310,34159,2,0,L|163:228,1,80.9999975280763,2|10,1:0|0:0,0:0:0:0:
73,192,34791,2,0,P|43:119|81:50,1,161.999995056153,2|2,1:0|1:0,0:0:0:0:
178,44,35738,1,10,0:0:0:0:
275,51,36054,6,0,B|304:85|307:124|307:124|292:161,1,121.499996292114,2|2,1:0|0:0,0:0:0:0:
191,266,37001,2,0,B|163:233|161:197|161:197|177:153,2,121.499996292114,10|2|2,0:0|0:0|1:0,0:0:0:0:
260,333,38264,1,10,0:0:0:0:
350,296,38580,6,0,P|390:296|432:307,1,80.9999975280763,2|12,1:0|0:0,0:0:0:0:
437,208,39212,2,0,P|397:198|357:197,1,80.9999975280763,2|12,1:0|0:0,0:0:0:0:
261,216,39843,1,2,1:0:0:0:
171,254,40159,1,10,1:0:0:0:
81,216,40475,2,0,P|68:179|71:132,1,80.9999975280763,2|0,1:0|1:0,0:0:0:0:
94,43,41107,5,4,0:0:0:0:
94,43,46159,6,0,B|172:19|172:19|247:54,1,161.999995056153,12|10,0:0|0:0,0:0:0:0:
330,99,47107,1,10,0:0:0:0:
415,145,47422,2,0,L|496:140,1,80.9999975280763,10|10,0:0|0:0,0:0:0:0:
502,237,48054,2,0,L|421:242,1,80.9999975280763,10|10,0:0|0:0,0:0:0:0:
333,198,48686,6,0,B|298:186|298:186|218:210|218:210|178:198,1,161.999995056153,10|10,0:0|0:0,0:0:0:0:
90,156,49633,1,10,0:0:0:0:
12,215,49949,2,0,B|-1:252|-1:252|13:294,1,80.9999975280763,10|10,0:0|0:0,0:0:0:0:
100,333,50580,2,0,B|113:293|113:293|100:256,1,80.9999975280763,10|10,0:0|0:0,0:0:0:0:
256,192,51212,12,12,53738,1:0:0:0:
206,29,55001,6,0,L|286:45,2,80.9999975280763,4|8|2,1:0|0:0|1:0,0:0:0:0:
109,35,55949,2,0,P|65:99|79:181,1,161.999995056153,10|10,0:0|0:0,0:0:0:0:
158,231,56896,1,2,1:0:0:0:
253,210,57212,1,10,0:0:0:0:
331,267,57528,6,0,L|320:351,1,80.9999975280763,2|10,1:0|0:0,0:0:0:0:
417,353,58159,2,0,L|427:272,1,80.9999975280763,2|10,1:0|0:0,0:0:0:0:
427,175,58791,1,2,1:0:0:0:
395,83,59107,2,0,P|406:43|393:-2,2,80.9999975280763,10|2|10,0:0|1:0|0:0,0:0:0:0:
331,156,60054,5,2,1:0:0:0:
237,128,60370,1,10,0:0:0:0:
57,199,61001,1,10,0:0:0:0:
109,280,61317,2,0,P|98:320|111:365,2,80.9999975280763,2|10|2,1:0|0:0|1:0,0:0:0:0:
195,235,62264,6,0,B|240:244|272:262|272:262|305:244|348:240,1,161.999995056153,10|10,0:0|0:0,0:0:0:0:
445,239,63212,2,0,L|458:158,1,80.9999975280763,0|10,1:0|0:0,0:0:0:0:
442,64,63843,1,12,0:0:0:0:
355,21,64159,2,0,B|313:3|276:10|276:10|243:34,2,121.499996292114,10|10|4,0:0|0:3|1:0,0:0:0:0:
446,192,65738,6,0,P|457:229|459:273,2,80.9999975280763,10|10|0,0:0|0:0|1:0,0:0:0:0:
366,136,66686,1,2,1:0:0:0:
270,121,67001,2,0,P|229:122|190:134,1,80.9999975280763,10|12,0:0|0:0,0:0:0:0:
100,171,67633,5,4,1:0:0:0:
210,329,68264,2,0,P|250:331|289:343,1,80.9999975280763,10|10,0:0|0:0,0:0:0:0:
385,330,68896,2,0,B|400:296|406:253|406:253|402:211|383:172,1,161.999995056153,4|10,1:0|1:0,0:0:0:0:
343,87,69843,1,10,0:3:0:0:
245,85,70159,6,0,P|168:95|127:119,2,121.499996292114,12|10|10,0:0|0:0|0:0,0:0:0:0:
291,170,71422,2,0,P|272:245|280:292,2,121.499996292114,12|10|10,0:0|0:0|0:0,0:0:0:0:
343,87,72686,6,0,P|384:84|424:96,1,80.9999975280763,12|8,0:0|0:3,0:0:0:0:
478,173,73317,2,0,P|481:214|469:254,1,80.9999975280763,8|8,0:0|0:0,0:0:0:0:
423,337,73949,1,2,0:0:0:0:
224,313,75212,6,0,P|157:356|78:341,1,161.999995056153,4|10,1:0|0:0,0:0:0:0:
57,247,76159,2,0,P|123:204|201:218,1,161.999995056153,2|8,1:0|0:0,0:0:0:0:
291,255,77107,1,10,0:0:0:0:
380,292,77422,1,10,0:0:0:0:
461,239,77738,6,0,B|445:203|445:203|477:127|477:127|461:87,1,161.999995056153,4|10,1:0|0:0,0:0:0:0:
377,40,78686,1,2,1:0:0:0:
293,89,79001,2,0,P|215:120|134:107,1,161.999995056153,2|10,0:0|0:0,0:0:0:0:
110,301,80264,6,0,P|148:298|187:312,1,80.9999975280763,4|2,1:0|0:0,0:0:0:0:
272,361,80896,1,10,0:0:0:0:
367,340,81212,1,4,1:0:0:0:
393,246,81528,2,0,P|323:208|247:240,1,161.999995056153,2|10,0:0|0:0,0:0:0:0:
188,311,82475,1,8,0:0:0:0:
108,254,82791,6,0,L|25:250,2,80.9999975280763,12|10|10,1:0|1:0|1:0,0:0:0:0:
171,179,83738,1,10,1:0:0:0:
125,93,84054,2,0,P|115:52|127:13,1,80.9999975280763,10|10,1:0|1:0,0:0:0:0:
223,18,84686,2,0,P|233:59|221:98,1,80.9999975280763,12|8,1:0|0:3,0:0:0:0:
171,179,85317,6,0,B|143:239|195:239|171:303,1,121.499996292114,4|4,1:0|1:0,0:0:0:0:
319,298,86264,2,0,B|347:238|295:238|317:180,1,121.499996292114,4|4,1:0|1:0,0:0:0:0:
406,66,87212,2,0,L|445:50,2,40.4999987640381,12|8|12,0:3|0:3|0:3,0:0:0:0:
