osu file format v14

[General]
AudioFilename: audio.mp3
AudioLeadIn: 0
PreviewTime: 54054
Countdown: 0
SampleSet: None
StackLeniency: 0.7
Mode: 0
LetterboxInBreaks: 0
WidescreenStoryboard: 0

[Editor]
DistanceSpacing: 1.7
BeatDivisor: 4
GridSize: 4
TimelineZoom: 2.999999

[Metadata]
Title:KNOCK on the CORE (TV Size)
TitleUnicode:KNOCK on the CORE (TV Size)
Artist:(K)NoW_NAME
ArtistUnicode:(K)NoW_NAME
Creator:kunka
Version:Ash-like Snow
Source:Fairy gone フェアリーゴーン
Tags:op opening anime japanese jrock j rock know name moph Kalibe Akitoshi Corinn -Laura- kunkakunkakunkakunka
BeatmapID:2477451
BeatmapSetID:1188929

[Difficulty]
HPDrainRate:5.5
CircleSize:4.2
OverallDifficulty:9
ApproachRate:9.4
SliderMultiplier:1.8
SliderTickRate:1

[Events]
//Background and Video events
0,0,"BG.jpg",0,0
Video,-395,"KNOCK on the CORE.mp4"
//Break Periods
//Storyboard Layer 0 (Background)
//Storyboard Layer 1 (Fail)
//Storyboard Layer 2 (Pass)
//Storyboard Layer 3 (Foreground)
//Storyboard Layer 4 (Overlay)
//Storyboard Sound Samples

[TimingPoints]
686,315.789473684211,4,2,1,50,1,0
686,-125,4,2,1,50,0,0
1870,-125,4,2,1,5,0,0
1949,-125,4,2,1,50,0,0
2186,-125,4,2,1,5,0,0
2264,-125,4,2,1,50,0,0
4396,-125,4,2,1,5,0,0
4475,-125,4,2,1,50,0,0
4712,-125,4,2,1,5,0,0
4791,-125,4,2,1,50,0,0
6922,-125,4,2,1,5,0,0
7001,-125,4,2,1,50,0,0
7238,-125,4,2,1,5,0,0
7317,-125,4,2,1,50,0,0
9449,-125,4,2,1,5,0,0
9528,-125,4,2,1,50,0,0
10791,-90.9090909090909,4,2,1,65,0,0
11186,-90.9090909090909,4,2,1,5,0,0
11264,-90.9090909090909,4,2,1,65,0,0
11659,-90.9090909090909,4,2,1,5,0,0
11738,-90.9090909090909,4,2,1,65,0,0
12133,-90.9090909090909,4,2,1,5,0,0
12212,-90.9090909090909,4,2,1,65,0,0
13712,-90.9090909090909,4,2,1,5,0,0
13791,-90.9090909090909,4,2,1,65,0,0
14186,-90.9090909090909,4,2,1,5,0,0
14264,-90.9090909090909,4,2,1,65,0,0
20896,-111.111111111111,4,2,1,60,0,0
21133,-111.111111111111,4,2,1,5,0,0
21212,-111.111111111111,4,2,1,60,0,0
26580,-125,4,2,1,60,0,0
26896,-83.3333333333333,4,2,1,60,0,0
27212,-111.111111111111,4,2,1,60,0,0
27843,-125,4,2,1,60,0,0
28159,-83.3333333333333,4,2,1,60,0,0
28475,-111.111111111111,4,2,1,60,0,0
29107,-125,4,2,1,60,0,0
29422,-83.3333333333333,4,2,1,60,0,0
29738,-100,4,2,1,60,0,0
30370,-95.2380952380952,4,2,1,62,0,0
31001,-90.9090909090909,4,2,1,65,0,0
31238,-90.9090909090909,4,2,1,5,0,0
31317,-90.9090909090909,4,2,1,65,0,0
36291,-90.9090909090909,4,2,1,5,0,0
36370,-90.9090909090909,4,2,1,65,0,0
41107,-125,4,2,1,50,0,0
41501,-125,4,2,1,5,0,0
41580,-125,4,2,1,50,0,0
41975,-125,4,2,1,5,0,0
42054,-125,4,2,1,50,0,0
42449,-125,4,2,1,5,0,0
42528,-125,4,2,1,50,0,0
42922,-125,4,2,1,5,0,0
43001,-125,4,2,1,50,0,0
43238,-125,4,2,1,5,0,0
43317,-125,4,2,1,50,0,0
44028,-125,4,2,1,5,0,0
44107,-125,4,2,1,50,0,0
44501,-125,4,2,1,5,0,0
44580,-125,4,2,1,50,0,0
44975,-125,4,2,1,5,0,0
45054,-125,4,2,1,50,0,0
45449,-125,4,2,1,5,0,0
45528,-111.111111111111,4,2,1,55,0,0
45843,-100,4,2,1,60,0,0
46159,-90.909090909091,4,2,1,65,0,0
46791,-125,4,2,1,65,0,0
47107,-83.3333333333333,4,2,1,65,0,0
47422,-90.9090909090909,4,2,1,65,0,0
48054,-125,4,2,1,65,0,0
48370,-83.3333333333333,4,2,1,65,0,0
48686,-90.9090909090909,4,2,1,65,0,0
49317,-125,4,2,1,65,0,0
49633,-83.3333333333333,4,2,1,65,0,0
49949,-125,4,2,1,65,0,0
50264,-83.3333333333333,4,2,1,65,0,0
50580,-90.9090909090909,4,2,1,65,0,0
51212,-86.9565217391304,4,2,1,70,0,0
55001,-83.3333333333333,4,2,1,75,0,1
55238,-83.3333333333333,4,2,1,5,0,1
55317,-83.3333333333333,4,2,1,75,0,1
56186,-83.3333333333333,4,2,1,5,0,1
56264,-83.3333333333333,4,2,1,75,0,1
57764,-83.3333333333333,4,2,1,5,0,1
57843,-83.3333333333333,4,2,1,75,0,1
62501,-83.3333333333333,4,2,1,5,0,1
62580,-83.3333333333333,4,2,1,75,0,1
64396,-83.3333333333333,4,2,1,5,0,1
64475,-83.3333333333333,4,2,1,75,0,1
65107,-95.2380952380952,4,2,1,60,0,1
65422,-83.3333333333333,4,2,1,60,0,1
65738,-125,4,2,1,60,0,1
66054,-95.2380952380952,4,2,1,60,0,1
66686,-83.3333333333333,4,2,1,60,0,1
67001,-125,4,2,1,60,0,1
67317,-95.2380952380952,4,2,1,60,0,1
67949,-83.3333333333333,4,2,1,60,0,1
68264,-125,4,2,1,60,0,1
68580,-95.2380952380952,4,2,1,60,0,1
70159,-83.3333333333333,4,2,1,75,0,1
73949,-100,4,2,1,60,0,0
75212,-90.9090909090909,4,2,1,65,0,0
75607,-90.9090909090909,4,2,1,5,0,0
75686,-90.9090909090909,4,2,1,65,0,0
76080,-90.9090909090909,4,2,1,5,0,0
76159,-90.9090909090909,4,2,1,65,0,0
76554,-90.9090909090909,4,2,1,5,0,0
76633,-90.9090909090909,4,2,1,65,0,0
78133,-90.9090909090909,4,2,1,5,0,0
78212,-90.9090909090909,4,2,1,65,0,0
78607,-90.9090909090909,4,2,1,5,0,0
78686,-90.9090909090909,4,2,1,65,0,0
85317,-100,4,2,1,60,0,0
85712,-100,4,2,1,5,0,0
85791,-100,4,2,1,60,0,0
86659,-100,4,2,1,5,0,0
86738,-100,4,2,1,60,0,0

[Colours]
Combo1 : 255,128,255
Combo2 : 128,255,128
Combo3 : 128,255,255
Combo4 : 255,128,128
Combo5 : 255,255,128

[HitObjects]
246,185,528,5,0,1:0:0:0:
246,185,607,1,0,1:0:0:0:
246,185,686,1,4,1:0:0:0:
246,185,1317,6,0,P|327:93|442:116,1,252,2|0,0:0|0:0,0:0:0:0:
472,149,1949,2,0,L|458:256,1,108,2|0,0:0|0:0,0:0:0:0:
428,287,2264,2,0,B|367:350|327:298|273:369|273:369|255:302|199:276|129:310,1,360,2|0,0:0|1:0,0:0:0:0:
94,330,3133,1,0,1:0:0:0:
94,330,3212,1,4,1:0:0:0:
94,330,3843,6,0,P|168:243|75:175,1,252,2|0,0:0|0:0,0:0:0:0:
54,139,4475,2,0,P|64:80|96:38,1,108,2|0,0:0|0:0,0:0:0:0:
132,24,4791,2,0,B|210:22|258:84|258:84|299:58|340:64|340:64|380:104|380:104|418:91|453:72,1,360,2|0,0:0|1:0,0:0:0:0:
486,60,5659,1,0,1:0:0:0:
486,60,5738,1,4,1:0:0:0:
486,60,6370,6,0,P|413:128|444:266,1,252,2|0,0:0|0:0,0:0:0:0:
460,305,7001,2,0,P|415:293|350:301,1,108,2|0,0:0|0:0,0:0:0:0:
313,315,7317,2,0,B|234:283|246:165|246:165|151:235|77:179,1,360,2|0,0:0|1:0,0:0:0:0:
50,145,8186,1,0,1:0:0:0:
50,145,8264,1,4,1:0:0:0:
50,145,8896,6,0,P|127:46|236:76,1,252,2|0,0:0|0:0,0:0:0:0:
260,111,9528,1,2,0:0:0:0:
218,245,9686,1,2,0:0:0:0:
218,245,9843,2,0,P|200:248|173:255,2,36,2|2|2,0:0|0:0|0:0,0:0:0:0:
327,286,10159,1,2,0:0:0:0:
399,195,10317,1,2,0:0:0:0:
404,190,10396,1,2,0:0:0:0:
409,185,10475,2,0,P|415:149|406:115,1,72,2|2,0:0|1:0,0:0:0:0:
323,71,10712,1,2,1:0:0:0:
297,76,10791,6,0,B|165:106|265:206|131:239,1,247.500007553101,4|0,1:0|0:0,0:0:0:0:
30,247,11264,1,2,1:0:0:0:
151,131,11422,2,0,P|220:132|288:172,1,148.50000453186,10|0,0:0|0:0,0:0:0:0:
357,250,11738,1,2,1:0:0:0:
457,36,11896,2,0,L|309:56,1,148.50000453186,2|0,1:0|0:0,0:0:0:0:
207,78,12212,1,0,1:0:0:0:
247,295,12370,5,8,0:0:0:0:
392,210,12528,1,0,1:0:0:0:
185,106,12686,1,10,0:0:0:0:
253,258,12843,1,0,1:0:0:0:
478,182,13001,1,10,1:0:0:0:
304,9,13159,1,0,0:0:0:0:
299,12,13238,1,0,1:0:0:0:
296,17,13317,5,4,1:0:0:0:
156,124,13475,2,0,L|169:274,1,148.50000453186,2|0,1:0|0:0,0:0:0:0:
178,362,13791,1,2,1:0:0:0:
423,238,13949,2,0,P|352:219|283:245,1,148.50000453186,10|0,0:0|0:0,0:0:0:0:
205,291,14264,1,2,1:0:0:0:
156,124,14422,1,12,0:0:0:0:
404,36,14580,6,0,P|453:37|497:57,1,99.0000030212403,2|0,0:0|1:0,0:0:0:0:
466,224,14896,2,0,P|416:222|372:202,1,99.0000030212403,8|2,0:0|0:0,0:0:0:0:
199,95,15212,1,8,1:0:0:0:
42,262,15370,1,8,0:0:0:0:
1,39,15528,1,8,0:0:0:0:
164,221,15686,1,8,0:0:0:0:
168,227,15764,1,0,1:0:0:0:
172,233,15843,5,4,1:0:0:0:
326,166,16001,1,2,1:0:0:0:
416,355,16159,2,0,P|432:304|416:255,1,99.0000030212403,2|0,0:0|1:0,0:0:0:0:
246,98,16475,1,10,0:0:0:0:
127,218,16633,1,2,0:0:0:0:
33,25,16791,2,0,L|132:39,1,99.0000030212403,4|0,1:0|1:0,0:0:0:0:
397,19,17107,6,0,B|408:46|408:46|393:124,1,99.0000030212403,2|0,0:0|1:0,0:0:0:0:
359,287,17422,1,8,0:0:0:0:
490,182,17580,1,0,1:0:0:0:
221,152,17738,1,10,0:0:0:0:
323,285,17896,1,0,1:0:0:0:
265,43,18054,2,0,P|214:33|163:48,1,99.0000030212403,8|0,0:0|0:0,0:0:0:0:
57,274,18370,5,12,1:0:0:0:
214,334,18528,1,0,0:0:0:0:
169,120,18686,1,10,1:0:0:0:
51,240,18843,1,0,0:0:0:0:
357,291,19001,5,10,1:0:0:0:
477,173,19159,1,0,0:0:0:0:
263,128,19317,1,10,1:0:0:0:
323,285,19474,1,0,0:0:0:0:
46,343,19633,5,10,1:0:0:0:
9,178,19791,1,0,0:0:0:0:
222,300,19949,1,10,1:0:0:0:
185,135,20106,1,0,0:0:0:0:
435,238,20264,5,10,1:0:0:0:
472,73,20422,1,0,0:0:0:0:
259,195,20580,1,10,1:0:0:0:
296,30,20738,1,0,0:0:0:0:
374,314,20896,6,0,B|343:338|343:338|259:324,1,121.499996292114,4|0,1:0|0:0,0:0:0:0:
181,311,21212,1,8,0:0:0:0:
91,228,21370,1,2,0:0:0:0:
190,70,21528,1,8,0:0:0:0:
269,228,21686,1,0,1:0:0:0:
111,123,21843,2,0,P|185:100|264:123,1,161.999995056153,10|8,0:0|0:0,0:0:0:0:
370,183,22317,5,2,1:0:0:0:
337,339,22475,2,0,P|325:301|337:262,1,80.9999975280763,8|0,0:0|0:0,0:0:0:0:
428,127,22791,1,8,0:0:0:0:
332,52,22949,1,0,1:0:0:0:
296,168,23107,1,10,0:0:0:0:
130,197,23264,1,2,1:0:0:0:
128,202,23343,1,0,1:0:0:0:
126,207,23422,6,0,P|118:244|125:286,1,80.9999975280763,10|0,1:0|1:0,0:0:0:0:
241,249,23738,1,8,0:0:0:0:
41,236,23896,1,2,0:0:0:0:
98,76,24054,2,0,P|133:67|177:76,1,80.9999975280763,8|2,0:0|1:0,0:0:0:0:
200,91,24291,1,2,0:0:0:0:
226,103,24370,2,0,P|303:87|317:15,1,161.999995056153,10|8,0:0|0:0,0:0:0:0:
139,13,24843,5,2,1:0:0:0:
96,127,25001,2,0,P|101:163|115:204,1,80.9999975280763,10|0,0:0|0:0,0:0:0:0:
275,218,25317,2,0,P|237:223|197:237,1,80.9999975280763,8|0,0:0|1:0,0:0:0:0:
124,307,25633,1,8,0:0:0:0:
182,157,25791,1,0,1:0:0:0:
413,301,25949,6,0,P|421:259|408:223,1,80.9999975280763,12|2,0:0|0:0,0:0:0:0:
371,108,26264,1,10,0:0:0:0:
276,184,26422,1,2,0:0:0:0:
99,58,26580,6,0,P|107:94|96:126,1,72,10|0,0:0|1:0,0:0:0:0:
48,299,26896,2,0,P|38:242|55:194,1,107.999996704102,10|0,0:0|0:0,0:0:0:0:
223,63,27212,5,10,0:0:0:0:
337,103,27370,1,2,1:0:0:0:
446,49,27528,1,10,0:0:0:0:
374,235,27686,1,2,0:0:0:0:
371,240,27764,1,2,0:0:0:0:
369,245,27843,6,0,P|361:279|369:317,1,72,10|0,0:0|1:0,0:0:0:0:
466,188,28159,2,0,P|425:142|381:130,1,107.999996704102,10|0,0:0|1:0,0:0:0:0:
343,135,28396,1,0,1:0:0:0:
316,145,28475,6,0,P|278:154|235:152,1,80.9999975280763,8|2,1:0|0:0,0:0:0:0:
115,131,28791,1,10,0:0:0:0:
193,38,28949,1,2,1:0:0:0:
149,255,29107,6,0,B|132:286|132:286|142:323,1,72,10|0,0:0|1:0,0:0:0:0:
296,252,29422,2,0,B|320:206|320:206|306:152,1,107.999996704102,10|0,0:0|1:0,0:0:0:0:
146,40,29738,5,10,0:0:0:0:
204,161,29896,1,2,1:0:0:0:
281,50,30054,1,10,0:0:0:0:
69,151,30212,1,2,1:0:0:0:
200,308,30370,5,10,1:0:0:0:
241,285,30449,1,10,0:0:0:0:
287,281,30527,1,8,0:0:0:0:
331,298,30606,1,8,0:0:0:0:
365,331,30685,1,10,1:0:0:0:
481,119,30843,1,8,0:0:0:0:
476,114,30922,1,8,0:0:0:0:
471,109,31001,6,0,B|423:101|423:101|377:121|377:121|327:109,1,148.50000453186,4|0,1:0|0:0,0:0:0:0:
225,91,31317,1,8,0:0:0:0:
310,241,31475,1,2,0:0:0:0:
127,139,31633,2,0,P|115:89|127:44,1,99.0000030212403,0|0,1:0|0:0,0:0:0:0:
310,145,31949,2,0,P|322:195|310:240,1,99.0000030212403,10|0,0:0|0:0,0:0:0:0:
178,361,32264,5,0,1:0:0:0:
39,245,32422,2,0,P|86:229|135:243,1,99.0000030212403,2|10,0:0|0:0,0:0:0:0:
223,299,32659,1,2,0:0:0:0:
247,315,32738,2,0,P|291:336|343:328,1,99.0000030212403,2|0,0:0|1:0,0:0:0:0:
474,204,33054,1,2,0:0:0:0:
347,92,33212,2,0,P|354:139|360:191,1,99.0000030212403,10|0,0:0|0:0,0:0:0:0:
130,246,33528,5,2,1:0:0:0:
274,333,33686,1,2,0:0:0:0:
115,278,33843,2,0,P|67:271|17:282,1,99.0000030212403,10|0,0:0|0:0,0:0:0:0:
96,58,34159,1,2,1:0:0:0:
7,201,34317,1,2,0:0:0:0:
122,79,34475,2,0,P|170:72|218:82,1,99.0000030212403,10|0,0:0|0:0,0:0:0:0:
447,35,34791,6,0,P|423:77|422:126,1,99.0000030212403,2|0,1:0|0:0,0:0:0:0:
363,309,35107,2,0,P|362:259|338:217,1,99.0000030212403,10|0,0:0|0:0,0:0:0:0:
173,109,35422,1,2,1:0:0:0:
34,205,35580,1,0,0:0:0:0:
139,335,35738,1,10,0:0:0:0:
109,55,35896,1,2,0:0:0:0:
113,50,35975,1,2,0:0:0:0:
117,45,36054,6,0,P|186:25|247:68,1,148.50000453186,2|0,1:0|0:0,0:0:0:0:
305,152,36370,1,10,0:0:0:0:
213,293,36528,1,2,0:0:0:0:
417,249,36686,2,0,P|367:237|322:249,1,99.0000030212403,0|0,1:0|0:0,0:0:0:0:
117,293,37001,2,0,P|167:305|212:293,1,99.0000030212403,10|0,0:0|0:0,0:0:0:0:
305,152,37317,5,0,1:0:0:0:
148,56,37475,2,0,L|161:154,1,99.0000030212403,2|8,0:0|0:0,0:0:0:0:
253,295,37791,1,2,0:0:0:0:
390,142,37949,2,0,B|469:127|469:127|449:106,1,99.0000030212403,2|0,1:0|0:0,0:0:0:0:
296,55,38264,1,10,0:0:0:0:
209,300,38422,1,8,0:3:0:0:
204,298,38501,1,8,0:3:0:0:
199,296,38580,5,2,1:0:0:0:
351,223,38738,1,2,0:0:0:0:
173,99,38896,2,0,B|124:87|124:87|79:120,1,99.0000030212403,12|0,0:0|0:0,0:0:0:0:
326,26,39212,1,2,1:0:0:0:
259,180,39370,1,2,0:0:0:0:
399,350,39528,2,0,B|411:301|411:301|378:256,1,99.0000030212403,12|0,0:0|0:0,0:0:0:0:
475,51,39843,5,2,1:0:0:0:
292,191,40001,1,8,0:0:0:0:
326,26,40159,1,10,1:0:0:0:
486,77,40317,1,8,0:0:0:0:
382,261,40475,5,2,1:0:0:0:
292,191,40633,1,0,1:0:0:0:
400,148,40791,1,0,1:0:0:0:
490,219,40949,1,0,1:0:0:0:
382,261,41107,6,0,B|298:318|282:260|212:309,1,180,4|0,0:0|0:0,0:0:0:0:
170,319,41580,2,0,B|102:298|31:317|31:317|45:297|43:272,1,180,2|0,0:0|0:0,0:0:0:0:
53,238,42054,2,0,P|53:160|130:177,1,180,2|0,0:0|0:0,0:0:0:0:
162,207,42528,2,0,P|238:224|239:146,1,180,2|0,0:0|0:0,0:0:0:0:
226,104,43001,2,0,P|253:55|300:37,1,108,2|0,0:0|0:0,0:0:0:0:
343,40,43317,1,2,0:0:0:0:
415,299,43554,1,2,0:0:0:0:
435,281,43633,6,0,P|460:203|408:124,1,180,2|0,0:0|0:0,0:0:0:0:
365,108,44107,2,0,B|319:123|287:91|287:91|251:123|197:107,1,180,2|0,0:0|0:0,0:0:0:0:
155,79,44580,2,0,P|78:61|77:139,1,180,2|0,0:0|0:0,0:0:0:0:
108,185,45054,2,0,B|147:247|99:323|99:323|124:357,1,180,2|0,0:0|0:0,0:0:0:0:
195,366,45528,2,0,P|256:344|315:357,1,121.499996292114,2|0,0:0|0:0,0:0:0:0:
402,317,45843,2,0,P|408:292|415:270,1,45,2|0,1:0|1:0,0:0:0:0:
484,200,46001,2,0,P|478:175|471:153,1,45,0|0,1:0|1:0,0:0:0:0:
386,52,46159,5,12,0:0:0:0:
255,158,46317,1,0,1:0:0:0:
94,106,46475,2,0,P|79:144|91:203,1,99.0000030212403,10|0,0:0|0:0,0:0:0:0:
313,317,46791,5,10,0:0:0:0:
255,158,46949,1,2,1:0:0:0:
431,106,47107,2,0,P|446:146|434:209,1,107.999996704102,10|0,0:0|0:0,0:0:0:0:
147,358,47422,5,10,0:0:0:0:
255,158,47580,1,2,1:0:0:0:
89,199,47738,1,10,0:0:0:0:
313,317,47896,1,0,0:0:0:0:
445,126,48054,6,0,B|428:104|428:104|381:100,1,72,10|0,0:0|1:0,0:0:0:0:
207,148,48370,2,0,P|161:171|108:160,1,107.999996704102,10|2,0:0|0:0,0:0:0:0:
74,68,48607,1,2,0:0:0:0:
96,47,48686,6,0,P|142:24|195:35,1,99.0000030212403,10|0,0:0|1:0,0:0:0:0:
353,57,49001,2,0,L|453:44,1,99.0000030212403,10|0,0:0|0:0,0:0:0:0:
323,292,49317,5,10,0:0:0:0:
236,121,49475,1,0,1:0:0:0:
402,146,49633,1,10,0:0:0:0:
296,277,49791,2,0,L|244:266,1,53.9999983520508,2|2,1:0|1:0,0:0:0:0:
128,196,49949,6,0,B|105:222|105:222|110:259,1,72,10|0,0:0|1:0,0:0:0:0:
190,107,50264,2,0,B|224:68|224:68|216:11,1,107.999996704102,10|0,0:0|0:0,0:0:0:0:
202,253,50580,5,10,0:0:0:0:
15,202,50738,1,8,0:0:0:0:
125,35,50896,1,10,0:0:0:0:
215,285,51054,1,10,0:0:0:0:
218,290,51133,1,2,0:0:0:0:
221,295,51212,6,0,B|234:302|240:327|240:327|285:163,1,207.000003948212,4|2,1:0|1:0,0:0:0:0:
35,217,51686,1,2,0:0:0:0:
127,68,51843,2,0,P|173:52|232:65,1,103.500001974106,2|0,1:0|0:0,0:0:0:0:
348,335,52159,1,4,1:0:0:0:
404,171,52317,2,0,L|351:182,1,51.7500009870529,2|2,0:0|0:0,0:0:0:0:
242,206,52475,5,4,1:0:0:0:
123,336,52633,2,0,P|107:285|119:234,1,103.500001974106,2|2,0:0|1:0,0:0:0:0:
274,101,52949,1,2,0:0:0:0:
58,173,53107,1,2,1:0:0:0:
182,33,53264,1,2,0:0:0:0:
290,296,53422,2,0,L|187:284,1,103.500001974106,4|0,1:0|0:0,0:0:0:0:
390,36,53738,6,0,B|443:27|443:27|480:59,1,103.500001974106,12|2,1:0|0:0,0:0:0:0:
148,60,54054,1,10,0:0:0:0:
100,40,54132,1,8,0:0:0:0:
51,53,54211,1,8,0:0:0:0:
20,93,54290,1,8,0:0:0:0:
19,144,54369,1,8,1:0:0:0:
49,185,54448,1,8,0:0:0:0:
97,200,54528,6,0,L|148:189,1,51.7500009870529,10|8,0:0|0:0,0:0:0:0:
233,92,54686,2,0,L|183:104,1,51.7500009870529,8|8,1:0|0:0,0:0:0:0:
211,256,54843,2,0,L|262:245,1,51.7500009870529,8|8,0:0|0:0,0:0:0:0:
434,141,55001,6,0,P|476:205|457:288,1,161.999995056153,4|0,1:0|0:0,0:0:0:0:
372,352,55317,2,0,P|316:344|247:337,1,107.999996704102,8|0,0:0|0:0,0:0:0:0:
80,330,55633,1,2,1:0:0:0:
94,91,55791,1,2,0:0:0:0:
96,96,55870,1,2,0:0:0:0:
98,101,55949,2,0,B|133:149|132:203|132:203|111:260,1,161.999995056153,10|0,0:0|0:0,0:0:0:0:
175,345,56264,6,0,B|218:377|218:377|271:364,1,107.999996704102,0|0,1:0|0:0,0:0:0:0:
429,266,56580,2,0,B|385:233|385:233|332:246,1,107.999996704102,10|0,0:0|0:0,0:0:0:0:
153,87,56896,1,2,1:0:0:0:
418,37,57054,1,2,0:0:0:0:
423,40,57133,1,2,0:0:0:0:
428,43,57212,2,0,P|372:33|315:29,1,107.999996704102,10|2,0:0|0:0,0:0:0:0:
232,95,57449,1,2,0:0:0:0:
222,129,57528,6,0,P|272:181|357:173,1,161.999995056153,2|0,1:0|0:0,0:0:0:0:
455,119,57843,1,10,0:0:0:0:
410,285,58001,1,0,0:0:0:0:
160,206,58159,2,0,B|136:255|136:255|151:309,1,107.999996704102,2|0,1:0|0:0,0:0:0:0:
305,371,58475,2,0,B|329:322|329:322|314:268,1,107.999996704102,10|0,0:0|0:0,0:0:0:0:
325,16,58791,6,0,L|302:124,1,107.999996704102,2|0,1:0|0:0,0:0:0:0:
339,366,59107,1,10,0:0:0:0:
430,173,59264,1,0,0:0:0:0:
480,321,59422,1,2,1:0:0:0:
289,217,59580,1,0,0:0:0:0:
74,319,59738,2,0,P|140:345|144:276,1,161.999995056153,10|0,0:0|0:0,0:0:0:0:
84,172,60054,6,0,P|109:161|138:156,1,53.9999983520508,2|0,1:0|0:0,0:0:0:0:
191,48,60212,2,0,P|166:59|137:64,1,53.9999983520508,2|0,0:0|0:0,0:0:0:0:
264,157,60370,2,0,P|313:180|366:176,1,107.999996704102,10|0,0:0|0:0,0:0:0:0:
496,307,60686,2,0,P|447:284|394:288,1,107.999996704102,0|0,1:0|0:0,0:0:0:0:
188,355,61001,1,10,0:0:0:0:
65,197,61159,1,2,0:0:0:0:
68,192,61238,1,2,0:0:0:0:
70,187,61317,5,2,1:0:0:0:
248,228,61475,1,2,0:0:0:0:
384,59,61633,2,0,P|408:106|402:161,1,107.999996704102,10|0,0:0|0:0,0:0:0:0:
210,89,61949,2,0,P|203:142|228:191,1,107.999996704102,2|0,1:0|0:0,0:0:0:0:
434,333,62264,2,0,B|362:309|362:369|278:333,1,161.999995056153,10|0,0:0|0:0,0:0:0:0:
170,293,62580,6,0,P|115:292|65:306,1,107.999996704102,0|0,1:0|0:0,0:0:0:0:
226,189,62896,2,0,P|281:188|331:202,1,107.999996704102,10|0,0:0|0:0,0:0:0:0:
423,25,63212,1,0,1:0:0:0:
489,196,63370,1,0,1:0:0:0:
253,93,63528,1,10,0:0:0:0:
136,240,63686,1,8,1:0:0:0:
137,284,63764,1,8,0:0:0:0:
148,328,63843,5,12,0:0:0:0:
319,264,64001,1,0,1:0:0:0:
118,37,64159,2,0,B|45:58|41:137|41:137|57:162,1,161.999995056153,10|0,0:0|0:0,0:0:0:0:
136,240,64475,1,0,1:0:0:0:
377,209,64633,1,10,0:3:0:0:
397,258,64712,1,8,0:3:0:0:
386,310,64791,1,8,0:0:0:0:
159,216,64949,1,8,1:0:0:0:
160,211,65028,1,0,1:0:0:0:
161,206,65107,6,0,P|172:160|192:116,1,94.499997116089,4|2,1:0|0:0,0:0:0:0:
283,78,65343,1,2,0:0:0:0:
306,87,65422,2,0,P|357:93|408:67,1,107.999996704102,2|0,0:0|1:0,0:0:0:0:
459,244,65738,5,10,0:0:0:0:
337,316,65896,1,2,1:0:0:0:
243,209,66054,1,10,0:0:0:0:
459,244,66212,1,8,0:0:0:0:
379,59,66370,5,0,1:0:0:0:
355,202,66528,1,8,0:0:0:0:
136,160,66686,2,0,B|80:151|80:151|35:181,1,107.999996704102,2|0,1:0|1:0,0:0:0:0:
234,116,67001,5,10,0:0:0:0:
197,259,67159,1,2,1:0:0:0:
94,49,67317,1,12,0:0:0:0:
387,73,67475,1,2,0:0:0:0:
382,78,67554,1,2,0:0:0:0:
377,83,67633,6,0,B|337:108|337:108|244:86,1,141.749995674133,4|2,1:0|0:0,0:0:0:0:
138,127,67949,2,0,B|106:172|106:172|113:224,1,107.999996704102,2|0,1:0|1:0,0:0:0:0:
320,326,68264,5,10,0:0:0:0:
198,254,68422,1,2,1:0:0:0:
104,361,68580,1,10,0:0:0:0:
320,326,68738,1,8,0:0:0:0:
244,86,68896,5,4,1:0:0:0:
216,225,69054,1,10,0:0:0:0:
218,230,69133,1,2,0:0:0:0:
220,235,69212,2,0,L|315:218,1,94.499997116089,2|2,1:0|0:0,0:0:0:0:
400,167,69449,1,8,0:0:0:0:
432,178,69528,5,10,1:0:0:0:
320,326,69686,1,10,0:3:0:0:
248,128,69843,1,10,0:3:0:0:
393,28,70001,2,0,L|439:36,1,47.2499985580445,8|8,0:3|0:3,0:0:0:0:
400,167,70159,5,12,0:0:0:0:
227,102,70317,1,0,1:0:0:0:
257,283,70475,1,0,1:0:0:0:
432,178,70633,5,10,0:0:0:0:
233,79,70791,1,0,1:0:0:0:
246,298,70949,1,0,1:0:0:0:
357,81,71107,5,10,0:0:0:0:
232,316,71264,1,0,1:0:0:0:
46,135,71422,6,0,P|100:137|153:145,1,107.999996704102,12|0,0:0|1:0,0:0:0:0:
331,96,71738,1,0,1:0:0:0:
416,329,71896,6,0,P|361:331|309:339,1,107.999996704102,10|0,0:0|1:0,0:0:0:0:
131,290,72212,1,0,1:0:0:0:
183,30,72370,5,10,0:0:0:0:
258,197,72528,1,0,1:0:0:0:
466,23,72686,6,0,P|485:69|474:126,1,107.999996704102,12|0,0:0|1:0,0:0:0:0:
231,171,73001,1,8,0:3:0:0:
388,311,73159,1,8,0:3:0:0:
99,288,73317,5,8,0:0:0:0:
87,235,73396,1,8,0:0:0:0:
76,182,73475,1,8,0:0:0:0:
314,258,73633,1,8,0:0:0:0:
219,81,73791,1,0,1:0:0:0:
171,327,73949,5,2,0:0:0:0:
171,327,75054,1,2,0:0:0:0:
176,332,75133,1,2,0:0:0:0:
181,337,75212,5,4,1:0:0:0:
333,265,75370,2,0,P|329:187|320:116,1,148.50000453186,0|0,1:0|0:0,0:0:0:0:
254,35,75686,1,2,1:0:0:0:
12,162,75843,2,0,P|65:204|142:192,1,148.50000453186,10|0,0:0|0:0,0:0:0:0:
240,154,76159,1,2,1:0:0:0:
461,234,76317,2,0,P|389:221|332:264,1,148.50000453186,10|0,0:0|0:0,0:0:0:0:
280,357,76633,1,0,1:0:0:0:
140,149,76791,5,8,0:0:0:0:
89,309,76949,1,0,1:0:0:0:
279,174,77107,1,10,0:0:0:0:
112,163,77264,1,0,1:0:0:0:
283,326,77422,1,10,0:0:0:0:
199,97,77580,1,0,1:0:0:0:
200,102,77659,1,0,1:0:0:0:
201,107,77738,5,4,1:0:0:0:
370,55,77896,2,0,B|394:98|394:98|375:202,1,148.50000453186,2|0,1:0|0:0,0:0:0:0:
353,291,78212,1,2,1:0:0:0:
112,163,78370,2,0,P|181:143|251:169,1,148.50000453186,10|0,0:0|0:0,0:0:0:0:
338,215,78686,1,2,1:0:0:0:
411,64,78843,1,10,0:0:0:0:
178,253,79001,6,0,B|165:279|165:279|175:350,1,99.0000030212403,2|0,0:0|1:0,0:0:0:0:
328,246,79317,2,0,B|341:220|341:220|331:149,1,99.0000030212403,12|0,0:0|0:0,0:0:0:0:
155,42,79633,1,10,0:0:0:0:
38,244,79791,1,8,0:0:0:0:
260,205,79948,1,8,0:0:0:0:
489,321,80107,1,8,1:0:0:0:
492,322,80185,1,0,1:0:0:0:
497,323,80264,5,4,1:0:0:0:
429,168,80422,1,2,1:0:0:0:
303,282,80580,2,0,P|292:331|306:379,1,99.0000030212403,2|0,0:0|1:0,0:0:0:0:
134,220,80896,1,10,0:0:0:0:
266,115,81054,1,2,0:0:0:0:
86,41,81212,2,0,P|135:30|183:44,1,99.0000030212403,4|0,1:0|1:0,0:0:0:0:
423,79,81528,5,2,0:0:0:0:
359,235,81686,2,0,L|371:334,1,99.0000030212403,0|0,1:0|0:0,0:0:0:0:
175,303,82001,1,0,1:0:0:0:
75,84,82159,1,10,0:0:0:0:
17,242,82317,1,0,1:0:0:0:
188,46,82475,2,0,P|232:37|287:53,1,99.0000030212403,8|0,0:0|0:0,0:0:0:0:
442,264,82791,5,12,1:0:0:0:
382,51,82948,1,0,0:0:0:0:
402,269,83107,1,10,1:0:0:0:
422,46,83264,1,0,0:0:0:0:
150,204,83422,5,10,1:0:0:0:
363,144,83579,1,0,0:0:0:0:
145,164,83738,1,10,1:0:0:0:
368,184,83895,1,0,0:0:0:0:
154,72,84054,5,10,1:0:0:0:
94,285,84211,1,0,0:0:0:0:
114,67,84370,1,10,1:0:0:0:
134,290,84527,1,0,0:0:0:0:
375,225,84686,5,12,1:0:0:0:
131,206,84843,1,8,0:3:0:0:
308,115,85001,1,8,0:3:0:0:
205,376,85159,1,8,0:3:0:0:
200,371,85238,1,8,0:3:0:0:
195,366,85317,6,0,B|167:246|77:337|47:215,1,225,4|0,1:0|0:0,0:0:0:0:
95,129,85791,2,0,P|140:123|183:140,1,90,4|0,1:0|0:0,0:0:0:0:
388,112,86264,6,0,P|382:22|458:76,1,225,4|0,1:0|0:0,0:0:0:0:
465,169,86738,1,4,1:0:0:0:
322,225,86896,1,2,0:0:0:0:
175,179,87054,1,8,0:3:0:0:
364,43,87212,5,12,0:3:0:0:
227,275,87370,1,8,0:3:0:0:
21,100,87528,1,12,0:3:0:0:
