osu file format v14

[General]
AudioFilename: audio.mp3
AudioLeadIn: 0
PreviewTime: 54136
Countdown: 1
SampleSet: Soft
StackLeniency: 0.7
Mode: 0
LetterboxInBreaks: 0
WidescreenStoryboard: 1

[Editor]
Bookmarks: 3236,41131,46025,73973,75236,87867
DistanceSpacing: 1.1
BeatDivisor: 4
GridSize: 16
TimelineZoom: 2.2

[Metadata]
Title:KNOCK on the CORE (TV Size)
TitleUnicode:KNOCK on the CORE (TV Size)
Artist:(K)NoW_NAME
ArtistUnicode:(K)NoW_NAME
Creator:-[Shady]-
Version:Normal
Source:フェアリーゴーン
Tags:japanese anime Fairy Gone OP Opening Ermi Boomicle
BeatmapID:2015900
BeatmapSetID:953546

[Difficulty]
HPDrainRate:4
CircleSize:3
OverallDifficulty:4
ApproachRate:5
SliderMultiplier:1.1
SliderTickRate:1

[Events]
//Background and Video events
0,0,"Fairy gone.jpg",0,0
//Break Periods
2,41331,44983
//Storyboard Layer 0 (Background)
//Storyboard Layer 1 (Fail)
//Storyboard Layer 2 (Pass)
//Storyboard Layer 3 (Foreground)
//Storyboard Sound Samples

[TimingPoints]
710,315.789473684211,4,2,1,65,1,0
710,-111.111111111111,4,2,1,65,0,0
10815,-111.111111111111,4,2,1,65,0,0
20920,-111.111111111111,4,2,1,60,0,0
21157,-111.111111111111,4,2,1,5,0,0
21236,-111.111111111111,4,2,1,60,0,0
31025,-100,4,2,1,65,0,0
38604,-111.111111111111,4,2,1,60,0,0
41131,-111.111111111111,4,2,1,50,0,0
46183,-111.111111111111,4,2,1,60,0,0
51236,-100,4,2,1,65,0,0
53762,-111.111111111111,4,2,1,70,0,0
54552,-100,4,2,1,75,0,0
55025,-100,4,2,1,85,0,1
62525,-100,4,2,1,5,0,1
62604,-100,4,2,1,85,0,1
65131,-100,4,2,1,70,0,0
67894,-100,4,2,1,5,0,0
67973,-100,4,2,1,70,0,0
70183,-100,4,2,1,75,0,1
72710,-100,4,2,1,75,0,1
73973,-111.111111111111,4,2,1,50,0,0
75236,-111.111111111111,4,2,1,65,0,0
82815,-100,4,2,1,75,0,0
85341,-100,4,2,1,60,0,0

[Colours]
Combo1 : 211,192,54
Combo2 : 209,56,56
Combo3 : 209,159,56

[HitObjects]
67,82,710,5,4,0:1:0:0:
133,268,1341,2,0,P|181:262|210:128,1,197.99999395752,2|2,0:0|0:0,0:0:0:0:
169,49,2288,1,2,0:0:0:0:
445,82,3236,5,4,0:1:0:0:
379,268,3867,2,0,P|331:262|302:128,1,197.99999395752,2|2,0:0|0:0,0:0:0:0:
343,49,4814,1,2,0:0:0:0:
67,302,5762,5,4,0:1:0:0:
133,116,6393,2,0,P|181:122|210:256,1,197.99999395752,2|2,0:0|0:0,0:0:0:0:
169,335,7340,1,2,0:0:0:0:
445,302,8288,5,4,0:1:0:0:
379,116,8920,2,0,P|331:122|302:260,1,197.99999395752,2|2,0:0|0:0,0:0:0:0:
343,335,9867,2,0,P|305:353|239:352,1,98.9999969787598
152,331,10499,1,0,0:0:0:0:
175,234,10815,6,0,P|129:222|65:219,1,98.9999969787598,6|0,0:0|0:0,0:0:0:0:
7,148,11446,1,8,0:0:0:0:
82,83,11762,1,2,0:0:0:0:
82,83,11920,2,0,P|117:99|186:99,1,98.9999969787598
222,80,12394,1,8,0:0:0:0:
255,172,12710,2,0,P|290:188|359:188,1,98.9999969787598,10|8,0:0|0:0,0:0:0:0:
437,144,13341,6,0,L|461:249,1,98.9999969787598,2|0,0:0|0:0,0:0:0:0:
475,338,13973,1,8,0:0:0:0:
376,338,14288,1,2,0:0:0:0:
376,338,14446,2,0,P|337:337|278:290,1,98.9999969787598,8|0,0:0|0:0,0:0:0:0:
274,257,14920,1,8,0:0:0:0:
190,310,15236,1,8,0:0:0:0:
103,262,15552,1,8,0:0:0:0:
99,163,15867,6,0,P|101:124|137:57,1,98.9999969787598,0|2,1:0|0:0,0:0:0:0:
210,121,16499,1,10,0:0:0:0:
286,58,16815,1,2,0:0:0:0:
306,154,17131,2,0,P|309:197|283:248,1,98.9999969787598,2|8,0:0|0:0,0:0:0:0:
214,316,17762,2,8,P|237:338|318:346,1,98.9999969787598,10|8,0:0|0:0,0:0:0:0:
394,315,18394,5,8,0:0:0:0:
394,315,18710,1,8,0:0:0:0:
429,223,19025,2,0,P|441:186|437:118,1,98.9999969787598,8|8,0:0|0:0,0:0:0:0:
365,60,19657,1,8,0:0:0:0:
365,60,19973,1,8,0:0:0:0:
312,143,20288,2,8,P|269:160|205:148,1,98.9999969787598
122,123,20920,6,8,L|110:228,1,98.9999969787598,6|8,0:0|0:0,0:0:0:0:
101,320,21552,2,0,L|161:329,1,49.4999984893799,8|0,0:0|0:0,0:0:0:0:
199,328,21867,2,0,P|202:273|231:232,2,98.9999969787599,10|8|8,0:0|0:0|0:0,0:0:0:0:
298,324,22815,1,8,0:0:0:0:
360,247,23131,1,10,0:0:0:0:
320,156,23446,6,0,P|308:120|321:51,1,98.9999969787599,10|8,0:0|0:0,0:0:0:0:
413,40,24078,2,0,L|435:97,1,49.4999984893799,8|0,0:0|0:0,0:0:0:0:
451,131,24394,2,0,P|447:181|415:219,2,98.9999969787599,10|8|8,0:0|0:0|0:0,0:0:0:0:
351,134,25341,1,8,0:0:0:0:
266,185,25657,1,8,0:0:0:0:
168,165,25973,6,8,P|140:158|62:162,1,98.9999969787599,8|10,0:0|0:0,0:0:0:0:
33,251,26604,1,10,0:0:0:0:
93,329,26920,1,10,0:0:0:0:
186,295,27236,2,0,P|223:286|286:298,1,98.9999969787599,10|10,0:0|0:0,0:0:0:0:
365,350,27867,2,0,P|379:322|372:238,1,98.9999969787599,10|10,0:0|0:0,0:0:0:0:
312,182,28499,5,8,0:0:0:0:
409,167,28815,2,0,P|444:163|505:138,1,98.9999969787599,10|10,0:0|0:0,0:0:0:0:
479,42,29446,1,8,0:0:0:0:
381,27,29762,1,10,0:0:0:0:
381,27,29920,1,2,1:2:0:0:
240,74,30394,1,10,0:1:0:0:
263,170,30710,1,10,0:1:0:0:
242,268,31025,6,0,P|212:280|134:263,1,110,6|8,0:0|0:0,0:0:0:0:
100,224,31499,2,0,P|119:189|90:68,1,165,2|10,0:0|0:0,0:0:0:0:
248,14,32446,1,2,0:0:0:0:
280,119,32762,2,0,L|308:238,1,110,2|0,0:0|0:0,0:0:0:0:
322,278,33236,1,10,0:0:0:0:
426,242,33552,6,0,P|426:202|421:171,2,55,2|2|10,0:0|0:0|0:0,0:0:0:0:
505,317,34183,2,0,P|505:357|500:388,2,55,2|2|10,0:0|0:0|0:0,0:0:0:0:
398,347,34815,1,2,0:0:0:0:
304,288,35131,1,10,0:0:0:0:
215,353,35446,1,2,0:0:0:0:
123,291,35762,1,10,0:0:0:0:
166,189,36078,6,0,P|182:144|179:71,1,110,2|8,0:0|0:0,0:0:0:0:
160,31,36552,2,0,P|197:47|324:46,1,165,2|10,0:0|0:0,0:0:0:0:
482,17,37499,1,2,0:0:0:0:
449,122,37815,2,0,P|436:168|390:213,1,110,2|0,0:0|0:0,0:0:0:0:
338,216,38288,1,10,0:0:0:0:
277,137,38604,6,0,L|245:86,2,49.4999984893799,2|2|10,0:0|0:0|0:0,0:0:0:0:
189,184,39236,2,0,L|157:133,2,49.4999984893799,2|2|10,0:0|0:0|0:0,0:0:0:0:
99,227,39867,2,0,P|85:263|93:331,1,98.9999969787599,2|8,0:0|0:0,0:0:0:0:
185,349,40499,1,2,1:2:0:0:
276,311,40815,1,0,1:0:0:0:
262,212,41131,5,2,1:2:0:0:
67,51,46183,6,0,P|105:46|176:58,1,98.9999969787599,8|10,0:0|0:0,0:0:0:0:
239,119,46815,1,10,0:0:0:0:
180,198,47131,1,10,0:0:0:0:
231,282,47446,2,0,P|258:302|327:305,1,98.9999969787599,10|10,0:0|0:0,0:0:0:0:
367,218,48078,2,0,P|355:162|371:108,1,98.9999969787599,10|10,0:0|0:0,0:0:0:0:
445,64,48710,5,8,0:0:0:0:
471,159,49025,2,0,L|485:215,1,49.4999984893799,10|2,0:0|0:0,0:0:0:0:
495,255,49341,2,0,P|471:292|408:310,1,98.9999969787599,10|10,0:0|0:0,0:0:0:0:
323,293,49973,2,0,L|303:189,1,98.9999969787599,10|10,0:0|0:0,0:0:0:0:
283,98,50604,2,8,L|226:116,1,49.4999984893799,10|8,0:0|0:0,0:0:0:0:
186,116,50920,2,8,L|131:105,1,49.4999984893799
87,81,51236,6,0,P|75:132|105:260,1,165,2|2,1:2|0:0,0:0:0:0:
235,326,52183,1,2,1:2:0:0:
269,221,52499,2,0,P|305:244|432:227,1,165,2|2,1:2|0:0,0:0:0:0:
379,132,53288,1,2,0:0:0:0:
230,134,53762,5,8,0:0:0:0:
140,176,54078,2,0,P|112:217|128:325,1,148.49999546814,2|2,0:0|0:0,0:0:0:0:
282,336,55025,6,0,P|331:345|400:339,1,110,6|8,0:0|0:0,0:0:0:0:
443,243,55657,1,2,0:0:0:0:
410,137,55973,2,0,P|380:124|299:124,1,110,10|0,0:0|0:0,0:0:0:0:
212,183,56604,1,10,0:0:0:0:
134,104,56920,1,2,0:0:0:0:
60,186,57236,1,10,0:0:0:0:
127,273,57552,6,0,P|151:297|237:312,1,110,2|8,0:0|0:0,0:0:0:0:
322,267,58183,2,0,P|312:235|322:157,1,110,0|8,0:0|0:0,0:0:0:0:
374,63,58815,1,0,0:0:0:0:
458,133,59131,1,10,0:0:0:0:
400,226,59446,1,2,0:0:0:0:
472,308,59762,1,10,0:0:0:0:
367,343,60078,6,0,P|331:348|308:348,1,55,2|2,0:0|0:0,0:0:0:0:
257,348,60394,1,10,0:0:0:0:
279,240,60710,1,0,1:0:0:0:
171,218,61025,1,8,0:0:0:0:
150,337,61341,6,0,L|94:328,1,55,2|2,0:0|0:0,0:0:0:0:
36,312,61657,1,8,0:0:0:0:
40,191,61973,2,0,P|39:151|70:66,1,110,2|8,1:2|0:0,0:0:0:0:
172,42,62604,2,0,P|210:60|285:66,1,110,2|8,1:2|0:0,0:0:0:0:
394,37,63236,1,0,1:0:0:0:
384,157,63552,1,8,0:0:0:0:
283,223,63867,6,0,P|245:244|168:243,1,110,8|10,0:0|0:0,0:0:0:0:
68,196,64499,2,8,L|42:253,1,55,8|10,0:0|0:0,0:0:0:0:
50,306,64815,2,8,L|103:346,1,55
152,354,65131,6,0,P|189:342|263:345,1,110,2|2,0:0|0:0,0:0:0:0:
376,375,65762,2,0,L|397:306,1,55,10|2,0:0|0:0,0:0:0:0:
415,266,66078,1,10,0:0:0:0:
415,266,66236,1,8,0:0:0:0:
296,241,66552,1,8,0:0:0:0:
296,241,66710,2,0,P|286:202|298:126,1,110,2|10,1:2|0:0,0:0:0:0:
363,33,67341,1,10,0:0:0:0:
243,12,67657,5,2,0:0:0:0:
149,89,67973,2,0,P|127:122|130:208,1,110,2|10,0:0|0:0,0:0:0:0:
149,245,68446,1,2,0:0:0:0:
149,245,68604,2,0,L|206:221,1,55,10|8,0:0|0:0,0:0:0:0:
256,201,68920,2,0,P|285:233|297:298,1,110,2|10,1:2|0:0,0:0:0:0:
192,358,69552,1,2,1:2:0:0:
74,329,69867,1,2,1:2:0:0:
52,209,70183,6,0,P|40:151|94:44,1,165,6|10,0:0|0:0,0:0:0:0:
259,27,71131,1,10,0:0:0:0:
216,140,71446,2,0,P|250:168|367:168,1,165,8|2,0:0|0:0,0:0:0:0:
465,16,72394,1,10,0:0:0:0:
481,135,72710,6,0,P|489:193|487:252,1,110,8|0,0:0|1:0,0:0:0:0:
443,356,73341,1,0,1:0:0:0:
344,286,73657,2,0,L|288:290,1,55,8|8,0:0|0:0,0:0:0:0:
234,297,73973,5,2,0:0:0:0:
175,150,75236,6,0,P|129:162|65:165,1,98.9999969787598,6|0,0:0|0:0,0:0:0:0:
7,236,75867,1,8,0:0:0:0:
82,301,76183,1,2,0:0:0:0:
82,301,76341,2,0,P|117:285|186:285,1,98.9999969787598,0|0,1:0|0:0,0:0:0:0:
222,304,76815,1,8,0:0:0:0:
255,212,77131,2,0,P|290:196|359:196,1,98.9999969787598,10|8,0:0|0:0,0:0:0:0:
437,240,77762,6,0,L|461:135,1,98.9999969787598,2|0,0:0|0:0,0:0:0:0:
475,46,78394,1,8,0:0:0:0:
376,46,78709,1,2,0:0:0:0:
376,46,78867,2,0,P|337:47|278:94,1,98.9999969787598,8|0,0:0|0:0,0:0:0:0:
274,127,79341,1,8,0:0:0:0:
190,74,79657,1,10,0:0:0:0:
103,122,79973,1,8,0:0:0:0:
99,221,80288,6,0,P|101:260|137:327,1,98.9999969787598,0|2,0:0|0:0,0:0:0:0:
210,263,80920,1,10,0:0:0:0:
286,326,81236,1,2,0:0:0:0:
306,230,81552,2,0,P|309:187|283:136,1,98.9999969787598,2|0,0:0|0:0,0:0:0:0:
214,68,82183,2,0,P|237:46|318:38,1,98.9999969787598,10|0,0:0|0:0,0:0:0:0:
394,69,82815,5,8,0:0:0:0:
394,69,83131,1,8,0:0:0:0:
429,161,83446,2,0,P|441:198|437:272,1,110,8|8,0:0|0:0,0:0:0:0:
365,324,84078,1,8,0:0:0:0:
365,324,84394,1,8,0:0:0:0:
266,253,84710,2,8,L|196:220,1,55
158,212,85025,2,8,L|95:228,1,55
47,246,85341,6,0,P|30:211|35:82,1,165,4|2,0:0|0:0,0:0:0:0:
208,41,86288,2,0,P|237:63|372:78,1,165,4|2,0:0|0:0,0:0:0:0:
476,43,87078,1,0,1:0:0:0:
476,43,87236,2,0,L|485:103,1,55,0|0,1:0|1:0,1:0:0:0:
492,157,87552,2,0,P|468:184|384:195,1,110,0|0,1:0|1:0,1:0:0:0:
