osu file format v14

[General]
AudioFilename: audio.mp3
AudioLeadIn: 0
PreviewTime: 54136
Countdown: 1
SampleSet: Soft
StackLeniency: 0.7
Mode: 0
LetterboxInBreaks: 0
WidescreenStoryboard: 0

[Editor]
Bookmarks: 73973,75236,87867
DistanceSpacing: 1.4
BeatDivisor: 4
GridSize: 8
TimelineZoom: 2.2

[Metadata]
Title:KNOCK on the CORE (TV Size)
TitleUnicode:KNOCK on the CORE (TV Size)
Artist:(K)NoW_NAME
ArtistUnicode:(K)NoW_NAME
Creator:-[Shady]-
Version:Dorothea
Source:フェアリーゴーン
Tags:japanese anime Fairy Gone OP Opening Ermi Boomicle
BeatmapID:1990864
BeatmapSetID:953546

[Difficulty]
HPDrainRate:6
CircleSize:4.2
OverallDifficulty:8.5
ApproachRate:9.2
SliderMultiplier:1.8
SliderTickRate:1

[Events]
//Background and Video events
0,0,"Fairy gone.jpg",0,0
//Break Periods
//Storyboard Layer 0 (Background)
//Storyboard Layer 1 (Fail)
//Storyboard Layer 2 (Pass)
//Storyboard Layer 3 (Foreground)
//Storyboard Sound Samples

[TimingPoints]
710,315.789473684211,4,2,1,65,1,0
710,-166.666666666667,4,2,1,65,0,0
10815,-125,4,2,1,65,0,0
20920,-111.111111111111,4,2,1,60,0,0
21157,-111.111111111111,4,2,1,5,0,0
21236,-111.111111111111,4,2,1,60,0,0
23367,-111.111111111111,4,2,1,5,0,0
23446,-111.111111111111,4,2,1,60,0,0
31025,-100,4,2,1,65,0,0
38604,-125,4,2,1,60,0,0
41131,-166.666666666667,4,2,1,50,0,0
46183,-125,4,2,1,60,0,0
51236,-100,4,2,1,65,0,0
53762,-125,4,2,1,70,0,0
54552,-100,4,2,1,75,0,0
55025,-83.3333333333333,4,2,1,85,0,1
62525,-83.3333333333333,4,2,1,5,0,1
62604,-83.3333333333333,4,2,1,85,0,1
65131,-125,4,2,1,70,0,0
67894,-125,4,2,1,5,0,0
67973,-125,4,2,1,70,0,0
70183,-100,4,2,1,75,0,1
72710,-83.3333333333333,4,2,1,75,0,1
73973,-166.666666666667,4,2,1,50,0,0
75236,-125,4,2,1,65,0,0
82815,-100,4,2,1,75,0,0
83446,-83.3333333333333,4,2,1,75,0,0
84078,-71.4285714285714,4,2,1,75,0,0
85341,-100,4,2,1,60,0,0
85815,-166.666666666667,4,2,1,60,0,0
86288,-100,4,2,1,60,0,0
86762,-166.666666666667,4,2,1,60,0,0
87236,-100,4,2,1,60,0,0
87552,-125,4,2,1,60,0,0

[Colours]
Combo1 : 211,192,54
Combo2 : 209,56,56
Combo3 : 209,159,56

[HitObjects]
83,93,710,5,4,1:1:0:0:
83,93,1341,2,0,B|197:77|192:165|294:148,1,215.999993408203,2|2,0:0|0:0,0:0:0:0:
344,86,2288,2,0,P|365:128|348:201,1,107.999996704102,2|0,0:0|0:0,0:0:0:0:
163,324,3078,1,0,1:0:0:0:
163,324,3157,1,0,1:0:0:0:
163,324,3236,5,4,1:0:0:0:
163,324,3867,2,0,B|148:240|148:240|170:189|170:189|148:96,1,215.999993408203,2|2,0:0|0:0,0:0:0:0:
132,28,4815,2,0,P|159:20|244:30,1,107.999996704102,2|0,0:0|0:0,0:0:0:0:
453,140,5604,1,0,1:0:0:0:
453,140,5683,1,0,1:0:0:0:
453,140,5762,5,4,1:0:0:0:
453,140,6394,2,0,B|325:129|381:216|239:204,1,215.999993408203,2|2,0:0|0:0,0:0:0:0:
169,169,7341,2,0,P|173:134|148:66,1,107.999996704102,2|0,0:0|0:0,0:0:0:0:
45,318,8131,1,0,1:0:0:0:
45,318,8210,1,0,1:0:0:0:
45,318,8288,5,4,1:0:0:0:
45,318,8920,2,0,B|114:328|114:328|181:306|181:306|257:319,1,215.999993408203,2|2,0:0|0:0,0:0:0:0:
332,330,9710,1,2,0:0:0:0:
265,164,9867,1,2,0:0:0:0:
376,177,10025,1,2,0:0:0:0:
304,257,10183,1,2,0:0:0:0:
184,169,10341,2,0,L|198:109,1,53.9999983520508,2|0,0:0|0:0,0:0:0:0:
315,36,10657,1,2,0:0:0:0:
315,36,10736,1,2,0:0:0:0:
315,36,10815,6,0,P|362:49|455:36,1,144,4|0,1:2|0:0,0:0:0:0:
481,170,11288,1,2,1:2:0:0:
355,216,11446,2,0,P|340:161|342:128,1,72,8|0,0:0|0:0,0:0:0:0:
436,250,11762,1,2,1:2:0:0:
285,264,11920,2,0,L|142:285,1,144,2|0,1:2|0:0,0:0:0:0:
210,129,12394,5,8,0:0:0:0:
167,357,12552,1,0,1:0:0:0:
66,192,12710,2,0,P|108:198|141:191,1,72,10|0,0:0|0:0,0:0:0:0:
296,54,13025,2,0,P|254:48|221:55,1,72,10|0,0:0|0:0,0:0:0:0:
145,268,13341,6,0,P|188:278|288:259,1,144,2|0,0:0|0:0,0:0:0:0:
301,361,13815,1,2,1:2:0:0:
156,188,13973,2,0,P|121:195|84:211,1,72,8|0,0:0|0:0,0:0:0:0:
46,308,14288,1,2,1:2:0:0:
24,68,14446,6,0,P|37:101|47:151,1,72,8|2,0:0|0:0,0:0:0:0:
101,4,14762,1,0,0:0:0:0:
234,87,14920,2,0,P|221:120|211:170,1,72,8|2,0:0|0:0,0:0:0:0:
405,87,15236,1,8,0:2:0:0:
203,229,15394,1,8,0:0:0:0:
357,276,15552,1,8,0:0:0:0:
234,87,15710,1,8,0:0:0:0:
115,254,15867,5,0,1:0:0:0:
306,201,16025,1,2,1:2:0:0:
201,359,16183,2,0,P|162:340|119:335,1,72,2|0,0:0|0:0,0:0:0:0:
6,369,16499,1,10,0:0:0:0:
68,192,16657,1,2,0:0:0:0:
228,278,16815,2,0,P|265:299|302:300,1,72,2|0,0:0|0:0,0:0:0:0:
502,151,17131,6,0,P|430:151|359:186,1,144,2|8,0:0|1:2,0:0:0:0:
372,45,17604,1,0,1:0:0:0:
359,253,17762,1,10,0:0:0:0:
254,66,17920,1,0,1:0:0:0:
201,272,18078,2,0,P|181:208|180:181,1,72,8|0,1:2|0:0,0:0:0:0:
162,60,18394,6,0,P|117:72|65:69,1,72,2|0,0:0|0:0,0:0:0:0:
29,214,18710,2,0,P|74:202|126:205,1,72,10|0,0:2|0:0,0:0:0:0:
277,242,19025,1,8,0:0:0:0:
148,332,19183,1,0,1:0:0:0:
288,162,19341,2,0,P|336:180|353:197,1,72,8|0,0:0|0:0,0:0:0:0:
326,356,19657,6,0,P|278:338|261:321,1,72,8|0,0:0|0:0,0:0:0:0:
218,131,19973,2,0,P|250:101|288:83,1,72,8|0,0:0|0:0,0:0:0:0:
465,154,20288,1,8,0:0:0:0:
406,18,20446,1,0,0:0:0:0:
350,193,20604,2,0,P|318:223|280:241,1,72,10|0,0:0|0:0,0:0:0:0:
64,272,20920,6,0,L|101:147,1,121.499996292114,10|0,1:2|0:0,0:0:0:0:
167,106,21236,2,0,L|194:191,1,80.9999975280763,8|2,0:0|0:0,0:0:0:0:
79,47,21552,1,8,0:0:0:0:
248,96,21710,1,0,1:0:0:0:
179,338,21867,2,0,P|168:298|203:165,1,161.999995056153,10|8,0:0|0:0,0:0:0:0:
326,268,22341,6,0,P|276:272|228:266,1,80.9999975280763,2|8,1:2|1:2,1:2:0:0:
351,142,22657,1,0,0:0:0:0:
396,305,22815,1,10,0:0:0:0:
257,156,22973,1,0,1:0:0:0:
457,133,23131,2,0,P|462:96|401:31,1,121.499996292114,10|0,0:0|0:0,0:0:0:0:
342,64,23446,6,0,P|284:67|239:62,1,80.9999975280763,6|0,1:2|0:0,0:0:0:0:
108,25,23762,1,8,0:0:0:0:
145,242,23920,2,0,L|121:157,1,80.9999975280763,2|8,0:0|0:0,0:0:0:0:
6,294,24236,1,0,1:0:0:0:
233,203,24394,2,0,P|279:199|350:286,1,161.999995056153,10|8,0:0|0:0,0:0:0:0:
427,99,24867,6,0,L|368:160,1,80.9999975280763,2|10,0:0|0:0,0:0:0:0:
261,280,25183,1,0,0:0:0:0:
328,84,25341,1,8,0:0:0:0:
349,279,25499,1,0,1:0:0:0:
250,63,25657,1,8,0:0:0:0:
182,282,25815,1,0,1:0:0:0:
45,155,25973,6,0,L|137:173,1,80.9999975280763,12|2,0:2|0:0,0:0:0:0:
285,203,26288,1,10,0:0:0:0:
116,328,26446,1,2,0:0:0:0:
134,93,26604,2,0,P|142:58|159:15,1,80.9999975280763,10|0,0:0|1:0,0:0:0:0:
365,72,26920,2,0,P|357:107|332:151,1,80.9999975280763,10|0,0:0|0:0,0:0:0:0:
191,324,27236,5,10,0:0:0:0:
385,310,27394,1,2,1:2:0:0:
262,141,27552,1,10,0:0:0:0:
290,384,27710,1,2,0:0:0:0:
467,242,27867,2,0,P|470:203|475:153,1,80.9999975280763,10|0,0:0|0:0,0:0:0:0:
346,66,28183,2,0,L|335:147,1,80.9999975280763,10|0,0:0|0:0,0:0:0:0:
125,76,28499,6,0,L|132:171,1,80.9999975280763,12|2,0:2|0:2,0:3:0:0:
150,306,28815,1,10,0:0:0:0:
236,142,28973,1,2,1:2:0:0:
39,158,29131,2,0,P|38:193|50:251,1,80.9999975280763,10|0,0:0|1:0,0:0:0:0:
225,334,29446,2,0,P|226:299|217:239,1,80.9999975280763,10|0,0:0|1:0,0:0:0:0:
98,97,29762,5,8,0:0:0:0:
299,59,29920,2,0,P|340:53|383:54,1,80.9999975280763,2|8,0:0|0:0,0:0:0:0:
163,149,30236,1,0,0:0:0:0:
395,130,30394,1,10,1:1:0:0:
413,160,30472,1,0,1:0:0:0:
423,195,30551,1,0,1:0:0:0:
421,230,30630,1,0,1:0:0:0:
410,264,30710,1,10,1:1:0:0:
389,293,30788,1,0,1:0:0:0:
360,315,30867,1,0,1:0:0:0:
327,328,30946,1,0,1:0:0:0:
291,330,31025,6,0,B|274:266|274:266|285:208|285:208|263:140,1,180,6|8,0:0|0:0,0:0:0:0:
82,215,31499,2,0,P|157:230|203:228,1,90,2|0,0:0|1:0,0:0:0:0:
352,142,31815,1,0,0:0:0:0:
161,54,31973,2,0,P|143:99|140:157,1,90,10|0,0:0|0:0,0:0:0:0:
301,2,32288,5,0,1:0:0:0:
381,220,32446,2,0,P|394:266|392:320,1,90,2|8,0:0|0:0,0:0:0:0:
232,89,32762,2,0,L|333:72,1,90,2|0,0:0|1:0,0:0:0:0:
482,292,33078,2,0,L|393:306,1,90,2|8,0:0|0:0,0:0:0:0:
398,72,33394,1,0,0:0:0:0:
274,277,33552,5,2,1:2:0:0:
475,197,33710,1,2,1:2:0:0:
193,166,33867,2,0,L|96:155,1,90,10|0,0:0|0:0,0:0:0:0:
338,169,34183,1,2,1:2:0:0:
152,85,34341,1,2,1:2:0:0:
419,58,34499,2,0,L|512:46,1,90,10|0,0:0|0:0,0:0:0:0:
428,227,34815,6,0,P|379:219|319:223,1,90,2|0,1:2|0:0,0:0:0:0:
129,353,35131,2,0,P|178:361|238:357,1,90,10|0,0:0|0:0,0:0:0:0:
208,175,35446,2,0,P|186:237|186:279,1,90,2|0,1:2|0:0,0:0:0:0:
359,384,35762,2,0,P|381:322|381:280,1,90,10|0,0:0|0:0,0:0:0:0:
247,87,36078,6,0,B|139:81|181:140|70:125,1,180,6|8,1:2|0:0,0:0:0:0:
79,294,36552,2,0,P|87:247|81:191,1,90,2|0,0:0|1:0,0:0:0:0:
74,17,36867,1,0,0:0:0:0:
214,169,37025,2,0,P|263:180|319:180,1,90,10|0,0:0|0:0,0:0:0:0:
367,65,37341,5,0,1:0:0:0:
410,284,37499,2,0,L|379:194,1,90,2|8,0:0|0:0,0:0:0:0:
271,17,37815,2,0,B|261:46|261:46|270:75|270:75|264:104,1,90,2|0,0:0|1:0,0:0:0:0:
141,301,38131,2,0,B|147:272|147:272|138:243|138:243|148:214,1,90,2|8,0:0|0:0,0:0:0:0:
286,304,38446,1,0,1:0:0:0:
286,304,38525,1,0,1:2:0:0:
286,304,38604,5,2,1:2:0:0:
205,154,38762,1,2,1:2:0:0:
153,371,38920,2,0,L|137:279,1,72,10|0,0:0|0:0,0:0:0:0:
169,78,39236,1,2,1:2:0:0:
250,228,39394,1,2,1:2:0:0:
302,11,39552,2,0,L|318:103,1,72,10|0,0:0|0:0,0:0:0:0:
267,315,39867,5,10,0:0:0:0:
442,202,40025,1,8,0:0:0:0:
222,123,40183,1,10,0:0:0:0:
374,311,40341,1,8,0:0:0:0:
293,151,40499,1,2,1:2:0:0:
254,220,40657,1,0,1:0:0:0:
327,250,40815,1,0,1:0:0:0:
369,178,40973,1,0,1:0:0:0:
109,92,41131,6,0,P|90:132|98:255,1,161.999995056153,6|2,0:0|0:0,0:0:0:0:
322,229,42078,2,0,P|293:216|161:221,1,161.999995056153,2|2,0:0|0:0,0:0:0:0:
293,50,43025,2,0,L|304:116,1,53.9999983520508,2|0,0:0|0:0,0:0:0:0:
224,147,43341,2,0,L|216:87,1,53.9999983520508
374,46,43657,6,0,B|385:115|385:115|360:152|360:152|366:206,1,161.999995056153,2|2,0:0|0:0,0:0:0:0:
390,349,44604,2,0,P|368:333|232:338,1,161.999995056153,2|2,0:0|0:0,0:0:0:0:
122,119,45552,2,0,L|100:55,2,53.9999983520508,2|0|2,0:0|0:0|0:0,0:0:0:0:
194,262,46025,1,0,1:0:0:0:
194,262,46104,1,0,1:0:0:0:
194,262,46183,6,0,P|232:248|266:242,1,72,14|0,1:2|0:0,0:0:0:0:
436,128,46499,2,0,P|402:140|367:147,1,72,10|0,0:0|0:0,0:0:0:0:
207,102,46815,2,0,L|181:176,1,72,10|0,0:0|0:0,0:0:0:0:
350,0,47131,2,0,L|376:74,1,72,10|0,0:0|0:0,0:0:0:0:
343,239,47446,5,10,0:0:0:0:
510,195,47604,1,2,0:0:0:0:
437,358,47762,2,0,P|405:324|384:296,1,72,10|0,0:0|0:0,0:0:0:0:
307,161,48078,2,0,P|262:169|217:159,1,72,10|0,0:0|0:0,0:0:0:0:
183,26,48394,1,8,0:0:0:0:
266,248,48552,1,2,0:0:0:0:
43,162,48710,6,0,L|100:109,1,72,12|0,0:0|0:0,0:0:0:0:
194,282,49025,1,8,0:0:0:0:
252,73,49183,1,2,0:0:0:0:
343,288,49341,2,0,P|352:245|347:203,1,72,10|0,0:0|0:0,0:0:0:0:
178,104,49657,1,8,0:0:0:0:
384,151,49815,1,2,0:0:0:0:
185,196,49973,6,0,P|148:199|98:188,1,72,8|0,0:0|0:0,0:0:0:0:
24,30,50288,1,2,1:2:0:0:
56,15,50366,1,0,1:0:0:0:
92,9,50445,1,0,1:0:0:0:
128,10,50524,1,0,1:0:0:0:
162,20,50604,1,8,1:2:0:0:
42,168,50762,1,8,0:0:0:0:
267,232,50920,2,2,L|284:172,1,36,10|2,1:2|1:2,1:2:0:0:
116,86,51078,2,2,L|103:121,1,36,2|2,1:2|1:2,1:2:0:0:
55,270,51236,6,0,P|92:281|184:182,1,180,6|0,1:2|0:0,0:0:0:0:
323,337,51710,2,0,P|291:325|228:316,1,90,2|0,0:0|1:0,0:0:0:0:
139,367,52025,1,0,0:0:0:0:
267,232,52183,2,0,P|305:219|358:223,1,90,2|0,1:2|0:0,0:0:0:0:
450,324,52499,6,0,B|450:253|450:253|477:213|477:213|477:147,1,180,2|0,1:2|1:0,0:0:0:0:
426,65,52973,2,0,P|388:72|331:61,1,90,2|0,0:0|1:0,0:0:0:0:
169,24,53288,2,0,P|207:17|264:29,2,90,2|0|0,0:0|1:0|0:0,0:0:0:0:
151,118,53762,5,8,1:2:0:0:
136,150,53840,1,0,1:0:0:0:
136,186,53919,1,0,1:0:0:0:
151,219,53998,1,0,1:0:0:0:
170,250,54078,1,10,1:2:0:0:
188,280,54156,1,0,1:0:0:0:
186,316,54235,1,0,1:0:0:0:
166,344,54314,1,0,1:0:0:0:
133,358,54393,1,8,1:2:0:0:
98,350,54472,1,0,1:0:0:0:
65,334,54551,5,10,1:2:0:0:
65,270,54631,1,8,1:2:0:0:
112,231,54709,1,8,1:2:0:0:
170,250,54788,1,8,1:2:0:0:
232,254,54867,1,8,1:2:0:0:
290,229,54946,1,8,1:2:0:0:
327,189,55025,6,0,P|356:134|262:-1,1,215.999993408203,14|8,0:0|0:0,0:0:0:0:
163,148,55499,1,0,0:0:0:0:
16,17,55657,2,0,P|6:82|5:126,1,107.999996704102,2|0,1:2|0:0,0:0:0:0:
158,349,55973,2,0,P|168:284|169:240,1,107.999996704102,10|0,0:0|0:0,0:0:0:0:
149,60,56288,5,0,1:0:0:0:
75,276,56446,1,0,1:0:0:0:
303,265,56604,2,0,P|373:264|430:270,1,107.999996704102,10|0,0:0|0:0,0:0:0:0:
512,90,56920,2,0,P|442:91|385:85,1,107.999996704102,2|0,1:2|0:0,0:0:0:0:
149,60,57236,2,0,B|130:102|130:102|135:126|135:126|117:177,1,107.999996704102,10|0,0:0|0:0,0:0:0:0:
328,136,57552,6,0,P|258:137|201:131,1,107.999996704102,2|0,1:2|0:0,0:0:0:0:
3,118,57867,1,8,0:0:0:0:
101,288,58025,1,0,0:0:0:0:
70,68,58183,1,0,1:0:0:0:
19,311,58341,1,0,0:0:0:0:
210,248,58499,2,0,P|266:236|330:243,1,107.999996704102,8|0,0:0|0:0,0:0:0:0:
493,360,58815,6,0,P|503:291|495:246,1,107.999996704102,2|0,1:2|0:0,0:0:0:0:
292,51,59131,2,0,P|282:120|290:165,1,107.999996704102,10|0,1:2|0:0,0:0:0:0:
487,112,59446,2,0,P|427:105|367:105,1,107.999996704102,2|0,1:2|0:0,0:0:0:0:
307,300,59762,2,0,P|367:307|427:307,1,107.999996704102,10|0,0:0|0:0,0:0:0:0:
379,104,60078,5,2,1:2:0:0:
232,262,60236,1,0,1:0:0:0:
112,69,60394,2,0,P|170:52|239:49,1,107.999996704102,10|0,0:0|0:0,0:0:0:0:
307,300,60710,1,0,1:0:0:0:
70,169,60867,1,0,1:0:0:0:
297,106,61025,2,0,L|304:235,1,107.999996704102,10|0,0:0|0:0,0:0:0:0:
130,346,61341,5,2,1:2:0:0:
212,131,61499,1,2,1:2:0:0:
341,345,61657,2,0,P|409:358|452:357,1,107.999996704102,10|0,0:0|0:0,0:0:0:0:
493,108,61973,2,0,P|425:95|382:96,1,107.999996704102,2|0,0:0|0:0,0:0:0:0:
230,334,62288,2,0,B|217:269|217:269|233:228|233:228|219:172,1,161.999995056153,10|0,0:0|0:0,0:0:0:0:
196,97,62604,6,0,P|119:114|57:107,1,107.999996704102,6|0,0:0|0:0,0:0:0:0:
1,301,62920,2,0,P|78:284|140:291,1,107.999996704102,8|0,0:0|0:0,0:0:0:0:
301,274,63236,1,0,1:0:0:0:
102,198,63394,1,0,1:0:0:0:
277,78,63552,2,0,P|290:135|297:191,1,107.999996704102,8|0,0:0|1:0,0:0:0:0:
301,274,63788,1,0,1:0:0:0:
301,274,63867,5,8,1:2:0:0:
186,93,64025,1,0,1:0:0:0:
363,57,64183,2,0,P|376:114|383:170,1,107.999996704102,10|0,0:0|0:0,0:0:0:0:
195,337,64499,1,8,0:0:0:0:
457,216,64657,1,10,0:2:0:0:
262,102,64815,1,8,0:0:0:0:
362,360,64973,1,8,0:0:0:0:
115,327,65131,6,0,L|107:255,1,72,6|0,1:2|0:0,0:0:0:0:
147,104,65446,2,0,L|154:175,1,72,2|0,1:2|0:0,0:0:0:0:
207,317,65762,1,10,0:0:0:0:
81,182,65920,1,2,1:2:0:0:
232,164,66078,2,0,L|307:154,2,72,10|8|0,0:0|0:0|0:0,0:0:0:0:
240,26,66552,5,0,1:0:0:0:
374,141,66710,2,0,P|388:182|390:225,1,72,10|0,0:0|0:0,0:0:0:0:
428,84,67025,1,10,0:0:0:0:
317,233,67183,1,2,1:2:0:0:
477,199,67341,2,0,P|463:240|461:283,1,72,8|0,0:0|0:0,0:0:0:0:
321,358,67657,6,0,P|272:335|200:338,1,108,4|0,0:0|0:0,0:0:0:0:
152,363,67973,2,0,L|130:289,1,72,2|0,1:2|1:2,0:0:0:0:
76,90,68288,1,10,0:0:0:0:
53,287,68446,1,2,0:0:0:0:
245,246,68604,2,0,P|249:189|242:149,1,72,10|8,0:0|0:0,0:0:0:0:
195,22,68920,5,2,0:0:0:0:
362,171,69078,1,10,0:0:0:0:
158,104,69236,2,0,P|154:161|161:201,1,72,2|2,0:0|1:2,0:0:0:0:
166,250,69473,1,0,1:0:0:0:
166,250,69552,1,2,1:2:0:0:
241,102,69710,1,2,1:2:0:0:
318,246,69867,2,0,L|354:313,1,72,2|0,1:2|1:0,0:0:0:0:
488,105,70183,6,0,P|432:83|379:81,1,90,14|0,0:0|0:0,0:0:0:0:
234,195,70499,1,0,0:0:0:0:
463,244,70657,2,0,P|438:188|402:149,1,90,14|0,0:0|0:0,0:0:0:0:
227,118,70973,1,0,0:0:0:0:
335,331,71131,2,0,P|357:275|359:222,1,90,14|0,0:0|0:0,0:0:0:0:
34,219,71446,6,0,P|90:241|143:243,1,90,10|0,0:0|0:0,0:0:0:0:
283,53,71762,2,0,P|227:31|174:29,1,90,2|8,0:0|0:0,0:0:0:0:
263,232,72078,2,0,P|280:168|277:121,1,90,2|0,0:0|0:0,0:0:0:0:
67,119,72394,1,10,0:0:0:0:
119,308,72552,1,0,0:0:0:0:
190,98,72710,5,8,0:0:0:0:
40,291,72867,1,0,1:0:0:0:
252,331,73025,1,8,0:0:0:0:
67,119,73183,1,0,1:0:0:0:
129,363,73341,1,8,1:2:0:0:
129,363,73420,1,0,1:2:0:0:
129,363,73499,1,0,1:2:0:0:
54,83,73657,1,8,0:0:0:0:
276,197,73815,1,0,1:0:0:0:
40,291,73973,5,2,0:0:0:0:
445,45,75236,6,0,B|362:40|398:97|305:86,1,144,6|0,0:0|0:0,0:0:0:0:
188,33,75710,1,0,1:0:0:0:
211,211,75867,2,0,P|221:168|221:134,1,72,10|0,0:0|0:0,0:0:0:0:
101,252,76183,1,2,1:2:0:0:
49,54,76341,2,2,P|39:97|74:202,1,144,2|0,1:2|0:0,0:0:0:0:
290,228,76815,5,8,0:0:0:0:
142,149,76973,1,0,1:0:0:0:
288,89,77131,1,10,0:0:0:0:
130,155,77288,1,0,1:0:0:0:
313,237,77446,2,0,P|349:249|386:249,1,72,8|0,0:0|0:0,0:0:0:0:
495,75,77762,6,0,B|412:68|448:124|355:115,1,144,6|0,0:0|0:0,0:0:0:0:
235,67,78236,1,2,0:0:0:0:
234,263,78394,2,0,P|231:225|239:187,1,72,8|0,0:0|0:0,0:0:0:0:
362,115,78710,1,2,0:0:0:0:
321,327,78867,2,0,P|276:336|232:330,1,72,8|2,1:2|0:0,0:0:0:0:
75,138,79183,5,0,0:0:0:0:
82,301,79341,2,0,P|93:258|87:222,1,72,8|2,0:0|0:0,0:0:0:0:
55,55,79657,1,8,0:0:0:0:
239,114,79815,1,8,0:0:0:0:
89,231,79973,1,8,0:0:0:0:
150,31,80131,1,8,0:0:0:0:
320,170,80288,5,0,1:2:0:0:
167,213,80446,1,2,1:2:0:0:
289,302,80604,2,0,P|325:315|378:318,1,72,2|0,0:0|0:0,0:0:0:0:
386,132,80920,1,10,0:0:0:0:
439,319,81078,1,2,0:0:0:0:
490,168,81236,2,0,P|498:127|495:89,1,72,2|0,1:2|0:0,0:0:0:0:
274,31,81552,6,0,P|266:72|269:110,2,72,2|0|0,0:0|0:0|0:0,0:0:0:0:
376,22,82025,1,0,1:0:0:0:
259,253,82183,1,8,0:0:0:0:
151,31,82341,1,0,1:0:0:0:
336,211,82499,1,8,0:0:0:0:
106,355,82657,1,0,1:0:0:0:
209,86,82815,6,0,P|243:116|284:159,1,90,12|0,0:2|0:0,0:0:0:0:
222,296,83131,2,0,P|188:266|147:223,1,90,8|0,0:0|0:0,0:0:0:0:
348,91,83446,2,0,P|350:136|336:219,1,107.999996704102,8|0,3:2|3:0,3:0:0:0:
83,272,83762,2,0,P|80:226|91:156,1,107.999996704102,8|0,0:0|0:0,0:0:0:0:
436,214,84078,2,0,P|406:248|334:298,1,125.999996154785,8|0,0:2|0:0,0:0:0:0:
0,149,84394,2,0,P|30:114|105:65,1,125.999996154785,8|0,0:0|0:0,0:0:0:0:
293,32,84710,5,8,1:2:0:0:
175,251,84867,1,0,1:2:0:0:
305,110,85025,1,0,1:2:0:0:
96,69,85183,1,0,1:2:0:0:
173,330,85341,6,0,B|314:345|267:239|440:270,1,270,6|2,0:2|1:2,0:0:0:0:
356,35,86288,2,0,B|196:6|243:112|104:97,1,270,6|2,0:0|1:2,0:0:0:0:
104,97,87078,1,0,1:0:0:0:
189,291,87236,1,2,1:2:0:0:
286,115,87394,1,2,1:2:0:0:
57,222,87552,2,0,B|49:282|49:282|62:317|62:317|55:371,1,144,6|0,1:2|0:0,0:0:0:0:
