osu file format v14

[General]
AudioFilename: audio.mp3
AudioLeadIn: 0
PreviewTime: 76370
Countdown: 0
SampleSet: Normal
StackLeniency: 0.7
Mode: 0
LetterboxInBreaks: 0
WidescreenStoryboard: 1

[Editor]
Bookmarks: 4970,7370,28970,38570,57170,66770,84170,93770,93920
DistanceSpacing: 0.7
BeatDivisor: 4
GridSize: 4
TimelineZoom: 4.299998

[Metadata]
Title:Hertzsprung gap
TitleUnicode:Hertzsprung gap
Artist:(K)NoW_NAME
ArtistUnicode:(K)NoW_NAME
Creator:1x50
Version:Insane
Source:
Tags:
BeatmapID:2108557
BeatmapSetID:996969

[Difficulty]
HPDrainRate:6
CircleSize:3.6
OverallDifficulty:8
ApproachRate:8.8
SliderMultiplier:1.6
SliderTickRate:1

[Events]
//Background and Video events
0,0,"bg.jpg",0,0
//Break Periods
//Storyboard Layer 0 (Background)
//Storyboard Layer 1 (Fail)
//Storyboard Layer 2 (Pass)
//Storyboard Layer 3 (Foreground)
//Storyboard Sound Samples

[TimingPoints]
7370,300,4,1,0,60,1,0
9770,300,4,1,0,60,1,0
9770,-111.111111111111,4,1,0,60,0,0
29570,-200,4,1,0,60,0,0
31070,-200,4,2,0,60,0,0
31370,-200,4,1,0,60,0,0
35870,-200,4,2,0,60,0,0
36020,-200,4,1,0,60,0,0
38270,-200,4,2,0,60,0,0
38420,-200,4,1,0,60,0,0
38570,-133.333333333333,4,1,0,60,0,0
40220,-133.333333333333,4,2,0,60,0,0
40370,-133.333333333333,4,1,0,60,0,0
43220,-133.333333333333,4,2,0,60,0,0
43370,-133.333333333333,4,1,0,60,0,0
45020,-133.333333333333,4,2,0,60,0,0
45170,-133.333333333333,4,1,0,60,0,0
45620,-133.333333333333,4,2,0,60,0,0
45770,-133.333333333333,4,1,0,60,0,0
46370,-133.333333333333,4,2,0,60,0,0
46520,-133.333333333333,4,1,0,60,0,0
48770,-111.111111111111,4,1,0,60,0,0
51994,-111.111111111111,4,2,0,60,0,0
52070,-111.111111111111,4,1,0,60,0,0
52294,-111.111111111111,4,2,0,60,0,0
52370,-111.111111111111,4,1,0,60,0,0
52594,-111.111111111111,4,2,0,60,0,0
52670,-111.111111111111,4,1,0,60,0,0
54320,-111.111111111111,4,2,0,60,0,0
54470,-111.111111111111,4,1,0,60,0,0
57170,-90.9090909090909,4,1,0,70,0,1
62270,-90.9090909090909,4,1,0,70,0,1
66770,-90.9090909090909,4,1,0,70,0,1
67520,-90.9090909090909,4,2,0,70,0,1
67670,-90.9090909090909,4,1,0,70,0,1
68420,-90.9090909090909,4,2,0,70,0,1
68570,-90.9090909090909,4,1,0,70,0,1
71570,-90.9090909090909,4,1,0,70,0,1
73820,-90.9090909090909,4,2,0,70,0,1
73970,-90.9090909090909,4,1,0,70,0,1
76970,-90.9090909090909,4,1,0,85,0,1
78920,-90.9090909090909,4,2,0,85,0,1
79070,-90.9090909090909,4,1,0,85,0,1
80720,-90.9090909090909,4,2,0,85,0,1
80870,-90.9090909090909,4,1,0,85,0,1
83570,-90.9090909090909,4,1,0,85,0,1
84170,-111.111111111111,4,1,0,60,0,0

[Colours]
Combo1 : 40,40,181
Combo2 : 102,181,104
Combo3 : 174,0,0
Combo4 : 255,255,185

[HitObjects]
256,192,7370,12,0,9470,0:0:0:0:
297,311,9770,6,0,P|290:259|276:228,1,71.9999978027344,0|0,0:0|0:0,0:0:0:0:
244,155,10070,1,0,0:0:0:0:
344,186,10220,1,2,0:0:0:0:
381,288,10370,2,0,P|373:336|364:362,2,71.9999978027344,0|0|0,0:0|0:0|0:0,0:0:0:0:
401,186,10820,1,0,0:0:0:0:
358,90,10970,6,0,P|309:70|275:66,1,71.9999978027344,0|0,0:0|0:0,0:0:0:0:
185,69,11270,1,0,0:0:0:0:
255,143,11420,1,2,0:0:0:0:
290,247,11570,2,0,P|259:285|238:303,2,71.9999978027344,0|4|0,0:0|0:0|0:0,0:0:0:0:
321,139,12020,1,0,0:0:0:0:
256,59,12170,6,0,P|211:43|166:38,1,71.9999978027344,0|0,0:0|0:0,0:0:0:0:
83,29,12470,1,0,0:0:0:0:
3,96,12620,1,2,0:0:0:0:
105,132,12770,2,0,P|154:137|181:135,2,71.9999978027344,0|0|0,0:0|0:0|0:0,0:0:0:0:
36,57,13220,1,0,0:0:0:0:
16,171,13370,6,0,P|10:224|18:263,1,71.9999978027344,2|0,0:0|0:0,0:0:0:0:
23,347,13670,1,4,0:0:0:0:
87,267,13820,1,0,0:0:0:0:
171,231,13970,2,0,P|204:216|240:215,2,71.9999978027344,0|0|0,0:0|0:0|0:0,0:0:0:0:
146,318,14420,1,0,0:0:0:0:
231,343,14570,6,0,P|269:356|322:350,1,71.9999978027344,2|0,0:0|0:0,0:0:0:0:
260,253,14870,1,0,0:0:0:0:
165,303,15020,1,2,0:0:0:0:
152,197,15170,2,0,P|144:151|144:119,2,71.9999978027344,0|0|0,0:0|0:0|0:0,0:0:0:0:
220,258,15620,1,0,0:0:0:0:
133,327,15770,6,0,P|90:353|52:361,1,71.9999978027344,0|0,0:0|0:0,0:0:0:0:
3,282,16070,1,0,0:0:0:0:
16,182,16220,1,2,0:0:0:0:
75,88,16370,2,0,P|108:42|130:26,2,71.9999978027344,0|0|0,0:0|0:0|0:0,0:0:0:0:
57,190,16820,1,0,0:0:0:0:
136,151,16970,6,0,P|185:126|218:124,1,71.9999978027344,0|0,0:0|0:0,0:0:0:0:
301,112,17270,1,0,0:0:0:0:
227,200,17420,1,2,0:0:0:0:
343,178,17570,2,0,P|386:155|419:125,1,71.9999978027344,0|0,0:0|0:0,0:0:0:0:
492,60,17870,1,0,0:0:0:0:
484,189,18020,2,0,B|472:231|472:231|443:277,1,71.9999978027344,0|8,0:0|0:0,0:0:0:0:
393,357,18320,1,0,0:0:0:0:
342,215,18470,5,8,0:0:0:0:
316,362,18620,1,0,0:0:0:0:
272,230,18770,1,8,0:0:0:0:
410,200,18920,1,0,0:0:0:0:
294,301,19070,2,0,P|255:345|222:359,1,71.9999978027344,8|0,0:0|0:0,0:0:0:0:
215,271,19370,6,0,P|232:226|252:197,1,71.9999978027344,8|0,0:0|0:0,0:0:0:0:
315,122,19670,1,0,0:0:0:0:
332,219,19820,1,2,0:0:0:0:
397,284,19970,2,0,P|430:308|468:314,2,71.9999978027344,0|0|0,0:0|0:0|0:0,0:0:0:0:
426,380,20420,1,0,0:0:0:0:
487,302,20570,6,0,P|490:263|476:210,1,71.9999978027344,0|0,0:0|0:0,0:0:0:0:
449,143,20870,1,2,0:0:0:0:
381,76,21020,1,0,0:0:0:0:
368,175,21170,2,0,P|383:212|386:259,2,71.9999978027344,0|0|0,0:0|0:0|0:0,0:0:0:0:
284,130,21620,1,0,0:0:0:0:
328,43,21770,6,0,P|370:22|428:22,1,71.9999978027344,0|0,0:0|0:0,0:0:0:0:
499,13,22070,1,0,0:0:0:0:
479,107,22220,1,2,0:0:0:0:
396,158,22370,2,0,P|349:183|316:188,2,71.9999978027344,0|0|0,0:0|0:0|0:0,0:0:0:0:
404,58,22820,1,0,0:0:0:0:
310,26,22970,6,0,P|251:16|212:19,1,71.9999978027344,0|0,0:0|0:0,0:0:0:0:
146,25,23270,1,0,0:0:0:0:
205,98,23420,1,2,0:0:0:0:
219,196,23570,2,0,P|228:244|225:289,2,71.9999978027344,0|0|0,0:0|0:0|0:0,0:0:0:0:
309,254,24020,1,0,0:0:0:0:
347,343,24170,6,0,P|388:362|422:353,1,71.9999978027344,0|0,0:0|0:0,0:0:0:0:
391,267,24470,1,0,0:0:0:0:
345,172,24620,1,2,0:0:0:0:
252,139,24770,2,0,P|205:127|176:123,2,71.9999978027344,0|0|0,0:0|0:0|0:0,0:0:0:0:
336,93,25220,1,0,0:0:0:0:
418,42,25370,6,0,P|456:26|497:23,1,71.9999978027344,0|0,0:0|0:0,0:0:0:0:
450,120,25670,1,0,0:0:0:0:
381,188,25820,1,2,0:0:0:0:
474,206,25970,2,0,P|472:249|461:285,2,71.9999978027344,0|0|0,0:0|0:0|0:0,0:0:0:0:
400,127,26420,1,0,0:0:0:0:
303,99,26570,6,0,P|236:81|215:79,1,71.9999978027344,0|0,0:0|0:0,0:0:0:0:
122,70,26870,1,0,0:0:0:0:
175,162,27020,2,0,B|172:208|172:208|202:257,1,71.9999978027344,2|0,0:0|0:0,0:0:0:0:
259,286,27320,1,8,0:0:0:0:
156,323,27470,2,0,B|109:307|109:307|100:253,1,71.9999978027344,0|0,0:0|0:0,0:0:0:0:
85,150,27770,6,0,L|75:59,2,71.9999978027344,8|0|8,0:0|0:0|0:0,0:0:0:0:
94,254,28220,1,0,0:0:0:0:
177,122,28370,1,8,0:0:0:0:
178,271,28520,1,0,0:0:0:0:
259,126,28670,1,8,0:0:0:0:
106,171,28820,1,0,0:0:0:0:
258,284,28970,1,12,0:0:0:0:
258,284,29570,6,0,P|302:264|336:231,1,80,0|0,0:0|0:0,0:0:0:0:
336,135,30170,2,0,P|372:151|402:177,1,80,0|0,0:0|0:0,0:0:0:0:
419,306,30770,1,0,0:0:0:0:
419,306,30920,2,0,L|419:358,2,40,4|0|0,0:0|0:0|0:0,0:0:0:0:
475,217,31370,2,0,P|462:179|438:146,1,80,4|0,0:3|0:0,0:0:0:0:
468,48,31970,6,0,P|417:48|377:66,1,80,0|0,0:0|0:0,0:0:0:0:
280,22,32570,2,0,P|267:68|269:107,1,80,0|0,0:0|0:0,0:0:0:0:
157,120,33170,2,0,P|190:153|230:168,1,80,0|0,0:0|0:0,0:0:0:0:
106,193,33770,1,4,0:0:0:0:
106,193,33920,2,0,L|64:211,2,40,0|0|0,0:0|0:0|0:0,0:0:0:0:
173,262,34370,6,0,P|161:308|132:347,1,80,0|0,0:0|0:0,0:0:0:0:
260,283,34970,2,0,P|260:243|248:205,1,80,0|0,0:0|0:0,0:0:0:0:
200,99,35570,1,0,0:0:0:0:
200,99,35720,2,0,L|191:48,2,40,4|0|0,0:0|0:0|0:0,0:0:0:0:
126,152,36170,6,4,P|104:115|71:86,1,80,4|0,0:0|0:0,0:0:0:0:
45,194,36770,2,0,P|54:232|74:267,1,80,0|0,0:0|0:0,0:0:0:0:
18,344,37370,2,0,P|64:355|105:348,1,80,0|0,0:0|0:0,0:0:0:0:
222,328,37970,1,0,0:0:0:0:
222,328,38120,2,0,L|222:381,2,40,4|0|0,0:0|0:0|0:0,0:0:0:0:
220,241,38570,5,0,0:0:0:0:
272,153,38720,1,0,0:0:0:0:
323,241,38870,1,0,0:0:0:0:
363,128,39020,1,0,0:0:0:0:
436,210,39170,6,0,P|457:157|451:83,1,120.000004577637,0|0,0:0|0:0,0:0:0:0:
384,31,39620,1,0,0:0:0:0:
312,142,39770,2,0,P|255:133|194:91,1,120.000004577637,8|0,0:0|0:0,0:0:0:0:
205,15,40220,2,0,P|150:42|140:58,2,60.0000022888184,0|0|8,0:0|0:0|0:0,0:0:0:0:
199,110,40670,1,0,0:0:0:0:
193,212,40820,1,0,0:0:0:0:
188,312,40970,1,8,0:0:0:0:
113,261,41120,2,0,P|79:232|67:200,2,60.0000022888184,0|0|0,0:0|0:0|0:0,0:0:0:0:
261,294,41570,6,0,P|314:264|345:208,1,120.000004577637,0|0,0:0|0:0,0:0:0:0:
295,139,42020,1,0,0:0:0:0:
393,120,42170,2,0,P|346:65|287:35,1,120.000004577637,8|0,0:0|0:0,0:0:0:0:
217,31,42620,1,0,0:0:0:0:
129,51,42770,2,0,P|107:106|111:165,1,120.000004577637,0|8,0:0|0:0,0:0:0:0:
158,246,43220,1,0,0:0:0:0:
221,320,43370,1,0,0:0:0:0:
310,341,43520,2,0,P|345:350|385:351,2,60.0000022888184,0|0|0,0:0|0:0|0:0,0:0:0:0:
279,255,43970,5,0,0:0:0:0:
329,191,44120,2,0,P|362:154|371:124,2,60.0000022888184,8|0|0,0:0|0:0|0:0,0:0:0:0:
302,91,44570,2,0,P|357:53|426:40,1,120.000004577637,8|0,0:0|0:0,0:0:0:0:
504,19,45020,1,0,0:0:0:0:
482,121,45170,1,0,0:0:0:0:
444,199,45320,2,0,P|419:235|391:252,2,60.0000022888184,8|8|0,0:0|0:0|0:0,0:0:0:0:
340,174,45770,6,0,P|271:151|234:107,1,120.000004577637,8|0,0:0|0:0,0:0:0:0:
187,42,46220,1,0,0:0:0:0:
141,117,46370,1,0,0:0:0:0:
115,201,46520,2,0,P|105:233|102:267,2,60.0000022888184,8|0|0,0:0|0:0|0:0,0:0:0:0:
183,278,46970,2,0,P|212:281|241:290,2,60.0000022888184,8|0|0,0:0|0:0|0:0,0:0:0:0:
277,221,47420,2,0,P|305:250|323:277,1,60.0000022888184,0|0,0:0|0:0,0:0:0:0:
376,159,47720,1,4,0:0:0:0:
379,333,47870,2,4,P|335:358|317:360,1,60.0000022888184,0|0,0:0|0:0,0:0:0:0:
424,252,48170,6,0,P|441:223|451:188,2,60.0000022888184,0|0|0,0:0|0:0|0:0,0:0:0:0:
372,156,48620,1,0,0:0:0:0:
330,248,48770,2,2,P|284:304|209:329,1,143.999995605469,0|0,0:0|0:0,0:0:0:0:
237,240,49220,1,0,0:0:0:0:
291,170,49370,2,2,P|337:107|405:76,1,143.999995605469,0|0,0:0|0:0,0:0:0:0:
268,51,49820,1,0,0:0:0:0:
203,126,49970,2,2,P|158:196|144:261,1,143.999995605469,0|0,0:0|0:0,0:0:0:0:
145,352,50420,1,0,0:0:0:0:
232,237,50570,5,0,0:0:0:0:
251,352,50720,2,0,P|310:329|325:311,2,71.9999978027344,0|0|0,0:0|0:0|0:0,0:0:0:0:
141,244,51170,2,2,P|92:186|66:114,1,143.999995605469,0|0,0:0|0:0,0:0:0:0:
51,41,51620,1,0,0:0:0:0:
226,73,51770,6,0,P|263:104|206:122,1,107.999996704102,0|8,0:0|0:0,0:0:0:0:
179,204,52070,2,0,P|187:251|231:211,1,107.999996704102,0|8,0:0|0:0,0:0:0:0:
304,186,52370,2,0,P|349:169|336:227,1,107.999996704102,0|8,0:0|0:0,0:0:0:0:
320,289,52670,2,0,P|296:351|271:301,1,143.999995605469,0|8,0:0|0:0,0:0:0:0:
228,153,53120,1,0,0:0:0:0:
178,297,53270,6,0,P|140:325|109:331,1,71.9999978027344,0|8,0:0|0:0,0:0:0:0:
101,240,53570,2,0,P|66:269|47:294,1,71.9999978027344,0|8,0:0|0:0,0:0:0:0:
121,151,53870,2,0,B|146:108|146:108|189:76,1,71.9999978027344,0|8,0:0|0:0,0:0:0:0:
268,40,54170,1,0,0:0:0:0:
232,166,54320,1,0,0:0:0:0:
356,47,54470,1,0,0:0:0:0:
324,174,54620,1,0,0:0:0:0:
441,104,54770,6,0,P|429:147|406:186,1,71.9999978027344,0|0,0:0|0:0,0:0:0:0:
506,255,55070,2,0,P|472:268|437:273,1,71.9999978027344,0|0,0:0|0:0,0:0:0:0:
274,276,55370,5,8,0:0:0:0:
351,203,55520,1,0,0:0:0:0:
251,267,55670,5,8,0:0:0:0:
340,184,55820,1,0,0:0:0:0:
225,256,55970,5,8,0:0:0:0:
326,162,56120,1,0,0:0:0:0:
197,245,56270,5,8,0:0:0:0:
314,135,56420,1,0,0:0:0:0:
362,279,56570,5,8,0:0:0:0:
247,179,56720,1,0,0:0:0:0:
247,329,56870,1,8,0:0:0:0:
247,329,57170,6,0,P|192:346|152:344,1,88.000002685547,0|0,0:0|0:0,0:0:0:0:
69,245,57470,2,0,P|70:288|85:329,1,88.000002685547,0|0,0:0|0:0,0:0:0:0:
174,235,57770,2,2,B|186:154|160:98|160:98|146:159,1,176.000005371094,0|0,0:0|0:0,0:0:0:0:
122,282,58220,1,0,0:0:0:0:
251,210,58370,1,0,0:0:0:0:
211,331,58520,1,0,0:0:0:0:
324,277,58670,2,0,B|341:181|341:181|325:98,1,176.000005371094,0|8,0:0|0:0,0:0:0:0:
423,229,59120,1,0,0:0:0:0:
411,91,59270,6,0,P|376:49|341:30,1,88.000002685547,0|0,0:0|0:0,0:0:0:0:
345,149,59570,2,0,P|291:158|257:179,1,88.000002685547,0|0,0:0|0:0,0:0:0:0:
319,239,59870,2,0,P|300:290|301:330,1,88.000002685547,0|0,0:0|0:0,0:0:0:0:
192,206,60170,2,2,P|185:293|240:372,1,176.000005371094
108,210,60620,1,0,0:0:0:0:
92,349,60770,1,0,0:0:0:0:
21,226,60920,1,0,0:0:0:0:
144,139,61070,2,0,P|217:92|303:99,1,176.000005371094,2|8,0:0|0:0,0:0:0:0:
420,144,61520,1,0,0:0:0:0:
471,363,61670,6,0,L|443:244,1,88.000002685547,0|0,0:0|0:0,0:0:0:0:
308,90,61970,2,0,L|326:191,1,88.000002685547,0|8,0:0|0:0,0:0:0:0:
365,340,62270,2,0,L|262:374,1,88.000002685547,0|8,0:0|0:0,0:0:0:0:
370,253,62570,1,0,0:0:0:0:
227,300,62720,1,8,0:0:0:0:
304,184,62870,1,0,0:0:0:0:
170,208,63020,2,0,P|134:256|109:368,1,176.000005371094
62,234,63470,6,2,P|116:157|179:104,1,176.000005371094
289,71,63920,1,0,0:0:0:0:
135,44,64070,2,2,B|58:91|6:179,1,176.000005371094,0|0,0:0|0:0,0:0:0:0:
157,229,64520,5,8,0:0:0:0:
204,87,64670,1,0,0:0:0:0:
252,249,64820,2,0,P|276:313|292:333,1,88.000002685547,0|0,0:0|0:0,0:0:0:0:
297,168,65120,1,0,0:0:0:0:
389,250,65270,2,0,P|419:281|435:322,2,88.000002685547,0|0|0,0:0|0:0|0:0,0:0:0:0:
409,125,65720,1,0,0:0:0:0:
499,244,65870,5,0,0:0:0:0:
495,99,66020,1,0,0:0:0:0:
332,149,66170,2,0,P|293:175|261:209,2,88.000002685547,8|0|0,0:0|0:0|0:0,0:0:0:0:
231,98,66620,1,0,0:0:0:0:
381,46,66770,1,0,0:0:0:0:
259,13,66920,1,0,0:0:0:0:
206,174,67070,2,0,L|175:261,1,88.000002685547,0|0,0:0|0:0,0:0:0:0:
54,207,67370,6,2,P|77:258|118:296,1,88.000002685547
188,340,67670,1,0,0:0:0:0:
131,189,67820,2,0,P|114:142|84:115,1,88.000002685547
232,141,68120,1,0,0:0:0:0:
142,31,68270,1,0,0:0:0:0:
258,50,68420,1,0,0:0:0:0:
161,110,68570,1,0,0:0:0:0:
310,150,68720,1,0,0:0:0:0:
258,50,68870,6,2,P|198:32|149:28,1,88.000002685547
69,111,69170,2,2,P|77:67|93:26,1,88.000002685547
156,118,69470,1,0,0:0:0:0:
66,212,69620,1,0,0:0:0:0:
201,191,69770,2,0,P|150:285|85:335,1,176.000005371094,8|0,0:0|0:0,0:0:0:0:
248,282,70220,2,0,P|331:309|418:303,1,176.000005371094,0|0,0:0|0:0,0:0:0:0:
321,226,70670,2,0,P|265:134|254:53,1,176.000005371094,0|8,0:0|0:0,0:0:0:0:
371,153,71120,1,0,0:0:0:0:
341,28,71270,6,0,P|392:40|435:75,1,88.000002685547,0|8,0:0|0:0,0:0:0:0:
467,210,71570,2,0,P|468:166|454:124,1,88.000002685547,0|8,0:0|0:0,0:0:0:0:
395,231,71870,2,0,P|380:281|354:319,1,88.000002685547,0|0,0:0|0:0,0:0:0:0:
313,199,72170,2,2,P|219:160|138:150,1,176.000005371094,2|2,0:0|0:0,0:0:0:0:
32,152,72620,1,0,0:0:0:0:
161,260,72770,1,0,0:0:0:0:
22,241,72920,1,0,0:0:0:0:
110,353,73070,6,2,P|196:339|277:304,1,176.000005371094
398,245,73520,1,0,0:0:0:0:
269,137,73670,1,0,0:0:0:0:
408,156,73820,1,0,0:0:0:0:
252,220,73970,1,0,0:0:0:0:
349,90,74120,1,0,0:0:0:0:
321,268,74270,2,10,L|305:358,1,88.000002685547,0|0,0:0|0:0,0:0:0:0:
184,267,74570,6,0,L|96:274,1,88.000002685547,8|0,0:0|0:0,0:0:0:0:
184,150,74870,2,0,L|96:145,1,88.000002685547,8|0,0:0|0:0,0:0:0:0:
165,282,75170,6,0,L|59:291,1,88.000002685547,8|0,0:0|0:0,0:0:0:0:
165,141,75470,2,0,L|59:135,1,88.000002685547,8|0,0:0|0:0,0:0:0:0:
142,297,75770,6,0,L|15:308,1,88.000002685547,8|0,0:0|0:0,0:0:0:0:
142,127,76070,2,0,L|15:120,1,88.000002685547,8|0,0:0|0:0,0:0:0:0:
236,216,76370,5,0,0:0:0:0:
266,217,76445,1,0,0:0:0:0:
296,217,76520,1,0,0:0:0:0:
326,217,76595,1,0,0:0:0:0:
356,217,76670,1,0,0:0:0:0:
122,167,76970,6,0,P|131:220|148:268,1,88.000002685547,8|0,2:0|2:0,2:0:0:0:
293,267,77270,2,0,P|242:285|190:290,1,88.000002685547,8|0,2:0|2:0,2:0:0:0:
48,328,77570,1,8,2:0:0:0:
173,358,77720,1,0,2:0:0:0:
95,242,77870,1,8,2:0:0:0:
105,378,78020,1,0,2:0:0:0:
211,250,78170,6,0,P|250:211|269:179,1,88.000002685547,8|0,0:0|0:0,0:0:0:0:
326,318,78470,1,8,2:0:0:0:
328,135,78620,1,0,2:0:0:0:
412,277,78770,1,8,0:0:0:0:
328,135,78920,1,0,0:0:0:0:
469,194,79070,1,8,0:0:0:0:
367,46,79220,5,0,0:0:0:0:
367,46,79295,1,0,0:0:0:0:
367,46,79370,2,0,P|311:50|271:65,1,88.000002685547,4|0,0:0|2:0,0:0:0:0:
221,195,79670,5,8,2:0:0:0:
205,43,79820,1,0,2:0:0:0:
149,172,79970,1,8,2:0:0:0:
309,90,80120,1,0,2:0:0:0:
227,273,80270,1,8,2:0:0:0:
214,117,80420,1,0,2:0:0:0:
322,246,80570,6,0,P|349:296|381:329,1,88.000002685547,8|0,2:0|0:0,2:0:0:0:
451,202,80870,1,8,2:0:0:0:
430,365,81020,1,0,2:0:0:0:
451,202,81170,2,0,P|447:147|436:108,1,88.000002685547,8|0,2:0|2:0,0:0:0:0:
398,276,81470,1,8,2:0:0:0:
281,178,81620,1,0,2:0:0:0:
317,306,81770,6,0,P|365:347|486:361,1,176.000005371094,8|8,2:0|2:0,2:0:0:0:
338,233,82220,1,0,2:0:0:0:
249,335,82370,2,0,P|185:337|92:276,1,176.000005371094,8|8,2:0|2:0,2:0:0:0:
255,249,82820,1,0,2:0:0:0:
408,74,82970,6,0,B|423:127|423:127|405:179,1,88.000002685547,8|0,2:0|2:0,2:0:0:0:
498,246,83270,2,0,B|459:285|459:285|401:297,1,88.000002685547,0|0,2:0|2:0,2:0:0:0:
323,177,83570,2,4,B|334:98|271:41|271:41|217:97|138:51,1,264.000008056641,0|0,0:0|0:0,0:0:0:0:
128,183,84170,6,0,P|107:231|86:257,1,71.9999978027344,0|0,0:0|0:0,0:0:0:0:
36,319,84470,1,0,0:0:0:0:
141,315,84620,1,2,0:0:0:0:
203,226,84770,2,0,P|207:177|205:150,2,71.9999978027344,0|0|0,0:0|0:0|0:0,0:0:0:0:
196,330,85220,1,0,0:0:0:0:
276,243,85370,6,0,P|317:210|338:183,1,71.9999978027344,0|0,0:0|0:0,0:0:0:0:
384,282,85670,1,0,0:0:0:0:
310,352,85820,1,2,0:0:0:0:
462,340,85970,2,0,P|472:305|477:269,2,71.9999978027344,0|0|0,0:0|0:0|0:0,0:0:0:0:
384,282,86420,1,0,0:0:0:0:
327,210,86570,6,0,P|296:173|259:146,1,71.9999978027344,2|0,0:0|0:0,0:0:0:0:
205,88,86870,1,0,0:0:0:0:
176,186,87020,1,2,0:0:0:0:
99,101,87170,2,0,P|94:150|96:177,2,71.9999978027344,0|0|0,0:0|0:0|0:0,0:0:0:0:
23,45,87620,1,0,0:0:0:0:
20,172,87770,6,0,P|20:222|33:259,1,71.9999978027344,2|0,0:0|0:0,0:0:0:0:
81,339,88070,1,0,0:0:0:0:
97,226,88220,1,0,0:0:0:0:
164,295,88370,2,0,P|197:280|233:279,2,71.9999978027344,0|0|0,0:0|0:0|0:0,0:0:0:0:
186,200,88820,1,0,0:0:0:0:
297,217,88970,6,0,P|327:243|348:292,1,71.9999978027344,0|0,0:0|0:0,0:0:0:0:
383,364,89270,1,0,0:0:0:0:
426,262,89420,1,2,0:0:0:0:
381,181,89570,2,0,P|354:142|331:120,2,71.9999978027344,0|0|0,0:0|0:0|0:0,0:0:0:0:
439,117,90020,1,0,0:0:0:0:
380,56,90170,6,0,P|356:28|326:8,1,71.9999978027344,0|0,0:0|0:0,0:0:0:0:
263,103,90470,1,0,0:0:0:0:
238,5,90620,1,2,0:0:0:0:
163,68,90770,2,0,P|136:92|118:123,2,71.9999978027344,0|0|0,0:0|0:0|0:0,0:0:0:0:
263,103,91220,1,0,0:0:0:0:
319,169,91370,6,0,P|352:212|359:245,1,71.9999978027344,0|0,0:0|0:0,0:0:0:0:
277,250,91670,1,0,0:0:0:0:
376,309,91820,1,0,0:0:0:0:
280,333,91970,2,0,P|246:346|211:353,1,71.9999978027344,0|0,0:0|0:0,0:0:0:0:
116,358,92270,5,8,0:0:0:0:
172,278,92420,2,0,B|187:254|187:254|199:212,1,71.9999978027344,0|8,0:0|0:0,0:0:0:0:
182,50,92720,1,0,0:0:0:0:
131,197,92870,1,8,0:0:0:0:
105,50,93020,1,0,0:0:0:0:
61,182,93170,5,8,0:0:0:0:
199,212,93320,1,0,0:0:0:0:
33,97,93470,1,8,0:0:0:0:
73,266,93620,1,0,0:0:0:0:
159,124,93770,1,12,0:0:0:0:
