osu file format v14

[General]
AudioFilename: audio.mp3
AudioLeadIn: 0
PreviewTime: 76370
Countdown: 0
SampleSet: Normal
StackLeniency: 0.7
Mode: 0
LetterboxInBreaks: 0
WidescreenStoryboard: 0

[Editor]
Bookmarks: 4970,7370,28970,38570,57170,66770,84170,93770,93920
DistanceSpacing: 1.7
BeatDivisor: 4
GridSize: 4
TimelineZoom: 4.299998

[Metadata]
Title:Hertzsprung gap
TitleUnicode:Hertzsprung gap
Artist:(K)NoW_NAME
ArtistUnicode:(K)NoW_NAME
Creator:1x50
Version:Extra
Source:
Tags:
BeatmapID:2085494
BeatmapSetID:996969

[Difficulty]
HPDrainRate:5.8
CircleSize:4.2
OverallDifficulty:9
ApproachRate:9.2
SliderMultiplier:2
SliderTickRate:1

[Events]
//Background and Video events
0,0,"bg.jpg",0,0
//Break Periods
//Storyboard Layer 0 (Background)
//Storyboard Layer 1 (Fail)
//Storyboard Layer 2 (Pass)
//Storyboard Layer 3 (Foreground)
//Storyboard Sound Samples

[TimingPoints]
9770,300,4,1,0,60,1,0
9770,-125,4,1,0,60,0,0
29570,-200,4,1,0,60,0,0
38570,-142.857142857143,4,1,0,60,0,0
57170,-100,4,1,0,70,0,1
62270,-80,4,1,0,70,0,1
66770,-100,4,1,0,70,0,1
71570,-80,4,1,0,70,0,1
76970,-80,4,1,0,85,0,1
83570,-125,4,1,0,85,0,1
84170,-125,4,1,0,60,0,0

[Colours]
Combo1 : 40,40,181
Combo2 : 102,181,104
Combo3 : 174,0,0
Combo4 : 255,255,185

[HitObjects]
256,192,7370,12,0,9470,0:0:0:0:
150,253,9770,6,0,P|180:203|211:172,1,80
233,280,10070,1,0,0:0:0:0:
266,170,10220,2,0,P|279:114|278:70,1,80,2|0,0:0|0:0,0:0:0:0:
379,55,10520,1,0,0:0:0:0:
446,136,10670,6,0,P|442:180|414:225,1,80
360,290,10970,1,0,0:0:0:0:
269,351,11120,2,0,P|227:357|188:350,1,80
125,270,11420,2,0,P|89:304|80:342,2,80,2|0|4,0:0|0:0|0:0,0:0:0:0:
234,245,11870,6,0,P|270:225|296:195,1,80
168,197,12170,2,0,P|139:137|118:116,1,80
68,50,12470,1,0,0:0:0:0:
174,55,12620,2,0,P|210:70|241:96,1,80,2|0,0:0|0:0,0:0:0:0:
290,189,12920,1,0,0:0:0:0:
347,108,13070,6,0,P|367:72|396:45,1,80
426,160,13370,2,0,P|416:207|393:240,2,80,2|0|4,0:0|0:0|0:0,0:0:0:0:
396,45,13820,2,0,P|353:17|308:6,1,80
335,129,14120,1,0,0:0:0:0:
397,234,14270,6,0,P|417:268|448:299,1,80
319,273,14570,2,0,P|272:300|239:332,1,80,2|0,0:0|0:0,0:0:0:0:
267,216,14870,1,0,0:0:0:0:
169,302,15020,2,0,P|147:335|136:374,2,80,2|0|0,0:0|0:0|0:0,0:0:0:0:
92,217,15470,6,0,P|113:168|141:139,1,80
258,121,15770,2,0,P|245:159|226:195,1,80
162,288,16070,1,0,0:0:0:0:
284,253,16220,2,0,P|304:218|316:178,2,80,2|0|0,0:0|0:0|0:0,0:0:0:0:
442,174,16670,6,0,B|405:110|365:92,1,80
411,33,16970,2,0,B|348:42|312:67,1,80
283,106,17270,1,0,0:0:0:0:
284,253,17420,2,2,B|258:195|264:149,1,80,2|0,0:0|0:0,0:0:0:0:
366,238,17720,1,0,0:0:0:0:
438,145,17870,6,8,B|471:101|471:101|512:116,1,80
414,17,18170,2,0,B|393:63|393:63|356:58,2,80,8|0|8,0:0|0:0|0:0,0:0:0:0:
369,158,18620,1,0,0:0:0:0:
215,96,18770,5,8,0:0:0:0:
343,198,18920,1,0,0:0:0:0:
183,127,19070,1,8,0:0:0:0:
321,235,19220,1,0,0:0:0:0:
176,220,19370,6,0,P|127:245|102:280,1,80,8|0,0:0|0:0,0:0:0:0:
181,332,19670,1,0,0:0:0:0:
239,255,19820,2,0,P|267:225|277:184,1,80,2|0,0:0|0:0,0:0:0:0:
280,80,20120,1,0,0:0:0:0:
356,139,20270,6,0,P|393:174|406:215,1,80
507,179,20570,2,0,P|481:230|440:251,1,80
340,287,20870,2,0,P|326:249|331:210,2,80,2|0|0,0:0|0:0|0:0,0:0:0:0:
256,211,21320,1,0,0:0:0:0:
184,295,21470,6,0,P|145:334|113:343,1,80
42,240,21770,2,0,P|96:257|131:298,1,80
84,162,22070,1,0,0:0:0:0:
189,209,22220,2,0,B|176:155|135:120,2,80,2|0|0,0:0|0:0|0:0,0:0:0:0:
411,220,22670,6,0,P|354:233|326:250,1,80
323,356,22970,2,0,P|287:313|276:273,1,80
256,177,23270,1,0,0:0:0:0:
181,273,23420,2,0,P|153:304|120:326,2,80,2|0|0,0:0|0:0|0:0,0:0:0:0:
67,268,23870,6,0,P|92:215|115:197,1,80
231,157,24170,2,0,P|202:129|164:116,1,80
52,103,24470,1,0,0:0:0:0:
192,44,24620,2,0,P|241:39|301:63,2,80,2|0|0,0:0|0:0|0:0,0:0:0:0:
127,167,25070,6,0,P|167:224|185:232,1,80
213,317,25370,2,0,P|233:272|286:232,1,80
324,184,25670,1,0,0:0:0:0:
289,359,25820,2,0,P|365:355|386:342,1,80,2|0,0:0|0:0,0:0:0:0:
462,305,26120,1,0,0:0:0:0:
374,251,26270,6,0,P|415:205|444:191,1,80
433,83,26570,2,0,P|479:130|488:171,1,80
349,120,26870,1,0,0:0:0:0:
288,198,27020,2,0,P|265:230|252:268,1,80,2|0,0:0|0:0,0:0:0:0:
273,124,27320,6,0,B|222:136|222:136|188:169,1,80,8|0,0:0|0:0,0:0:0:0:
143,239,27620,1,0,0:0:0:0:
105,127,27770,2,0,B|90:76|90:76|103:32,2,80,8|0|8,0:0|0:0|0:0,0:0:0:0:
143,239,28220,5,0,0:0:0:0:
14,347,28370,1,8,0:0:0:0:
237,267,28520,1,0,0:0:0:0:
71,262,28670,1,8,0:0:0:0:
179,349,28820,1,0,0:0:0:0:
104,113,28970,1,12,0:0:0:0:
259,44,29570,6,0,P|304:80|326:133,1,100
397,211,30170,2,0,P|343:230|287:223,2,100
335,151,30920,1,4,0:0:0:0:
153,244,31370,1,4,0:3:0:0:
163,319,31520,2,0,L|169:371,2,50
284,341,31970,6,0,P|336:301|373:257,1,100
379,167,32570,2,0,P|420:196|455:231,1,100
419,344,33170,2,0,P|376:319|336:286,1,100
277,141,33770,1,4,0:0:0:0:
252,68,33920,2,0,L|237:8,2,50
386,59,34370,6,0,P|446:83|481:125,1,100
399,176,34970,2,0,P|347:217|294:226,1,100
461,125,35570,1,0,0:0:0:0:
466,40,35720,2,0,P|404:63|370:105,1,100,4|0,0:0|0:0,0:0:0:0:
379,168,36170,6,4,P|402:230|443:263,1,100,4|0,0:0|0:0,0:0:0:0:
214,106,36770,2,0,P|265:105|311:123,1,100
316,310,37370,2,0,P|314:259|332:213,1,100
447,95,37970,1,0,0:0:0:0:
356,89,38120,2,0,P|306:97|265:124,1,100,4|0,0:0|0:0,0:0:0:0:
195,184,38570,5,0,0:0:0:0:
151,266,38720,1,0,0:0:0:0:
204,341,38870,1,0,0:0:0:0:
292,311,39020,1,0,0:0:0:0:
288,225,39170,2,0,P|277:178|256:149,2,69.9999978637696,0|8|0,0:0|0:0|0:0,0:0:0:0:
382,93,39620,1,0,0:0:0:0:
355,220,39770,2,0,P|401:218|487:261,1,139.999995727539,8|0,0:0|0:0,0:0:0:0:
263,371,40370,5,0,0:0:0:0:
180,328,40520,1,8,0:0:0:0:
133,248,40670,2,8,P|122:214|124:178,1,69.9999978637696
158,93,40970,1,8,0:0:0:0:
241,54,41120,1,0,0:0:0:0:
325,93,41270,1,0,0:0:0:0:
355,178,41420,1,0,0:0:0:0:
417,345,41570,6,0,L|440:257,1,69.9999978637696,0|8,0:0|0:0,0:0:0:0:
462,187,41870,1,0,0:0:0:0:
448,97,42020,1,0,0:0:0:0:
360,30,42170,2,0,P|290:25|221:45,1,139.999995727539,8|0,0:0|0:0,0:0:0:0:
151,103,42620,1,0,0:0:0:0:
286,160,42770,2,0,P|300:128|304:94,1,69.9999978637696,0|8,0:0|0:0,0:0:0:0:
121,183,43070,1,8,0:0:0:0:
109,350,43370,5,0,0:0:0:0:
35,295,43520,1,0,0:0:0:0:
21,203,43670,2,0,P|27:166|43:135,1,69.9999978637696
152,258,43970,6,0,P|165:290|187:317,1,69.9999978637696,0|8,0:0|0:0,0:0:0:0:
239,125,44270,1,0,0:0:0:0:
105,171,44420,1,0,0:0:0:0:
215,215,44570,6,0,P|283:193|354:201,1,139.999995727539,8|0,0:0|0:0,0:0:0:0:
510,81,45170,1,0,0:0:0:0:
425,45,45320,1,8,0:0:0:0:
333,56,45470,1,8,0:0:0:0:
479,238,45770,6,0,P|491:290|479:380,1,139.999995727539,8|0,0:0|0:0,0:0:0:0:
398,238,46220,2,0,P|331:213|279:165,1,139.999995727539,0|8,0:0|0:0,0:0:0:0:
197,74,46670,2,0,P|171:37|160:4,2,69.9999978637696,0|0|8,0:0|0:0|0:0,0:0:0:0:
273,127,47120,1,0,0:0:0:0:
359,100,47270,1,0,0:0:0:0:
447,75,47420,2,0,L|486:135,1,69.9999978637696
265,46,47720,1,4,0:0:0:0:
288,288,47870,2,4,P|300:321|319:350,1,69.9999978637696
164,339,48170,6,0,P|135:360|104:377,1,69.9999978637696
288,213,48470,1,0,0:0:0:0:
361,140,48620,1,0,0:0:0:0:
435,36,48770,6,2,P|389:26|358:36,1,69.9999978637696
272,107,49070,1,0,0:0:0:0:
238,223,49220,1,0,0:0:0:0:
446,121,49370,6,2,P|414:135|388:158,1,69.9999978637696
307,248,49670,1,0,0:0:0:0:
282,365,49820,1,0,0:0:0:0:
141,237,49970,6,2,P|160:185|191:157,1,69.9999978637696
256,86,50270,1,0,0:0:0:0:
372,50,50420,1,0,0:0:0:0:
467,79,50570,6,2,P|460:114|443:145,1,69.9999978637696
353,227,50870,1,0,0:0:0:0:
233,207,51020,1,0,0:0:0:0:
220,332,51170,6,2,P|199:303|189:269,1,69.9999978637696
177,148,51470,1,0,0:0:0:0:
265,65,51620,1,0,0:0:0:0:
62,135,51770,6,0,P|101:164|110:197,1,69.9999978637696,0|8,0:0|0:0,0:0:0:0:
63,254,52070,2,0,P|108:274|138:266,1,69.9999978637696,0|8,0:0|0:0,0:0:0:0:
186,339,52370,2,0,P|208:307|210:267,1,69.9999978637696,0|8,0:0|0:0,0:0:0:0:
183,136,52670,2,0,P|205:167|207:208,1,69.9999978637696,0|8,0:0|0:0,0:0:0:0:
130,368,52970,5,0,0:0:0:0:
247,342,53120,1,0,0:0:0:0:
326,250,53270,2,0,P|357:189|361:171,1,69.9999978637696,0|8,0:0|0:0,0:0:0:0:
329,115,53570,2,0,P|397:117|415:123,1,69.9999978637696,0|8,0:0|0:0,0:0:0:0:
247,118,53870,2,0,P|285:174|299:186,1,69.9999978637696,0|8,0:0|0:0,0:0:0:0:
75,151,54170,6,0,P|86:229|152:266,1,139.999995727539
147,134,54620,1,0,0:0:0:0:
197,322,54770,2,0,P|209:288|208:253,1,69.9999978637696
171,62,55070,1,0,0:0:0:0:
362,156,55220,1,0,0:0:0:0:
176,67,55370,5,8,0:0:0:0:
154,247,55520,1,0,0:0:0:0:
332,67,55670,5,8,0:0:0:0:
353,247,55820,1,0,0:0:0:0:
159,47,55970,5,8,0:0:0:0:
134,263,56120,1,0,0:0:0:0:
347,47,56270,5,8,0:0:0:0:
373,263,56420,1,0,0:0:0:0:
141,24,56570,5,8,0:0:0:0:
254,263,56720,1,0,0:0:0:0:
372,28,56870,1,8,0:0:0:0:
372,28,57170,6,0,P|373:104|343:167,1,100
367,251,57470,2,0,P|403:284|448:306,1,100
323,189,57770,6,2,P|242:212|144:289,1,200
76,371,58220,1,0,0:0:0:0:
49,262,58370,2,0,P|35:194|41:147,1,100
90,0,58670,2,0,P|130:29|159:69,1,100
252,19,58970,5,8,0:0:0:0:
182,180,59120,1,0,0:0:0:0:
346,114,59270,2,0,P|340:163|320:210,1,100
240,314,59570,1,0,0:0:0:0:
259,143,59720,1,0,0:0:0:0:
342,280,59870,2,0,P|373:331|417:372,1,100
488,235,60170,6,2,P|476:185|369:78,1,200
405,264,60620,1,0,0:0:0:0:
336,131,60770,1,0,0:0:0:0:
266,264,60920,1,0,0:0:0:0:
267,96,61070,2,0,P|224:62|69:50,1,200,2|8,0:0|0:0,0:0:0:0:
168,264,61520,1,0,0:0:0:0:
217,59,61670,5,0,0:0:0:0:
216,264,61820,1,0,0:0:0:0:
312,114,61970,2,0,P|330:66|361:27,1,100,0|8,0:0|0:0,0:0:0:0:
477,201,62270,2,0,P|452:261|411:312,1,125,0|8,0:0|0:0,0:0:0:0:
409,121,62570,6,0,B|389:165|353:205|353:205|314:167,1,125,0|8,0:0|0:0,0:0:0:0:
345,306,62870,1,0,0:0:0:0:
226,98,63020,1,0,0:0:0:0:
237,252,63170,1,0,0:0:0:0:
115,57,63320,1,0,0:0:0:0:
144,212,63470,6,2,B|182:258|210:274|210:274|244:245,1,125
148,343,63770,1,0,0:0:0:0:
288,203,63920,1,0,0:0:0:0:
240,353,64070,2,2,B|346:340|415:263|415:263|352:285,1,250
216,273,64520,1,8,0:0:0:0:
301,72,64670,5,0,0:0:0:0:
369,205,64820,1,0,0:0:0:0:
226,166,64970,2,0,L|95:126,1,125
322,248,65270,1,0,0:0:0:0:
234,63,65420,2,0,L|102:56,2,125
54,195,65870,2,0,L|160:261,1,125
114,134,66170,5,8,0:0:0:0:
280,219,66320,1,0,0:0:0:0:
178,63,66470,1,0,0:0:0:0:
224,295,66620,1,0,0:0:0:0:
263,113,66770,1,0,0:0:0:0:
133,250,66920,1,0,0:0:0:0:
304,291,67070,2,0,P|338:275|416:261,1,100
473,357,67370,2,2,P|485:308|470:155,1,200
339,182,67820,5,0,0:0:0:0:
203,251,67970,1,0,0:0:0:0:
337,89,68120,1,0,0:0:0:0:
335,271,68270,2,2,P|304:310|147:343,1,200
273,220,68720,1,0,0:0:0:0:
468,264,68870,6,0,P|444:219|404:188,1,100
214,123,69170,1,0,0:0:0:0:
308,249,69320,1,0,0:0:0:0:
122,177,69470,1,0,0:0:0:0:
111,31,69620,6,0,P|51:64|17:111,1,100,0|8,0:0|0:0,0:0:0:0:
157,97,69920,1,0,0:0:0:0:
32,187,70070,1,0,0:0:0:0:
200,157,70220,6,0,P|171:197|159:245,1,100,0|8,0:0|0:0,0:0:0:0:
276,173,70520,1,0,0:0:0:0:
223,334,70670,2,0,P|263:301|414:296,1,200,0|8,0:0|0:0,0:0:0:0:
329,134,71120,1,0,0:0:0:0:
201,170,71270,6,0,P|260:206|298:215,1,100,0|8,0:0|0:0,0:0:0:0:
406,94,71570,2,0,P|365:65|290:42,1,125,0|8,0:0|0:0,0:0:0:0:
79,248,71870,1,0,0:0:0:0:
169,361,72020,1,0,0:0:0:0:
189,244,72170,6,2,L|210:114,1,125
355,191,72470,2,2,L|342:51,1,125
127,131,72770,1,0,0:0:0:0:
269,4,72920,1,0,0:0:0:0:
200,191,73070,6,2,B|171:247|145:267|145:267|151:230,1,125
123,350,73370,1,0,0:0:0:0:
170,123,73520,1,0,0:0:0:0:
361,152,73670,6,2,B|309:70|197:31|197:31|248:107,1,250
344,230,74120,1,0,0:0:0:0:
370,54,74270,2,10,P|459:82|512:85,1,125
170,257,74570,6,0,L|158:127,1,125,8|0,0:0|0:0,0:0:0:0:
328,257,74870,2,0,L|343:126,1,125,8|0,0:0|0:0,0:0:0:0:
114,216,75170,6,0,L|103:85,1,125,8|0,0:0|0:0,0:0:0:0:
382,216,75470,2,0,L|393:85,1,125,8|0,0:0|0:0,0:0:0:0:
57,180,75770,6,0,L|46:51,1,125,8|0,0:0|0:0,0:0:0:0:
436,181,76070,2,0,L|447:52,1,125,8|0,0:0|0:0,0:0:0:0:
218,31,76370,5,0,0:0:0:0:
168,40,76445,1,0,0:0:0:0:
122,63,76520,1,0,0:0:0:0:
82,94,76595,1,0,0:0:0:0:
54,136,76670,2,0,P|36:208|45:280,1,125
7,381,76970,6,0,P|69:343|149:320,1,125,8|0,2:0|2:0,2:0:0:0:
217,255,77270,2,0,P|219:330|198:410,1,125,8|0,2:0|2:0,2:0:0:0:
325,127,77570,5,8,2:0:0:0:
306,336,77720,1,0,2:0:0:0:
401,40,77870,5,8,2:0:0:0:
377,269,78020,1,0,2:0:0:0:
499,40,78170,6,0,L|491:184,1,125,8|0,0:0|0:0,0:0:0:0:
481,374,78470,1,8,2:0:0:0:
344,93,78620,5,0,2:0:0:0:
328,374,78770,2,0,L|342:120,1,250,8|8,0:0|0:0,0:0:0:0:
199,331,79220,5,0,0:0:0:0:
199,331,79295,1,0,0:0:0:0:
199,331,79370,1,4,0:0:0:0:
136,113,79520,1,0,2:0:0:0:
82,364,79670,5,8,2:0:0:0:
24,157,79820,1,0,2:0:0:0:
162,364,79970,5,8,2:0:0:0:
136,113,80120,1,0,2:0:0:0:
246,319,80270,5,8,2:0:0:0:
246,28,80420,1,0,2:0:0:0:
332,365,80570,6,0,L|397:110,1,250,8|8,2:0|2:0,2:0:0:0:
487,361,81020,1,0,2:0:0:0:
339,47,81170,5,8,2:0:0:0:
181,362,81320,1,0,2:0:0:0:
243,5,81470,5,8,2:0:0:0:
64,362,81620,1,0,2:0:0:0:
160,3,81770,6,0,P|54:82|24:201,1,250,8|8,2:0|2:0,2:0:0:0:
23,382,82220,1,0,2:0:0:0:
105,340,82370,6,0,L|231:278,1,125,8|0,2:0|2:0,2:0:0:0:
224,3,82670,1,8,2:0:0:0:
83,354,82820,1,0,2:0:0:0:
192,108,82970,6,0,P|292:72|345:74,1,125,8|0,2:0|2:0,2:0:0:0:
91,175,83270,2,0,P|19:257|4:309,1,125,0|0,2:0|2:0,2:0:0:0:
143,140,83570,2,4,B|176:202|264:275|197:133|328:220|354:283,1,240,0|0,0:0|0:0,0:0:0:0:
499,268,84170,6,0,P|470:218|438:187,1,80
396,303,84470,1,0,0:0:0:0:
385,185,84620,2,0,L|373:85,1,80,2|0,0:0|0:0,0:0:0:0:
272,70,84920,1,0,0:0:0:0:
307,171,85070,6,0,P|303:217|275:260,1,80
217,167,85370,1,0,0:0:0:0:
215,281,85520,2,0,P|175:287|135:280,1,80
82,180,85820,2,0,P|45:215|36:253,2,80,2|0|0,0:0|0:0|0:0,0:0:0:0:
109,288,86270,6,0,P|83:319|47:339,1,80
165,352,86570,2,0,P|223:324|244:303,1,80,2|0,0:0|0:0,0:0:0:0:
299,248,86870,1,0,0:0:0:0:
392,321,87020,2,0,L|372:242,1,80,2|0,0:0|0:0,0:0:0:0:
354,152,87320,1,0,0:0:0:0:
244,175,87470,6,0,P|265:140|294:113,1,80
393,63,87770,2,0,P|426:95|444:131,2,80,2|0|0,0:0|0:0|0:0,0:0:0:0:
279,46,88220,2,0,L|182:30,1,80
274,123,88520,1,0,0:0:0:0:
167,133,88670,6,2,P|187:167|218:199,1,80
329,210,88970,2,0,P|298:235|260:253,1,80
154,277,89270,1,0,0:0:0:0:
104,175,89420,2,0,L|64:262,2,80,2|0|0,0:0|0:0|0:0,0:0:0:0:
191,103,89870,6,0,P|232:71|273:60,1,80
304,168,90170,2,0,P|323:133|336:95,1,80
381,200,90470,1,0,0:0:0:0:
409,96,90620,2,0,P|417:55|416:15,2,80,2|0|0,0:0|0:0|0:0,0:0:0:0:
483,182,91070,6,0,B|469:224|433:247,1,80
479,347,91370,2,0,B|416:338|380:313,1,80
309,274,91670,1,0,0:0:0:0:
254,369,91820,2,2,B|234:266,1,80
223,189,92120,1,0,0:0:0:0:
93,237,92270,6,8,B|125:193|125:193|167:208,1,80,8|0,0:0|0:0,0:0:0:0:
268,233,92570,2,0,B|295:216|295:216|304:159,2,80,8|0|8,0:0|0:0|0:0,0:0:0:0:
159,293,93020,1,0,0:0:0:0:
403,370,93170,5,8,0:0:0:0:
318,84,93320,1,0,0:0:0:0:
232,370,93470,1,8,0:0:0:0:
401,142,93620,1,0,0:0:0:0:
159,293,93770,1,12,0:0:0:0:
