osu file format v14

[General]
AudioFilename: audio.mp3
AudioLeadIn: 0
PreviewTime: 58165
Countdown: 0
SampleSet: Soft
StackLeniency: 0.7
Mode: 0
LetterboxInBreaks: 0
WidescreenStoryboard: 0

[Editor]
DistanceSpacing: 1.6
BeatDivisor: 4
GridSize: 4
TimelineZoom: 1.6

[Metadata]
Title:Freesia
TitleUnicode:Freesia
Artist:(K)NoW_NAME
ArtistUnicode:(K)NoW_NAME
Creator:Vert
Version:Zweib's Hard
Source:サクラクエスト
Tags:Sakura Quest P.A.WORKS Kashima Zweib
BeatmapID:1267599
BeatmapSetID:599556

[Difficulty]
HPDrainRate:5
CircleSize:3.8
OverallDifficulty:6
ApproachRate:7.8
SliderMultiplier:2
SliderTickRate:1

[Events]
//Background and Video events
0,0,"1.JPG",0,0
//Break Periods
2,79698,81326
//Storyboard Layer 0 (Background)
//Storyboard Layer 1 (Fail)
//Storyboard Layer 2 (Pass)
//Storyboard Layer 3 (Foreground)
//Storyboard Sound Samples

[TimingPoints]
4832,666.666666666667,4,2,24,40,1,0
14832,-133.333333333333,4,2,24,40,0,0
15498,-100,4,2,24,60,0,0
36832,-83.3333333333333,4,2,24,70,0,0
44832,-100,4,2,24,70,0,0
47498,-83.3333333333333,4,2,24,70,0,0
55498,-100,4,2,24,70,0,0
58165,-83.3333333333333,4,2,24,75,0,1
79498,-100,4,2,24,75,0,0
87498,-133.333333333333,4,2,24,75,0,0

[Colours]
Combo1 : 255,0,128
Combo2 : 255,128,128
Combo3 : 255,128,255

[HitObjects]
112,84,4832,6,0,P|48:76|40:148,1,150,0|0,0:0|0:0,0:0:0:0:
138,341,5832,2,0,B|140:264|124:188,2,150,0|0|8,0:0|0:0|0:0,0:0:0:0:
400,84,7498,6,0,P|464:76|472:148,1,150,0|0,0:0|0:0,0:0:0:0:
374,341,8498,2,0,B|372:264|388:188,2,150,0|0|8,0:0|0:0|0:0,0:0:0:0:
196,120,10165,6,0,P|260:160|316:100,1,150,0|0,0:0|0:0,0:0:0:0:
69,35,11165,2,0,P|79:109|92:184,2,150,0|0|8,0:0|0:0|0:0,0:0:0:0:
316,264,12832,6,0,P|252:224|196:284,1,150,0|0,0:0|0:0,0:0:0:0:
442,348,13832,2,0,P|432:274|420:200,2,150,0|0|8,0:0|0:0|0:0,0:0:0:0:
456,84,15498,6,0,P|392:172|340:144,1,150,8|0,0:1|0:0,0:0:0:0:
280,128,16165,2,0,P|224:116|164:120,1,100,8|0,0:0|0:0,0:0:0:0:
284,268,16832,1,0,0:0:0:0:
284,268,16998,2,0,P|232:280|184:320,1,100,0|0,0:0|0:0,0:0:0:0:
100,260,17498,2,0,P|52:244|24:192,1,100,8|0,0:0|0:0,0:0:0:0:
180,192,18165,6,0,L|184:28,1,150,8|0,0:1|0:0,0:0:0:0:
183,42,18832,1,8,0:0:0:0:
324,116,19165,1,0,0:0:0:0:
472,56,19498,1,0,0:0:0:0:
472,56,19665,2,0,L|484:200,1,100,0|0,0:0|0:0,0:0:0:0:
416,232,20165,2,0,L|428:348,2,100,10|0|8,0:0|0:0|0:1,0:0:0:0:
188,256,21165,6,0,L|180:320,1,50,0|0,0:0|0:0,0:0:0:0:
324,244,21498,2,0,L|312:184,1,50,8|0,0:0|0:0,0:0:0:0:
224,160,21832,1,0,0:0:0:0:
56,244,22165,1,0,0:0:0:0:
56,244,22332,2,0,L|44:120,1,100,0|0,0:0|0:0,0:0:0:0:
128,40,22832,2,0,L|140:152,1,100,8|0,0:0|0:0,0:0:0:0:
252,296,23498,5,8,0:1:0:0:
324,196,23832,2,0,L|248:184,1,50,0|0,0:0|0:0,0:0:0:0:
412,268,24165,2,0,L|458:249,1,50,8|0,0:0|0:0,0:0:0:0:
476,156,24498,1,0,0:0:0:0:
380,76,24832,2,0,L|360:8,1,50,0|0,0:0|0:0,0:0:0:0:
276,64,25165,2,0,L|268:124,1,50,0|0,0:0|0:0,0:0:0:0:
176,40,25498,2,0,P|126:41|86:70,1,100,10|0,0:0|0:0,0:0:0:0:
36,288,26165,6,0,P|24:232|-8:112,1,150,8|0,0:1|0:0,0:0:0:0:
108,172,26832,2,0,P|152:192|212:216,1,100,8|0,0:0|0:0,0:0:0:0:
404,172,27498,1,0,0:0:0:0:
404,172,27665,2,0,P|360:192|300:216,1,100,0|0,0:0|0:0,0:0:0:0:
256,312,28165,1,8,0:0:0:0:
256,312,28498,1,0,0:0:0:0:
476,288,28832,6,0,P|488:232|520:112,1,150,8|0,0:1|0:0,0:0:0:0:
511,142,29499,1,8,0:0:0:0:
420,32,29832,1,0,0:0:0:0:
380,172,30165,1,0,0:0:0:0:
380,172,30332,2,0,P|320:164|272:160,1,100,0|0,0:0|0:0,0:0:0:0:
204,256,30832,2,0,P|244:252|320:244,2,100,10|0|8,0:0|0:0|0:1,0:0:0:0:
16,172,31832,6,0,L|8:236,1,50,0|0,0:0|0:0,0:0:0:0:
124,160,32165,2,0,L|112:100,1,50,8|0,0:0|0:0,0:0:0:0:
44,40,32499,1,0,0:0:0:0:
232,72,32832,1,0,0:0:0:0:
232,72,32999,2,0,L|344:52,1,100,0|0,0:0|0:0,0:0:0:0:
408,144,33499,2,0,L|300:164,1,100,8|0,0:0|0:0,0:0:0:0:
56,220,34165,6,0,L|40:156,1,50,8|0,0:1|0:0,0:0:0:0:
164,240,34499,2,0,L|144:164,1,50,0|0,0:0|0:0,0:0:0:0:
258,280,34832,2,0,L|243:327,1,50,8|0,0:0|0:0,0:0:0:0:
368,256,35165,2,0,L|351:303,1,50,0|0,0:0|0:0,0:0:0:0:
320,384,35498,1,0,0:0:0:0:
480,308,35832,2,0,L|468:260,1,50,0|0,0:0|0:0,0:0:0:0:
484,172,36165,2,0,P|476:80|412:88,1,150,10|0,0:0|0:0,0:0:0:0:
260,108,36832,6,0,P|180:104|116:100,1,119.999996337891,8|0,0:1|0:0,0:0:0:0:
308,8,37332,1,0,0:0:0:0:
356,108,37498,2,0,L|348:196,1,59.9999981689454,8|0,0:0|0:0,0:0:0:0:
232,256,37832,2,0,L|224:196,1,59.9999981689454,0|0,0:0|0:0,0:0:0:0:
284,352,38165,1,0,0:0:0:0:
284,352,38498,1,8,0:1:0:0:
44,304,38832,2,0,P|32:268|24:240,1,59.9999981689454,8|0,0:0|0:0,0:0:0:0:
160,328,39165,2,0,P|152:352|136:396,1,59.9999981689454,0|0,0:0|0:0,0:0:0:0:
256,252,39498,6,0,P|296:196|264:140,1,119.999996337891,8|0,0:1|0:0,0:0:0:0:
364,24,39998,2,0,P|372:84|436:132,1,119.999996337891,0|0,0:0|0:0,0:0:0:0:
232,32,40498,2,0,P|184:24|108:48,2,119.999996337891,0|0|8,0:0|0:0|0:1,0:0:0:0:
468,100,41498,2,0,P|498:82|512:59,1,59.9999981689454,10|0,0:0|0:0,0:0:0:0:
416,192,41832,2,0,P|416:212|428:256,1,59.9999981689454,0|0,0:0|0:0,0:0:0:0:
304,160,42165,6,0,P|246:170|156:176,1,119.999996337891,8|0,0:1|0:0,0:0:0:0:
80,200,42665,1,0,0:0:0:0:
4,88,42832,2,0,P|76:88|144:96,1,119.999996337891,8|0,0:0|0:0,0:0:0:0:
240,72,43332,1,0,0:0:0:0:
185,175,43498,2,0,L|174:252,1,59.9999981689454,0|0,0:0|0:0,0:0:0:0:
96,288,43832,2,0,P|68:292|16:300,1,59.9999981689454,8|0,0:1|0:0,0:0:0:0:
224,332,44165,2,0,P|280:336|376:344,1,119.999996337891,8|0,0:0|0:0,0:0:0:0:
428,276,44665,1,0,0:0:0:0:
300,236,44832,6,0,P|280:184|284:124,1,100,8|0,0:1|0:1,0:0:0:0:
328,56,45332,1,0,0:0:0:0:
172,139,45498,2,0,L|112:139|64:139,1,100,2|0,0:0|0:0,0:0:0:0:
233,67,45998,1,0,0:0:0:0:
212,220,46165,2,0,P|208:248|192:280,1,50,0|0,0:0|0:0,0:0:0:0:
336,152,46498,2,0,P|356:156|404:192,1,50,0|0,0:0|0:0,0:0:0:0:
332,324,46832,2,0,P|284:266|328:260,1,150,10|0,0:0|0:0,0:0:0:0:
480,264,47498,6,0,L|504:381,1,119.999996337891,8|0,0:1|0:0,0:0:0:0:
512,168,47998,1,0,0:0:0:0:
392,280,48165,2,0,L|304:288,1,59.9999981689454,8|0,0:0|0:0,0:0:0:0:
408,124,48498,2,0,P|412:152|408:192,1,59.9999981689454,0|0,0:0|0:0,0:0:0:0:
248,232,48831,1,0,0:0:0:0:
248,232,49164,1,8,0:1:0:0:
60,116,49498,2,0,P|46:84|40:52,1,59.9999981689454,10|0,0:0|0:0,0:0:0:0:
24,216,49831,2,0,P|16:240|0:284,1,59.9999981689454,0|0,0:0|0:0,0:0:0:0:
168,140,50165,6,0,P|192:88|196:16,1,119.999996337891,8|0,0:1|0:0,0:0:0:0:
124,240,50665,2,0,P|144:296|200:292,1,119.999996337891,0|0,0:0|0:0,0:0:0:0:
296,320,51165,1,0,0:0:0:0:
392,160,51498,2,0,L|524:132,1,119.999996337891,0|8,0:0|0:3,0:0:0:0:
464,304,52165,2,0,L|476:372,1,59.9999981689454,10|0,0:0|0:0,0:0:0:0:
352,272,52498,2,0,L|364:336,1,59.9999981689454
252,356,52831,6,0,P|192:332|104:332,1,119.999996337891,8|0,0:1|0:0,0:0:0:0:
20,348,53331,1,0,0:0:0:0:
0,240,53498,2,0,P|71:251|132:204,1,119.999996337891,8|0,0:0|0:0,0:0:0:0:
151,104,53998,1,0,0:0:0:0:
224,196,54165,2,0,L|208:276,1,59.9999981689454
376,216,54498,2,0,L|296:228,1,59.9999981689454,8|0,0:1|0:0,0:0:0:0:
352,112,54831,2,0,P|412:120|488:128,1,119.999996337891,8|0,0:0|0:0,0:0:0:0:
280,32,55331,1,0,0:0:0:0:
184,96,55498,6,0,P|144:64|132:16,1,100,8|0,0:1|0:0,0:0:0:0:
249,211,55998,5,0,0:0:0:0:
156,276,56164,2,0,L|129:179,1,100,8|0,0:0|0:0,0:0:0:0:
264,335,56665,1,0,0:0:0:0:
347,253,56832,2,0,L|471:235,1,100
160,320,57498,2,0,L|-4:308,1,150,0|0,1:0|0:0,0:0:0:0:
124,184,58165,5,4,1:0:0:0:
124,184,58498,2,0,L|116:112,1,59.9999981689454,0|2,0:0|0:0,0:0:0:0:
224,247,58832,1,0,1:0:0:0:
275,143,58998,2,0,L|287:3,1,119.999996337891
370,179,59498,2,0,P|382:235|398:307,1,119.999996337891,2|0,1:2|1:0,0:0:0:0:
333,384,59998,1,0,1:0:0:0:
497,277,60165,2,0,P|515:221|505:137,1,119.999996337891,8|2,1:0|0:2,0:0:0:0:
387,67,60665,6,0,P|383:43|387:3,2,59.9999981689454,0|2|0,0:0|1:2|0:0,0:0:0:0:
224,140,61165,2,0,L|152:144,1,59.9999981689454,0|2,0:0|0:0,0:0:0:0:
360,168,61498,2,0,P|412:184|376:232,1,119.999996337891,0|0,1:0|0:0,0:0:0:0:
288,228,61998,1,0,0:0:0:0:
204,284,62165,2,0,L|184:348,1,59.9999981689454,2|8,1:2|1:0,0:0:0:0:
340,366,62498,2,0,P|304:342|280:334,1,59.9999981689454,0|0,1:0|0:0,0:0:0:0:
100,384,62832,2,0,P|60:332|80:277,2,119.999996337891,8|0|2,1:0|0:0|1:2,0:0:0:0:
155,115,63832,6,0,L|96:110,1,59.9999981689454,0|2,0:0|0:0,0:0:0:0:
260,76,64165,2,0,P|260:168|240:196,1,119.999996337891,8|2,1:0|0:0,0:0:0:0:
135,226,64665,1,0,0:0:0:0:
216,288,64832,1,2,1:2:0:0:
109,325,64998,2,0,P|45:301|29:225,1,119.999996337891,8|0,1:0|0:0,0:0:0:0:
216,288,65498,2,0,P|284:300|308:364,1,119.999996337891,0|0,1:0|0:0,0:0:0:0:
404,316,65998,1,2,0:0:0:0:
404,212,66165,6,0,L|392:128,1,59.9999981689454,2|0,1:2|1:2,0:0:0:0:
512,120,66498,2,0,L|496:180,1,59.9999981689454,0|0,0:0|0:0,0:0:0:0:
284,112,66832,2,0,P|232:64|172:52,1,119.999996337891,0|2,1:0|0:0,0:0:0:0:
336,40,67332,1,0,1:0:0:0:
192,144,67498,2,0,L|188:212,1,59.9999981689454,0|2,0:0|1:2,0:0:0:0:
88,144,67832,2,0,P|65:108|64:60,1,59.9999981689454,8|0,1:0|0:0,0:0:0:0:
77,255,68165,2,0,L|69:315,1,59.9999981689454,8|0,1:0|1:0,0:0:0:0:
230,270,68498,1,8,0:3:0:0:
169,370,68665,1,8,0:3:0:0:
327,342,68832,6,0,L|347:214,1,119.999996337891,4|0,1:0|0:0,0:0:0:0:
390,100,69332,1,2,0:0:0:0:
259,37,69498,2,0,L|279:157,1,119.999996337891,8|2,1:0|0:0,0:0:0:0:
236,276,69998,1,0,0:0:0:0:
94,212,70165,2,0,P|198:191|217:223,1,119.999996337891,2|0,1:2|1:0,0:0:0:0:
416,120,70832,2,0,P|432:88|432:48,1,59.9999981689454,8|0,1:0|1:0,0:0:0:0:
336,196,71165,2,0,P|340:224|344:268,1,59.9999981689454,0|8,1:0|1:0,0:0:0:0:
257,102,71498,6,0,P|201:110|165:50,1,119.999996337891,2|0,1:2|0:0,0:0:0:0:
349,75,71998,1,2,0:0:0:0:
228,208,72164,2,0,P|232:272|236:340,1,119.999996337891,8|2,1:0|0:0,0:0:0:0:
136,184,72664,1,0,0:0:0:0:
320,220,72831,2,0,P|384:184|432:220,1,119.999996337891,2|0,1:2|1:0,0:0:0:0:
512,214,73331,1,0,0:0:0:0:
408,304,73498,2,0,P|400:332|394:362,1,59.9999981689454,8|0,1:0|0:0,0:0:0:0:
240,312,73831,2,0,P|228:288|216:252,1,59.9999981689454
303,103,74165,5,2,1:2:0:0:
44,167,74498,1,0,0:0:0:0:
216,30,74832,2,0,L|218:89,1,59.9999981689454,8|0,1:0|0:0,0:0:0:0:
138,230,75165,2,0,L|135:170,1,59.9999981689454,2|0,0:0|0:0,0:0:0:0:
375,174,75498,2,0,P|295:202|243:178,1,119.999996337891,2|0,1:2|1:0,0:0:0:0:
194,108,75998,1,0,0:0:0:0:
224,272,76165,2,0,P|216:304|200:340,1,59.9999981689454,8|0,1:0|0:0,0:0:0:0:
68,196,76498,2,0,P|76:224|92:252,1,59.9999981689454,2|0,0:0|0:0,0:0:0:0:
88,105,76832,5,2,1:2:0:0:
64,331,77165,1,2,1:2:0:0:
275,240,77498,2,0,P|241:229|201:229,1,59.9999981689454,8|0,1:0|0:0,0:0:0:0:
412,296,77832,2,0,P|452:296|492:288,1,59.9999981689454,2|0,0:0|0:0,0:0:0:0:
288,352,78165,2,0,P|220:356|156:364,1,119.999996337891,0|2,1:0|1:2,0:0:0:0:
51,261,78665,1,0,0:0:0:0:
63,124,78832,2,0,P|154:92|123:183,1,239.999992675781,8|4,1:0|1:0,0:0:0:0:
124,128,82165,6,0,B|52:140|52:140|76:168,1,100,0|0,0:0|0:0,0:0:0:0:
168,216,82665,1,0,0:0:0:0:
400,140,83165,6,0,B|472:128|472:128|448:100,1,100,0|0,0:0|0:0,0:0:0:0:
356,52,83665,1,0,0:0:0:0:
252,72,83832,2,0,P|152:60|188:168,1,250,0|0,0:0|0:0,0:0:0:0:
272,232,84832,6,0,P|272:264|264:288,1,50,0|0,0:0|0:0,0:0:0:0:
364,168,85165,2,0,P|372:196|376:220,1,50,0|0,0:0|0:0,0:0:0:0:
104,152,85832,6,0,P|104:120|112:96,1,50,0|0,0:0|0:0,0:0:0:0:
12,216,86165,2,0,P|4:188|0:164,1,50,0|0,0:0|0:0,0:0:0:0:
32,52,86498,2,0,B|164:96|165:-2|299:51,1,250,0|0,0:0|0:0,0:0:0:0:
348,104,87498,6,0,P|356:128|360:152,3,37.5000014305115,0|0|0|0,0:0|0:0|0:0|0:0,0:0:0:0:
272,180,88498,2,0,P|267:203|268:232,3,37.5000014305115,0|0|0|0,0:0|0:0|0:0|0:0,0:0:0:0:
