osu file format v14

[General]
AudioFilename: audio.mp3
AudioLeadIn: 0
PreviewTime: 58165
Countdown: 0
SampleSet: Soft
StackLeniency: 0.7
Mode: 0
LetterboxInBreaks: 0
WidescreenStoryboard: 0

[Editor]
DistanceSpacing: 1
BeatDivisor: 4
GridSize: 4
TimelineZoom: 1

[Metadata]
Title:Freesia
TitleUnicode:Freesia
Artist:(K)NoW_NAME
ArtistUnicode:(K)NoW_NAME
Creator:Vert
Version:Normal
Source:サクラクエスト
Tags:Sakura Quest P.A.WORKS Kashima Zweib
BeatmapID:1269810
BeatmapSetID:599556

[Difficulty]
HPDrainRate:3
CircleSize:3.3
OverallDifficulty:4
ApproachRate:4.5
SliderMultiplier:1.6
SliderTickRate:1

[Events]
//Background and Video events
0,0,"1.JPG",0,0
//Break Periods
//Storyboard Layer 0 (Background)
//Storyboard Layer 1 (Fail)
//Storyboard Layer 2 (Pass)
//Storyboard Layer 3 (Foreground)
//Storyboard Sound Samples

[TimingPoints]
4832,666.666666666667,4,2,24,40,1,0
15498,-90.9090909090909,4,2,24,50,0,0
36832,-90.9090909090909,4,2,24,65,0,0
44832,-90.9090909090909,4,2,24,40,0,0
47498,-90.9090909090909,4,2,24,70,0,0
58165,-90.9090909090909,4,2,24,75,0,1
79498,-90.9090909090909,4,2,24,75,0,0

[Colours]
Combo1 : 255,0,255
Combo2 : 255,128,128
Combo3 : 255,128,255
Combo4 : 255,0,128

[HitObjects]
100,204,4832,6,0,P|168:232|252:228,1,120,0|0,0:0|0:0,0:0:0:0:
324,188,5832,2,0,P|336:116|320:60,1,120
216,24,6832,1,8,0:0:0:0:
80,108,7498,6,0,P|72:192|88:248,1,120
168,308,8498,2,0,P|256:296|316:316,1,120
404,296,9498,1,8,0:0:0:0:
272,208,10165,6,0,P|260:132|280:80,1,120
376,156,11165,2,0,P|433:172|490:157,1,120
436,52,12165,1,8,0:0:0:0:
280,16,12832,6,0,P|271:98|292:154,1,120
388,192,13832,2,0,P|436:176|528:208,1,120
448,296,14832,1,8,0:0:0:0:
448,296,15498,6,0,P|388:308|348:297,1,88.000002685547,8|0,0:1|0:0,0:0:0:0:
276,288,16165,2,0,P|235:274|192:280,1,88.000002685547,8|0,0:0|0:0,0:0:0:0:
120,328,16832,2,0,P|104:270|119:230,1,88.000002685547
148,164,17498,1,8,0:0:0:0:
128,76,17832,1,0,0:0:0:0:
218,63,18165,6,0,P|296:70|334:55,1,88.000002685547,8|0,0:1|0:0,0:0:0:0:
380,24,18832,2,0,P|391:83|365:133,1,88.000002685547,8|0,0:0|0:0,0:0:0:0:
332,180,19498,1,0,0:0:0:0:
364,262,19832,1,0,0:0:0:0:
333,344,20165,2,0,P|271:351|211:329,1,88.000002685547,10|0,0:0|0:0,0:0:0:0:
192,276,20832,6,0,P|170:193|203:93,1,176.000005371094,8|8,0:1|0:0,0:0:0:0:
273,70,21832,1,0,0:0:0:0:
352,109,22165,2,0,P|378:192|359:277,1,176.000005371094,0|8,0:0|0:0,0:0:0:0:
275,305,23165,1,0,0:0:0:0:
192,276,23498,5,8,0:1:0:0:
253,213,23832,2,0,P|226:170|214:121,1,88.000002685547,0|8,0:0|0:0,0:0:0:0:
129,152,24498,2,0,P|126:195|114:237,1,88.000002685547,0|0,0:0|0:0,0:0:0:0:
192,276,25165,1,0,0:0:0:0:
276,304,25498,2,0,P|328:288|378:251,1,88.000002685547,10|0,0:0|0:0,0:0:0:0:
352,182,26165,6,0,P|360:123|342:63,1,88.000002685547,8|0,0:1|0:0,0:0:0:0:
317,15,26832,1,8,0:0:0:0:
241,59,27165,2,0,P|151:70|57:53,1,176.000005371094,0|0,0:0|0:0,0:0:0:0:
32,137,28165,2,0,P|42:189|34:234,1,88.000002685547,8|0,0:0|0:0,0:0:0:0:
84,296,28832,6,0,P|171:310|264:296,1,176.000005371094,8|8,0:1|0:0,0:0:0:0:
343,265,29832,2,0,P|345:200|334:165,1,88.000002685547,0|0,0:0|0:0,0:0:0:0:
279,113,30498,1,0,0:0:0:0:
211,169,30832,2,0,P|164:176|100:148,1,88.000002685547,10|0,0:0|0:0,0:0:0:0:
172,92,31498,6,0,P|204:32|308:8,1,176.000005371094,8|8,0:1|0:0,0:0:0:0:
376,60,32498,1,0,0:0:0:0:
386,150,32832,2,0,L|194:170,1,176.000005371094,0|8,0:0|0:0,0:0:0:0:
131,113,33832,1,0,0:0:0:0:
149,26,34165,6,0,P|214:80|218:96,1,88.000002685547,8|0,0:1|0:0,0:0:0:0:
210,168,34832,2,0,P|200:225|220:284,1,88.000002685547,8|0,0:0|0:0,0:0:0:0:
460,328,36165,2,0,L|440:224,1,88.000002685547,10|0,0:0|0:0,0:0:0:0:
360,272,36832,6,0,P|274:288|248:288,1,88.000002685547,8|0,0:1|0:0,0:0:0:0:
221,217,37498,2,0,P|250:134|263:112,1,88.000002685547,8|0,0:0|0:0,0:0:0:0:
338,127,38165,2,0,P|394:193|407:215,2,88.000002685547,0|8|8,0:0|0:1|0:0,0:0:0:0:
288,54,39165,1,0,0:0:0:0:
216,104,39498,6,0,P|202:177|222:246,2,132.00000402832,8|0|0,0:1|0:0|0:0,0:0:0:0:
296,140,40832,2,0,P|339:144|383:139,1,88.000002685547,0|8,0:0|0:1,0:0:0:0:
416,56,41498,1,10,0:0:0:0:
476,124,41832,1,0,0:0:0:0:
472,212,42165,6,0,P|480:263|467:324,1,88.000002685547,8|0,0:1|0:0,0:0:0:0:
392,260,42832,2,0,P|344:244|308:208,1,88.000002685547,8|0,0:0|0:0,0:0:0:0:
390,170,43498,2,0,P|424:136|480:124,2,88.000002685547,0|8|8,0:0|0:1|0:0,0:0:0:0:
392,260,44498,1,0,0:0:0:0:
324,316,44832,6,0,B|279:325|279:325|217:309,1,88.000002685547,8|0,0:1|0:1,0:0:0:0:
284,237,45498,2,0,B|298:193|298:193|343:147,1,88.000002685547,2|0,0:0|0:0,0:0:0:0:
375,238,46165,2,0,B|405:272|405:272|422:334,2,88.000002685547,0|0|10,0:0|0:0|0:0,0:0:0:0:
284,237,47165,1,0,0:0:0:0:
204,276,47498,6,0,P|164:207|188:101,1,176.000005371094,8|8,0:1|0:0,0:0:0:0:
152,32,48498,1,0,0:0:0:0:
240,52,48832,2,0,P|308:62|428:48,1,176.000005371094,0|10,0:0|0:0,0:0:0:0:
480,112,49832,1,0,0:0:0:0:
400,148,50165,6,0,P|364:214|390:281,2,132.00000402832,8|0|0,0:1|0:0|0:0,0:0:0:0:
452,216,51498,2,0,P|464:264|452:320,1,88.000002685547,0|8,0:0|0:3,0:0:0:0:
388,352,52165,2,0,L|292:344,1,88.000002685547,10|0,0:0|0:0,0:0:0:0:
224,304,52832,6,0,P|130:319|47:287,2,176.000005371094,8|8|0,0:1|0:0|0:0,0:0:0:0:
296,256,54498,1,8,0:1:0:0:
220,208,54832,2,0,L|120:216,1,88.000002685547,8|0,0:0|0:0,0:0:0:0:
136,128,55498,6,0,B|232:120|232:120|316:68,2,176.000005371094,8|8|0,0:1|0:0|1:0,0:0:0:0:
72,68,57165,1,0,3:0:0:0:
56,156,57498,2,0,B|64:216,1,44.0000013427735,0|0,1:0|0:0,0:0:0:0:
72,244,57832,2,0,L|80:296,1,44.0000013427735,8|0,0:1|0:0,0:0:0:0:
120,304,58165,6,0,P|216:316|288:279,1,176.000005371094,4|0,1:0|1:0,0:0:0:0:
344,216,59165,1,0,0:0:0:0:
314,134,59498,2,0,L|308:72,2,44.0000013427735,2|0|0,1:2|0:0|1:0,0:0:0:0:
228,116,60165,1,8,1:0:0:0:
154,68,60498,1,2,0:2:0:0:
108,144,60832,6,0,P|101:187|101:231,1,88.000002685547,2|0,1:2|0:0,0:0:0:0:
164,296,61498,2,0,P|80:316|9:256,1,176.000005371094,0|2,1:0|1:2,0:0:0:0:
20,176,62498,1,0,1:0:0:0:
108,144,62832,2,0,P|161:134|216:149,1,88.000002685547,8|0,1:0|0:0,0:0:0:0:
240,216,63498,6,0,P|226:122|250:26,1,176.000005371094,2|8,1:2|1:0,0:0:0:0:
328,20,64498,1,2,0:0:0:0:
403,66,64832,2,0,L|463:62,2,44.0000013427735,2|0|0,1:2|0:0|1:0,0:0:0:0:
340,128,65498,2,0,L|325:231,1,88.000002685547,0|0,1:0|0:0,0:0:0:0:
400,268,66165,6,0,L|415:376,2,88.000002685547,2|0|0,1:2|0:0|1:0,0:0:0:0:
328,216,67165,1,2,0:0:0:0:
252,260,67498,2,0,B|205:269|151:255,1,88.000002685547,0|8,0:0|1:0,0:0:0:0:
92,208,68165,2,0,P|80:266|102:324,1,88.000002685547,8|8,1:0|0:3,0:0:0:0:
156,344,68832,6,0,P|256:352|361:339,2,176.000005371094,4|8|2,1:0|1:0|1:2,0:0:0:0:
104,276,70498,1,0,1:0:0:0:
160,208,70832,2,0,L|228:212,1,44.0000013427735,8|0,1:0|0:0,0:0:0:0:
246,197,71165,2,0,L|316:204,1,44.0000013427735,0|0,1:0|0:0,0:0:0:0:
332,192,71498,6,0,P|339:144|331:79,1,88.000002685547,2|0,1:2|0:0,0:0:0:0:
380,28,72165,2,0,B|351:12|303:24|303:24|255:36|207:20,1,176.000005371094,8|2,1:0|1:2,0:0:0:0:
120,20,73165,1,0,1:0:0:0:
140,104,73498,2,0,P|132:146|139:193,1,88.000002685547,8|0,1:0|0:0,0:0:0:0:
220,152,74165,6,0,P|286:139|399:158,1,176.000005371094,2|8,1:2|1:0,0:0:0:0:
452,220,75165,1,2,0:0:0:0:
368,240,75498,2,0,L|300:232,1,44.0000013427735,2|0,1:2|0:0,0:0:0:0:
280,236,75832,2,0,L|204:252,1,44.0000013427735,8|0,0:1|0:0,0:0:0:0:
196,264,76165,2,0,P|105:270|13:254,1,176.000005371094,8|2,1:0|1:2,0:0:0:0:
0,172,77165,5,2,1:2:0:0:
96,160,77498,2,0,P|142:166|207:158,1,88.000002685547,8|2,1:0|0:0,0:0:0:0:
268,136,78165,2,0,L|260:224,1,88.000002685547,0|2,1:0|1:2,0:0:0:0:
248,312,78832,1,8,1:0:0:0:
328,276,79165,2,0,L|406:267,1,44.0000013427735,8|8,1:0|1:0,0:0:0:0:
416,264,79498,5,4,1:0:0:0:
