osu file format v14

[General]
AudioFilename: audio.mp3
AudioLeadIn: 0
PreviewTime: 58165
Countdown: 0
SampleSet: Soft
StackLeniency: 0.7
Mode: 0
LetterboxInBreaks: 0
WidescreenStoryboard: 0

[Editor]
DistanceSpacing: 1.4
BeatDivisor: 8
GridSize: 4
TimelineZoom: 2.599999

[Metadata]
Title:Freesia
TitleUnicode:Freesia
Artist:(K)NoW_NAME
ArtistUnicode:(K)NoW_NAME
Creator:Vert
Version:Kashima's Insane
Source:サクラクエスト
Tags:Sakura Quest P.A.WORKS Kashima Zweib
BeatmapID:1267534
BeatmapSetID:599556

[Difficulty]
HPDrainRate:5.5
CircleSize:4
OverallDifficulty:7.5
ApproachRate:9
SliderMultiplier:2.4
SliderTickRate:1

[Events]
//Background and Video events
0,0,"1.JPG",0,0
//Break Periods
//Storyboard Layer 0 (Background)
//Storyboard Layer 1 (Fail)
//Storyboard Layer 2 (Pass)
//Storyboard Layer 3 (Foreground)
//Storyboard Sound Samples

[TimingPoints]
4832,666.666666666667,4,2,24,40,1,0
14832,-133.333333333333,4,2,24,40,0,0
15498,-100,4,2,24,60,0,0
36832,-83.3333333333333,4,2,24,70,0,0
44832,-100,4,2,24,70,0,0
47498,-83.3333333333333,4,2,24,70,0,0
55498,-100,4,2,24,70,0,0
58165,-83.3333333333333,4,2,24,75,0,1
79498,-83.3333333333333,4,2,24,75,0,0

[Colours]
Combo1 : 255,0,128
Combo2 : 255,128,128
Combo3 : 255,128,255

[HitObjects]
153,117,4832,6,0,L|241:137,1,60
292,151,5165,2,0,L|359:168,1,60
218,256,5832,2,0,L|306:276,1,60
357,290,6165,2,0,L|424:307,1,60
349,164,6498,2,0,L|395:175,1,30
338,38,6832,1,8,0:0:0:0:
181,92,7498,6,0,L|238:74,1,60
43,137,7832,2,0,L|101:120,1,60
251,202,8498,2,0,L|308:184,1,60
113,247,8832,2,0,L|170:229,1,60
308,184,9165,2,0,L|336:175,2,30
482,124,9498,1,8,0:0:0:0:
308,184,10165,6,0,L|296:245,1,60
469,128,10498,2,0,L|457:189,1,60
206,184,11165,2,0,L|218:245,1,60
45,128,11498,2,0,L|57:189,1,60
217,244,11832,2,0,L|227:300,1,30
423,171,12165,1,8,0:0:0:0:
423,171,12832,6,0,L|500:137,1,60
272,43,13165,2,0,L|349:9,1,60
91,171,13832,2,0,L|14:137,1,60
242,43,14165,2,0,L|165:9,1,60
54,123,14498,2,0,P|37:143|30:173,1,30
36,219,14665,2,0,P|43:241|62:261,1,30
107,184,14832,2,0,B|160:202|194:168|241:186,1,135.000005149841,8|0,0:0|0:0,0:0:0:0:
132,0,15498,6,0,P|152:57|137:125,1,120,8|0,0:1|0:0,0:0:0:0:
46,246,15998,1,0,0:0:0:0:
4,75,16165,2,0,L|68:64,1,60,8|0,0:0|0:0,0:0:0:0:
142,114,16498,2,0,P|171:168|149:244,1,120
14,198,16998,2,0,L|75:184,1,60
231,90,17332,1,0,0:0:0:0:
357,146,17498,2,0,P|419:157|484:144,1,120,8|0,0:0|0:0,0:0:0:0:
268,172,18165,6,0,P|258:248|282:308,1,120,8|0,0:1|0:0,0:0:0:0:
377,225,18665,1,0,0:0:0:0:
332,77,18832,2,0,P|271:59|206:76,1,120,8|0,0:0|0:0,0:0:0:0:
109,197,19332,1,0,0:0:0:0:
263,231,19498,2,0,L|267:172,1,60
109,197,19832,2,0,L|106:269,1,60
346,340,20165,2,0,L|352:214,1,120,10|0,0:0|0:0,0:0:0:0:
240,102,20665,1,0,0:0:0:0:
109,197,20832,6,0,P|57:189|5:147,1,120,8|0,0:1|0:0,0:0:0:0:
175,24,21332,1,0,0:0:0:0:
266,169,21499,2,0,P|281:229|265:288,1,120,8|0,0:0|0:0,0:0:0:0:
109,197,21999,1,0,0:0:0:0:
221,96,22165,2,0,L|276:72,1,60
370,79,22498,2,0,L|425:55,1,60
316,154,22832,2,0,P|304:219|333:292,1,120,8|0,0:0|0:0,0:0:0:0:
425,55,23332,1,0,0:0:0:0:
284,76,23498,6,0,P|220:88|148:70,1,120,8|0,0:1|0:0,0:0:0:0:
55,21,23998,1,0,0:0:0:0:
79,150,24165,2,0,P|88:208|76:267,1,120,8|0,0:0|0:0,0:0:0:0:
170,168,24665,1,0,0:0:0:0:
306,213,24831,2,0,L|235:218,1,60
444,247,25165,2,0,L|373:252,1,60
346,139,25498,2,0,P|334:80|352:24,1,120,10|0,0:0|0:0,0:0:0:0:
475,86,25998,1,0,0:0:0:0:
384,251,26165,6,0,P|316:268|252:248,1,120,8|0,0:1|0:0,0:0:0:0:
138,131,26665,1,0,0:0:0:0:
238,62,26832,2,0,P|260:126|236:195,1,120,8|0,0:0|0:0,0:0:0:0:
60,209,27332,1,0,0:0:0:0:
138,131,27498,2,0,L|163:213,1,60
250,283,27832,1,0,0:0:0:0:
118,338,27998,1,0,0:0:0:0:
248,175,28165,2,0,P|307:158|377:189,1,120,8|0,0:0|0:0,0:0:0:0:
416,328,28665,1,0,0:0:0:0:
460,164,28832,6,0,P|472:108|456:40,1,120,8|0,0:1|0:0,0:0:0:0:
361,175,29332,1,0,0:0:0:0:
496,300,29499,2,0,P|439:314|380:303,1,120,8|0,0:0|0:0,0:0:0:0:
232,160,29999,1,0,0:0:0:0:
290,243,30165,2,0,L|282:302,1,60
140,132,30498,2,0,L|147:72,1,60
188,232,30832,2,0,P|130:245|60:204,1,120,10|0,0:0|0:0,0:0:0:0:
152,20,31332,1,0,0:0:0:0:
280,168,31498,6,0,P|298:236|278:299,1,120,8|0,0:1|0:0,0:0:0:0:
76,221,31998,1,0,0:0:0:0:
240,72,32165,2,0,P|299:80|362:71,1,120,8|0,0:0|0:0,0:0:0:0:
468,21,32665,1,0,0:0:0:0:
365,169,32831,2,0,L|350:244,1,60
475,176,33165,2,0,L|486:117,1,60
273,281,33498,2,0,P|320:321|395:312,1,120,8|0,0:0|0:0,0:0:0:0:
475,176,33998,1,0,0:0:0:0:
226,139,34165,6,0,L|90:159,1,120,8|0,0:1|0:0,0:0:0:0:
257,30,34665,1,0,0:0:0:0:
353,227,34832,2,0,L|340:107,1,120,8|0,0:0|0:0,0:0:0:0:
473,319,35332,1,0,0:0:0:0:
343,350,35498,2,0,P|305:353|263:341,1,60
173,318,35832,1,0,0:0:0:0:
143,311,35915,1,0,0:0:0:0:
113,311,35998,1,0,0:0:0:0:
84,318,36082,1,0,0:0:0:0:
57,329,36165,2,0,P|38:266|56:208,1,120
240,172,36665,1,0,0:0:0:0:
396,316,36832,6,0,P|336:352|256:332,1,143.999995605469,8|0,0:1|0:0,0:0:0:0:
411,173,37332,1,0,0:0:0:0:
316,241,37498,2,0,P|298:178|335:83,1,143.999995605469,8|0,0:0|0:0,0:0:0:0:
492,117,37998,1,0,0:0:0:0:
500,142,38081,1,0,0:0:0:0:
504,168,38165,2,0,P|508:208|496:248,1,71.9999978027344
239,251,38499,1,8,0:1:0:0:
416,200,38665,1,0,0:0:0:0:
340,328,38832,2,0,L|322:175,1,143.999995605469,8|0,0:0|0:0,0:0:0:0:
409,42,39332,1,0,0:0:0:0:
240,139,39498,6,0,P|164:158|76:133,1,143.999995605469,8|0,0:1|0:0,0:0:0:0:
164,0,39998,1,0,0:0:0:0:
330,99,40165,2,0,P|349:166|340:241,1,143.999995605469,8|0,0:0|0:0,0:0:0:0:
254,328,40665,1,0,0:0:0:0:
153,183,40832,2,0,P|143:142|149:81,1,71.9999978027344
175,272,41165,2,0,P|160:307|158:343,1,71.9999978027344,8|0,0:1|0:0,0:0:0:0:
246,205,41498,2,0,P|324:181|397:210,1,143.999995605469,10|0,0:0|0:0,0:0:0:0:
427,352,41998,1,0,0:0:0:0:
175,272,42165,6,0,P|154:213|183:127,1,143.999995605469,8|0,0:1|0:0,0:0:0:0:
263,67,42665,1,0,0:0:0:0:
355,127,42832,2,0,P|422:135|502:114,1,143.999995605469,8|0,0:0|0:0,0:0:0:0:
406,8,43332,1,0,0:0:0:0:
266,187,43498,2,0,P|261:232|271:280,1,71.9999978027344
392,276,43832,2,0,P|406:320|434:356,1,71.9999978027344,8|0,0:1|0:0,0:0:0:0:
492,170,44165,2,0,P|416:149|346:162,1,143.999995605469,8|0,0:0|0:0,0:0:0:0:
298,339,44665,1,0,0:0:0:0:
170,274,44832,6,0,P|154:213|175:138,1,120,8|0,0:1|0:1,0:1:0:0:
254,87,45332,1,0,0:0:0:0:
355,132,45499,2,0,P|416:139|475:131,1,120,2|0,0:0|0:0,0:0:0:0:
413,15,45999,1,0,0:0:0:0:
272,183,46165,2,0,P|266:223|276:264,1,60
402,359,46498,2,0,P|407:329|400:278,1,60
195,305,46832,2,0,P|267:340|325:325,1,120,10|0,0:0|0:0,0:0:0:0:
475,222,47332,1,0,0:0:0:0:
273,105,47498,6,0,P|287:175|274:245,1,143.999995605469,8|0,0:1|0:0,0:0:0:0:
131,182,47998,1,0,0:0:0:0:
350,44,48165,2,0,P|290:9|221:23,1,143.999995605469,8|0,0:0|0:0,0:0:0:0:
186,264,48665,1,0,0:0:0:0:
280,174,48831,2,0,L|270:86,1,71.9999978027344
131,182,49165,2,0,P|87:188|38:184,1,71.9999978027344,8|0,0:1|0:0,0:0:0:0:
283,276,49498,2,0,P|351:305|436:288,1,143.999995605469,10|0,0:0|0:0,0:0:0:0:
459,52,49998,1,0,0:0:0:0:
286,146,50165,6,0,B|321:180|321:180|414:161,1,143.999995605469,8|0,0:1|0:0,0:0:0:0:
459,52,50665,1,0,0:0:0:0:
225,60,50832,2,0,P|182:116|197:201,1,143.999995605469,8|0,0:0|0:0,0:0:0:0:
292,342,51332,1,0,0:0:0:0:
321,248,51498,2,0,P|290:243|247:254,1,71.9999978027344
57,341,51832,2,0,P|92:346|128:346,1,71.9999978027344,8|0,0:1|0:0,0:0:0:0:
276,171,52165,2,0,P|285:99|280:25,1,143.999995605469,10|0,0:0|0:0,0:0:0:0:
103,107,52665,1,0,0:0:0:0:
200,252,52832,6,0,P|274:280|360:248,1,143.999995605469,8|0,0:1|0:0,0:0:0:0:
341,143,53332,1,0,0:0:0:0:
477,348,53498,2,0,P|439:288|436:217,1,143.999995605469,8|0,0:0|0:0,0:0:0:0:
471,69,53999,1,0,0:0:0:0:
341,143,54165,2,0,P|308:141|261:128,1,71.9999978027344
173,9,54498,2,0,P|187:38|200:85,1,71.9999978027344,8|0,0:1|0:0,0:0:0:0:
186,303,54832,2,0,P|170:233|188:164,1,143.999995605469,8|0,0:0|0:0,0:0:0:0:
329,96,55332,1,0,0:0:0:0:
486,242,55498,6,0,P|427:253|356:237,1,120,8|0,0:1|0:0,0:0:0:0:
310,157,55998,1,0,0:0:0:0:
261,367,56165,2,0,P|281:311|275:252,1,120,8|0,0:0|0:0,0:0:0:0:
221,168,56665,1,0,1:0:0:0:
221,168,56748,1,0,1:0:0:0:
221,168,56832,2,0,P|254:154|289:154,1,60,0|0,1:0|0:0,0:0:0:0:
429,225,57165,1,0,3:0:0:0:
298,348,57331,1,0,0:0:0:0:
298,348,57414,1,0,0:0:0:0:
298,348,57498,2,0,L|269:230,1,120,0|0,1:0|0:0,0:0:0:0:
137,69,57998,1,0,0:0:0:0:
77,328,58165,6,0,P|148:330|208:292,1,143.999995605469,4|0,1:0|0:0,0:0:0:0:
233,167,58665,1,2,0:0:0:0:
102,161,58832,2,0,P|105:197|120:230,1,71.9999978027344,0|0,1:0|0:0,0:0:0:0:
355,201,59165,2,0,P|361:165|361:130,1,71.9999978027344
120,230,59498,1,2,1:2:0:0:
233,167,59665,1,8,1:0:0:0:
208,292,59832,1,0,1:0:0:0:
149,80,59998,1,0,0:0:0:0:
355,201,60165,2,0,B|432:214|509:188,1,143.999995605469,8|2,1:0|0:2,0:0:0:0:
329,66,60665,1,0,0:0:0:0:
191,208,60832,6,0,P|176:280|197:346,1,143.999995605469,2|0,1:2|0:0,0:0:0:0:
272,129,61332,1,2,0:0:0:0:
92,240,61498,2,0,P|54:250|1:248,1,71.9999978027344,0|0,1:0|0:0,0:0:0:0:
174,106,61832,1,0,0:0:0:0:
303,239,61998,1,0,0:0:0:0:
303,239,62082,1,0,0:0:0:0:
303,239,62165,2,0,P|317:286|317:327,1,71.9999978027344,2|8,1:2|1:0,0:0:0:0:
272,129,62498,2,0,P|283:87|285:35,1,71.9999978027344,0|0,1:0|0:0,0:0:0:0:
73,149,62832,2,0,P|158:211|221:192,1,143.999995605469,8|0,1:0|0:0,0:0:0:0:
285,58,63332,1,0,0:0:0:0:
294,303,63498,6,0,B|248:316|248:316|152:301,1,143.999995605469,2|0,1:2|0:0,0:0:0:0:
98,99,63998,1,2,0:0:0:0:
181,205,64165,2,0,L|271:218,1,71.9999978027344,8|0,1:0|0:0,0:0:0:0:
438,329,64498,2,0,L|349:369,1,71.9999978027344,2|0,0:0|0:0,0:0:0:0:
343,144,64832,1,2,1:2:0:0:
423,247,64998,1,8,1:0:0:0:
254,285,65165,2,0,P|247:249|254:208,1,71.9999978027344,0|0,1:0|0:0,0:0:0:0:
484,139,65498,2,0,P|408:152|321:136,1,143.999995605469,0|0,1:0|0:0,0:0:0:0:
236,102,65998,1,2,0:0:0:0:
420,80,66165,6,0,L|449:-9,1,71.9999978027344,2|0,1:2|1:2,1:2:0:0:
366,245,66498,2,0,L|384:314,1,71.9999978027344
236,102,66832,2,0,L|165:89,1,71.9999978027344,0|0,1:0|0:0,0:0:0:0:
205,283,67165,1,2,0:0:0:0:
342,143,67332,1,0,1:0:0:0:
94,172,67498,1,0,0:0:0:0:
303,318,67665,2,0,B|316:289|304:245,1,71.9999978027344,2|8,1:2|1:0,0:0:0:0:
165,89,67998,1,0,0:0:0:0:
102,276,68165,5,8,1:0:0:0:
280,117,68332,1,0,1:0:0:0:
94,172,68498,1,8,0:3:0:0:
304,247,68665,1,8,0:3:0:0:
165,89,68832,6,0,P|87:79|47:21,1,143.999995605469,4|0,1:0|0:0,0:0:0:0:
280,117,69332,1,2,0:0:0:0:
366,281,69498,2,0,P|364:317|356:352,1,71.9999978027344,8|0,1:0|0:0,0:0:0:0:
169,159,69832,2,0,P|162:123|165:88,1,71.9999978027344,2|0,0:0|0:0,0:0:0:0:
365,189,70165,1,2,1:2:0:0:
154,270,70332,2,0,P|119:279|65:259,1,71.9999978027344,2|0,0:0|1:0,0:0:0:0:
164,88,70665,1,0,0:0:0:0:
265,253,70832,5,8,1:0:0:0:
97,173,70998,1,0,1:0:0:0:
270,73,71165,1,0,1:0:0:0:
154,270,71332,1,8,1:0:0:0:
382,190,71498,6,0,P|419:130|418:59,1,143.999995605469,2|0,1:2|0:0,0:0:0:0:
246,158,71998,1,2,0:0:0:0:
402,308,72165,2,0,P|443:320|486:323,1,71.9999978027344,8|0,1:0|0:0,0:0:0:0:
382,190,72498,1,2,0:0:0:0:
308,355,72665,1,0,0:0:0:0:
308,355,72748,1,0,0:0:0:0:
308,355,72832,1,2,1:2:0:0:
460,244,72998,1,8,1:0:0:0:
290,192,73165,2,0,P|282:145|295:91,1,71.9999978027344,0|0,1:0|0:0,0:0:0:0:
211,281,73498,2,0,P|151:300|67:282,1,143.999995605469,8|0,1:0|0:0,0:0:0:0:
184,136,73998,1,0,0:0:0:0:
402,206,74165,6,0,B|436:140|391:54,1,143.999995605469,2|0,1:2|0:0,0:0:0:0:
272,38,74665,1,2,0:0:0:0:
184,136,74832,2,0,P|136:144|90:143,1,71.9999978027344,8|0,1:0|0:0,0:0:0:0:
369,139,75165,2,0,P|417:136|470:158,1,71.9999978027344,2|0,0:0|0:0,0:0:0:0:
273,193,75498,1,2,1:2:0:0:
373,20,75665,1,8,1:0:0:0:
400,221,75832,2,0,P|397:273|390:313,1,71.9999978027344,0|0,1:0|0:0,0:0:0:0:
140,204,76165,2,0,P|118:114|149:41,1,143.999995605469,8|2,1:0|0:0,0:0:0:0:
248,196,76665,1,0,0:0:0:0:
160,304,76832,6,0,P|106:295|77:284,1,71.9999978027344,2|0,1:2|0:0,0:0:0:0:
345,221,77165,2,0,P|393:209|432:211,1,71.9999978027344,2|0,1:2|0:0,0:0:0:0:
256,336,77498,2,0,B|288:292|212:228|264:172,1,143.999995605469,8|2,1:0|0:0,0:0:0:0:
424,137,77998,1,0,0:0:0:0:
424,137,78082,1,0,0:0:0:0:
424,137,78165,2,0,L|411:237,1,71.9999978027344,0|0,1:0|0:0,0:0:0:0:
206,114,78498,2,0,P|244:106|288:114,1,71.9999978027344,2|0,1:2|0:0,0:0:0:0:
338,329,78832,2,0,P|330:293|329:257,1,71.9999978027344,8|0,1:0|0:0,0:0:0:0:
378,14,79165,5,8,1:0:0:0:
480,230,79332,1,8,1:0:0:0:
248,196,79498,1,4,1:0:0:0:
