osu file format v14

[General]
AudioFilename: audio.mp3
AudioLeadIn: 0
PreviewTime: 58165
Countdown: 0
SampleSet: Soft
StackLeniency: 0.2
Mode: 0
LetterboxInBreaks: 0
WidescreenStoryboard: 0

[Editor]
Bookmarks: 15498,36832
DistanceSpacing: 1.1
BeatDivisor: 8
GridSize: 4
TimelineZoom: 3.599999

[Metadata]
Title:Freesia
TitleUnicode:Freesia
Artist:(K)NoW_NAME
ArtistUnicode:(K)NoW_NAME
Creator:Vert
Version:Expert
Source:サクラクエスト
Tags:Sakura Quest P.A.WORKS Kashima Zweib
BeatmapID:1267082
BeatmapSetID:599556

[Difficulty]
HPDrainRate:7.2
CircleSize:4.2
OverallDifficulty:8.2
ApproachRate:9.2
SliderMultiplier:2.4
SliderTickRate:1

[Events]
//Background and Video events
0,0,"1.JPG",0,0
//Break Periods
//Storyboard Layer 0 (Background)
//Storyboard Layer 1 (Fail)
//Storyboard Layer 2 (Pass)
//Storyboard Layer 3 (Foreground)
//Storyboard Sound Samples

[TimingPoints]
4832,666.666666666667,4,2,24,40,1,0
15498,-125,4,2,24,60,0,0
36165,-100,4,2,24,60,0,0
36832,-83.3333333333333,4,2,24,70,0,0
46832,-125,4,2,24,70,0,0
47498,-83.3333333333333,4,2,24,70,0,0
56832,-100,4,2,24,70,0,0
57165,-125,4,2,24,70,0,0
57498,-166.666666666667,4,2,24,70,0,0
58165,-66.6666666666667,4,2,24,75,0,1
63165,-133.333333333333,4,2,24,75,0,1
63498,-66.6666666666667,4,2,24,75,0,1
67832,-100,4,2,24,70,0,1
68165,-66.6666666666667,4,2,24,75,0,1
79498,-66.6666666666667,4,2,24,75,0,0

[Colours]
Combo1 : 255,0,255
Combo2 : 255,128,128
Combo3 : 255,128,255
Combo4 : 255,0,128

[HitObjects]
76,172,4832,5,0,0:0:0:0:
107,56,4998,1,0,0:0:0:0:
222,87,5165,1,0,0:0:0:0:
191,203,5332,2,0,L|391:199,1,180,0|0,0:0|0:0,0:0:0:0:
504,264,5998,1,0,0:0:0:0:
396,312,6165,1,0,0:0:0:0:
480,144,6332,1,0,0:0:0:0:
370,199,6498,2,0,L|380:248,1,30
344,88,6748,2,0,L|336:40,1,30,0|8,0:0|0:0,0:0:0:0:
344,88,7498,5,0,0:0:0:0:
313,204,7664,1,0,0:0:0:0:
198,173,7831,1,0,0:0:0:0:
229,57,7998,2,0,L|29:61,1,180,0|0,0:0|0:0,0:0:0:0:
116,168,8665,1,0,0:0:0:0:
48,272,8832,1,0,0:0:0:0:
116,368,8998,1,0,0:0:0:0:
176,272,9165,2,0,L|292:292,1,90
304,296,9498,1,8,0:0:0:0:
304,296,10165,5,0,0:0:0:0:
420,265,10331,1,0,0:0:0:0:
389,150,10498,1,0,0:0:0:0:
273,181,10665,2,0,B|312:96|236:96|272:8,1,180,0|0,0:0|0:0,0:0:0:0:
348,52,11332,1,0,0:0:0:0:
204,136,11498,1,0,0:0:0:0:
272,8,11665,1,0,0:0:0:0:
273,181,11832,2,0,L|273:233,1,30
280,384,12082,2,0,L|279:341,1,30,0|8,0:0|0:0,0:0:0:0:
280,384,12832,5,0,0:0:0:0:
168,312,12998,1,0,0:0:0:0:
56,380,13165,1,0,0:0:0:0:
96,260,13332,2,0,P|148:224|248:272,1,180,0|0,0:0|0:0,0:0:0:0:
168,312,13998,1,0,0:0:0:0:
68,172,14165,1,0,0:0:0:0:
272,172,14332,1,0,0:0:0:0:
172,24,14498,2,0,L|168:72,1,30,0|0,0:0|0:0,0:0:0:0:
172,168,14665,2,0,L|168:220,1,30,0|0,0:0|0:0,0:0:0:0:
168,312,14832,1,8,0:0:0:0:
168,312,15498,6,0,L|52:324,1,96,8|0,0:1|0:0,0:0:0:0:
220,232,15998,1,0,0:0:0:0:
316,352,16165,1,8,0:0:0:0:
316,352,16498,6,0,L|384:344,1,48,0|0,0:0|0:0,0:0:0:0:
492,360,16832,1,0,0:0:0:0:
408,280,16998,1,0,0:0:0:0:
476,192,17165,2,0,L|482:126,1,48,0|0,0:0|0:0,0:0:0:0:
456,24,17498,2,0,P|424:60|360:56,1,96,8|0,0:0|0:0,0:0:0:0:
200,16,18165,6,0,L|208:72,1,48,8|0,0:1|0:0,0:0:0:0:
161,184,18498,2,0,L|168:232,1,48,0|0,0:0|0:0,0:0:0:0:
112,96,18832,1,8,0:0:0:0:
112,96,19165,5,0,0:0:0:0:
248,144,19332,1,0,0:0:0:0:
168,232,19498,1,0,0:0:0:0:
168,232,19665,2,0,L|164:288,1,48,0|0,0:0|0:0,0:0:0:0:
164,279,20165,6,0,L|215:274,1,48,10|0,0:0|0:0,0:0:0:0:
324,348,20498,2,0,L|376:344,1,48,0|0,0:0|0:0,0:0:0:0:
480,276,20832,5,8,0:1:0:0:
480,276,21165,2,0,L|488:208,1,48,0|0,0:0|0:0,0:0:0:0:
400,120,21499,2,0,L|408:56,1,48,8|0,0:0|0:0,0:0:0:0:
500,136,21832,1,0,0:0:0:0:
388,220,21998,1,0,0:0:0:0:
296,100,22165,2,0,L|231:108,1,48,0|0,0:0|0:0,0:0:0:0:
68,168,22498,2,0,L|128:176,1,48,0|0,0:0|0:0,0:0:0:0:
248,272,22832,1,8,0:0:0:0:
248,272,23165,1,0,0:0:0:0:
368,236,23498,5,8,0:1:0:0:
360,340,23665,1,0,0:0:0:0:
248,272,23832,2,0,L|244:336,1,48,0|0,0:0|0:0,0:0:0:0:
136,308,24165,2,0,L|133:366,1,48,8|0,0:0|0:0,0:0:0:0:
48,288,24498,1,0,0:0:0:0:
168,220,24665,1,0,0:0:0:0:
116,108,24831,2,0,L|112:44,1,48,0|0,0:0|0:0,0:0:0:0:
252,144,25165,2,0,L|248:85,1,48,0|0,0:0|0:0,0:0:0:0:
392,176,25498,2,0,L|384:68,1,96,10|0,0:0|0:0,0:0:0:0:
384,80,25998,1,0,0:0:0:0:
452,244,26165,6,0,P|404:264|344:252,1,96,8|0,0:1|0:0,0:0:0:0:
252,212,26665,1,0,0:0:0:0:
184,312,26832,1,8,0:0:0:0:
184,312,27165,2,0,L|124:320,1,48,0|0,0:0|0:0,0:0:0:0:
24,200,27498,1,0,0:0:0:0:
148,240,27665,1,0,0:0:0:0:
112,120,27832,2,0,L|108:56,1,48,0|0,0:0|0:0,0:0:0:0:
56,316,28165,1,8,0:0:0:0:
56,316,28498,1,0,0:0:0:0:
56,316,28832,6,0,L|109:323,1,48,8|0,0:1|0:0,0:0:0:0:
248,296,29165,2,0,L|312:304,1,48,0|0,0:0|0:0,0:0:0:0:
456,280,29498,1,8,0:0:0:0:
456,280,29832,2,0,L|468:212,1,48,0|0,0:0|0:0,0:0:0:0:
284,188,30165,2,0,L|320:220,1,48,0|0,0:0|0:0,0:0:0:0:
476,140,30498,2,0,L|416:156,1,48,0|0,0:0|0:0,0:0:0:0:
400,336,30832,2,0,P|460:360|504:344,1,96,10|0,0:0|0:0,0:0:0:0:
456,280,31332,1,0,0:0:0:0:
319,219,31498,6,0,L|208:238,1,96,8|0,0:1|0:0,0:0:0:0:
64,224,31999,1,0,0:0:0:0:
192,332,32165,2,0,L|296:313,1,96,8|0,0:0|0:0,0:0:0:0:
256,136,32665,1,0,0:0:0:0:
71,177,32832,2,0,P|63:217|67:237,1,48,0|0,0:0|0:0,0:0:0:0:
328,176,33165,2,0,P|337:153|337:125,1,48
160,32,33498,1,8,0:0:0:0:
160,32,34165,6,0,L|172:144,1,96,8|0,0:1|0:0,0:0:0:0:
188,292,34665,1,0,0:0:0:0:
344,228,34832,2,0,L|397:232,1,48,8|0,0:0|0:0,0:0:0:0:
228,364,35165,2,0,P|200:372|164:372,1,48,0|0,0:0|0:0,0:0:0:0:
0,260,35498,2,0,L|48:263,1,48,0|0,0:0|0:0,0:0:0:0:
268,280,35832,1,0,0:0:0:0:
256,258,35915,1,0,0:0:0:0:
251,235,35998,1,0,0:0:0:0:
253,211,36082,1,0,0:0:0:0:
262,189,36165,6,0,L|368:184,1,90,10|0,0:0|0:0,0:0:0:0:
424,144,36498,2,0,P|436:104|416:40,1,90,0|0,0:0|0:0,0:0:0:0:
352,96,36832,6,0,B|308:104|308:104|188:88,1,143.999995605469,8|0,0:1|0:0,0:0:0:0:
44,32,37332,1,0,0:0:0:0:
108,176,37498,2,0,P|148:164|200:176,1,71.9999978027344,8|0,0:0|0:0,0:0:0:0:
344,336,37832,2,0,P|312:300|304:252,1,71.9999978027344,0|0,0:0|0:0,0:0:0:0:
376,116,38164,1,0,0:0:0:0:
384,268,38331,1,0,0:0:0:0:
256,208,38498,1,8,0:1:0:0:
444,192,38665,1,0,0:0:0:0:
280,52,38832,2,0,L|292:148,1,71.9999978027344,8|0,0:0|0:0,0:0:0:0:
232,364,39165,2,0,L|220:268,1,71.9999978027344,0|0,0:0|0:0,0:0:0:0:
40,224,39498,5,8,0:1:0:0:
58,117,39665,1,0,0:0:0:0:
140,186,39832,1,0,0:0:0:0:
84,28,39998,1,0,0:0:0:0:
84,28,40082,1,0,0:0:0:0:
84,28,40165,2,0,L|12:34,1,71.9999978027344,8|0,0:0|0:0,0:0:0:0:
256,72,40498,2,0,L|344:64,1,71.9999978027344,0|0,0:0|0:0,0:0:0:0:
184,0,40832,1,0,0:0:0:0:
152,108,40998,1,0,0:0:0:0:
244,180,41165,2,0,P|248:220|232:256,1,71.9999978027344,8|0,0:1|0:0,0:0:0:0:
20,312,41498,2,0,P|92:284|171:317,1,143.999995605469,10|0,0:0|0:0,0:0:0:0:
92,380,41998,1,0,0:0:0:0:
164,200,42165,5,8,0:1:0:0:
308,248,42332,1,0,0:0:0:0:
272,100,42498,1,0,0:0:0:0:
224,264,42665,1,0,0:0:0:0:
332,164,42832,2,0,L|432:172,1,71.9999978027344,8|0,0:0|0:0,0:0:0:0:
512,176,43165,1,0,0:0:0:0:
384,80,43332,1,0,0:0:0:0:
456,244,43498,2,0,P|464:296|444:336,1,71.9999978027344,0|0,0:0|0:0,0:0:0:0:
310,317,43832,2,0,P|302:265|322:225,1,71.9999978027344,8|0,0:1|0:0,0:0:0:0:
384,280,44165,2,0,L|236:288,1,143.999995605469,8|0,0:0|0:0,0:0:0:0:
156,344,44665,1,0,0:0:0:0:
80,288,44832,6,0,P|60:224|68:192,1,71.9999978027344,8|0,0:1|0:0,0:0:0:0:
136,136,45165,1,0,0:1:0:0:
152,228,45332,1,0,0:0:0:0:
176,56,45499,2,0,P|136:48|80:64,1,71.9999978027344,2|0,0:0|0:0,0:0:0:0:
220,168,45832,1,0,0:0:0:0:
316,116,45998,1,0,0:0:0:0:
392,196,46165,2,0,L|484:188,1,71.9999978027344,0|0,0:0|0:0,0:0:0:0:
259,252,46498,2,0,L|180:259,1,71.9999978027344,0|0,0:0|0:0,0:0:0:0:
364,288,46832,6,0,L|432:280,1,48,10|0,0:0|0:0,0:0:0:0:
291,161,47165,2,0,L|224:168,1,48
132,344,47498,6,0,B|167:356|167:356|273:344,1,143.999995605469,8|0,0:1|0:0,0:0:0:0:
187,258,47998,1,0,0:0:0:0:
60,380,48165,2,0,P|52:344|72:284,1,71.9999978027344,8|0,0:0|0:0,0:0:0:0:
136,120,48498,2,0,P|142:155|134:189,1,71.9999978027344,0|0,0:0|0:0,0:0:0:0:
36,48,48832,1,0,0:0:0:0:
220,88,48997,1,0,0:0:0:0:
56,148,49164,1,8,0:1:0:0:
148,8,49331,1,0,0:0:0:0:
134,189,49498,2,0,L|230:185,1,71.9999978027344,10|0,0:0|0:0,0:0:0:0:
364,156,49831,2,0,L|464:152,1,71.9999978027344,0|0,0:0|0:0,0:0:0:0:
318,343,50164,5,8,0:1:0:0:
300,236,50331,1,0,0:0:0:0:
400,274,50498,1,0,0:0:0:0:
220,304,50664,1,0,0:0:0:0:
220,304,50748,1,0,0:0:0:0:
220,304,50831,2,0,L|128:300,1,71.9999978027344,8|0,0:0|0:0,0:0:0:0:
96,108,51165,2,0,L|186:103,1,71.9999978027344
336,0,51498,1,0,0:0:0:0:
284,96,51665,1,0,0:0:0:0:
360,180,51832,2,0,P|364:220|348:256,1,71.9999978027344,8|0,0:3|0:0,0:0:0:0:
144,212,52165,6,0,B|184:192|184:192|300:208,1,143.999995605469,10|0,0:0|0:0,0:0:0:0:
388,324,52664,1,0,0:0:0:0:
200,280,52832,1,8,0:1:0:0:
352,249,52998,1,0,0:0:0:0:
196,368,53164,1,0,0:0:0:0:
356,160,53332,1,0,0:0:0:0:
144,212,53498,2,0,L|72:206,1,71.9999978027344,8|0,0:0|0:0,0:0:0:0:
12,52,53831,1,0,0:0:0:0:
12,52,53915,1,0,0:0:0:0:
12,52,53998,1,0,0:0:0:0:
188,72,54165,6,0,L|276:60,1,71.9999978027344
500,168,54498,2,0,L|420:180,1,71.9999978027344,8|0,0:1|0:0,0:0:0:0:
348,48,54831,2,0,L|344:200,1,143.999995605469,8|0,0:0|0:0,0:0:0:0:
296,276,55332,1,0,0:0:0:0:
364,352,55498,6,0,P|428:372|460:364,1,71.9999978027344,8|0,0:1|0:0,0:0:0:0:
296,276,55832,1,0,0:0:0:0:
256,368,55998,1,0,0:0:0:0:
420,288,56165,2,0,L|428:216,1,71.9999978027344,8|0,0:0|0:0,0:0:0:0:
332,84,56498,1,0,0:0:0:0:
232,204,56664,1,0,1:0:0:0:
232,204,56748,1,0,1:0:0:0:
232,204,56832,6,0,L|124:196,1,90,0|0,1:0|0:0,0:0:0:0:
72,144,57165,2,0,P|66:98|84:56,1,72,0|0,3:0|0:0,0:0:0:0:
152,112,57498,2,0,L|218:118,1,53.9999983520508,0|0,1:0|0:0,0:0:0:0:
292,124,57832,1,0,0:0:0:0:
172,200,57998,1,0,0:0:0:0:
252,28,58165,1,4,1:0:0:0:
252,28,58498,5,0,0:0:0:0:
388,128,58665,1,2,0:0:0:0:
316,260,58832,2,0,L|324:352,1,90.0000034332277,0|0,1:0|0:0,0:0:0:0:
172,200,59165,1,0,0:0:0:0:
400,220,59332,1,0,0:0:0:0:
224,340,59498,1,2,1:2:0:0:
292,104,59665,1,8,1:0:0:0:
323,349,59832,1,0,1:0:0:0:
84,200,59998,1,0,1:0:0:0:
212,32,60165,2,0,B|204:140,1,90.0000034332277,8|0,1:0|0:0,0:0:0:0:
44,72,60498,1,2,0:2:0:0:
32,268,60665,6,0,P|84:284|140:264,1,90.0000034332277,0|2,0:0|1:2,0:0:0:0:
292,104,60998,1,0,0:0:0:0:
216,304,61165,1,0,0:0:0:0:
80,168,61332,1,2,0:0:0:0:
376,132,61498,2,0,P|379:87|357:41,1,90.0000034332277,0|0,1:0|0:0,0:0:0:0:
176,100,61832,1,0,0:0:0:0:
340,212,61998,2,0,P|389:219|436:196,1,90.0000034332277,0|2,0:0|1:2,0:0:0:0:
292,104,62332,1,8,1:0:0:0:
260,288,62498,2,0,L|272:388,1,90.0000034332277,0|0,1:0|0:0,0:0:0:0:
102,256,62832,2,0,L|125:139,1,90.0000034332277,8|0,1:0|0:0,0:0:0:0:
282,37,63165,6,0,L|294:121,1,67.5000025749207,0|0,0:0|0:0,0:0:0:0:
376,132,63498,6,0,B|510:118,1,135.000005149841,2|0,1:2|0:0,0:0:0:0:
510,118,63832,1,0,0:0:0:0:
372,48,63998,1,2,0:0:0:0:
448,272,64165,2,0,L|332:296,1,90.0000034332277,8|0,1:0|0:0,0:0:0:0:
152,140,64498,1,2,0:0:0:0:
288,176,64665,1,0,0:0:0:0:
56,236,64832,1,2,1:2:0:0:
112,8,64998,1,8,1:0:0:0:
192,272,65165,1,0,1:0:0:0:
376,132,65332,1,0,0:0:0:0:
68,92,65498,6,0,B|216:96|216:96|248:80,1,180.000006866455,0|0,1:0|0:0,0:0:0:0:
388,244,65998,1,2,0:0:0:0:
204,360,66165,1,2,1:2:0:0:
288,176,66332,1,0,1:2:0:0:
360,352,66498,1,0,0:0:0:0:
176,232,66665,1,0,0:0:0:0:
452,184,66832,2,0,P|476:232|468:284,1,90.0000034332277,0|0,1:0|0:0,0:0:0:0:
280,280,67165,1,2,0:0:0:0:
384,100,67332,1,0,1:0:0:0:
176,144,67498,1,0,0:0:0:0:
452,184,67665,1,2,1:2:0:0:
356,16,67832,6,0,P|300:68|300:96,1,90,8|0,1:0|0:0,0:0:0:0:
316,156,68165,5,8,1:0:0:0:
176,12,68332,1,0,1:0:0:0:
384,100,68498,1,8,0:3:0:0:
140,180,68665,1,8,0:3:0:0:
364,244,68832,6,0,P|360:324|256:344,1,180.000006866455,4|0,1:0|0:0,0:0:0:0:
89,314,69332,1,2,0:0:0:0:
212,252,69498,2,0,P|248:254|299:282,1,90.0000034332277,8|0,1:0|0:0,0:0:0:0:
180,376,69832,1,2,0:0:0:0:
120,212,69998,1,0,0:0:0:0:
0,308,70165,2,0,L|89:314,1,90.0000034332277,2|2,1:2|0:0,0:0:0:0:
48,140,70498,1,0,1:0:0:0:
48,140,70665,1,0,0:0:0:0:
231,195,70832,5,8,1:0:0:0:
80,44,70998,1,0,1:0:0:0:
236,15,71165,1,0,1:0:0:0:
120,212,71332,1,8,1:0:0:0:
336,176,71498,6,0,B|384:168|384:168|464:188|464:188|520:180,1,180.000006866455,2|0,1:2|0:0,0:0:0:0:
384,256,71998,1,2,0:0:0:0:
468,100,72165,2,0,L|458:-24,1,90.0000034332277,8|0,1:0|0:0,0:0:0:0:
256,92,72498,1,2,0:0:0:0:
384,256,72665,1,0,0:0:0:0:
384,256,72748,1,0,0:0:0:0:
384,256,72832,2,0,L|376:368,1,90.0000034332277,2|8,1:2|1:0,0:0:0:0:
88,220,73165,5,0,1:0:0:0:
336,116,73332,1,0,0:0:0:0:
128,88,73498,1,8,1:0:0:0:
296,300,73665,1,0,0:0:0:0:
84,312,73832,1,0,0:0:0:0:
232,104,73998,1,0,0:0:0:0:
456,196,74165,5,2,1:2:0:0:
208,228,74332,1,0,0:0:0:0:
344,28,74498,1,0,0:0:0:0:
380,248,74665,1,2,0:0:0:0:
128,140,74832,6,0,L|124:40,1,90.0000034332277,8|0,1:0|0:0,0:0:0:0:
436,8,75165,2,0,L|431:105,1,90.0000034332277,2|0,0:0|0:0,0:0:0:0:
296,208,75498,1,2,1:2:0:0:
296,208,75665,1,8,1:0:0:0:
192,68,75832,5,0,1:0:0:0:
96,256,75998,1,0,0:0:0:0:
296,108,76165,1,8,1:0:0:0:
40,148,76332,1,0,0:0:0:0:
212,316,76498,1,2,0:0:0:0:
400,148,76665,1,0,0:0:0:0:
188,180,76832,5,2,1:2:0:0:
312,356,76998,1,0,0:0:0:0:
88,292,77165,1,2,1:2:0:0:
408,232,77332,1,0,0:0:0:0:
172,48,77498,6,0,B|174:137,1,90.0000034332277,8|0,1:0|0:0,0:0:0:0:
256,300,77832,1,2,0:0:0:0:
384,148,77998,1,0,0:0:0:0:
384,148,78082,1,0,0:0:0:0:
384,148,78165,2,0,P|436:148|476:176,1,90.0000034332277,0|0,1:0|0:0,0:0:0:0:
342,289,78498,2,0,P|300:304|256:300,1,90.0000034332277,2|0,1:2|0:0,0:0:0:0:
76,200,78832,2,0,L|172:204,1,90.0000034332277,8|0,1:0|0:0,0:0:0:0:
292,224,79165,5,8,1:0:0:0:
220,36,79332,1,8,1:0:0:0:
112,292,79498,1,4,1:0:0:0:
