osu file format v14

[General]
AudioFilename: audio.mp3
AudioLeadIn: 0
PreviewTime: 58165
Countdown: 0
SampleSet: Normal
StackLeniency: 0.7
Mode: 1
LetterboxInBreaks: 0
WidescreenStoryboard: 0

[Editor]
DistanceSpacing: 1.4
BeatDivisor: 4
GridSize: 4
TimelineZoom: 0.9999989

[Metadata]
Title:Freesia
TitleUnicode:Freesia
Artist:(K)NoW_NAME
ArtistUnicode:(K)NoW_NAME
Creator:Skylish
Version:Oni
Source:サクラクエスト
Tags:Sakura Quest P.A.WORKS taiko tv size know name knowname genki mizuno R.O.N ayaka tachibana
BeatmapID:1484906
BeatmapSetID:701640

[Difficulty]
HPDrainRate:6.5
CircleSize:5
OverallDifficulty:5
ApproachRate:5
SliderMultiplier:1.4
SliderTickRate:1

[Events]
//Background and Video events
0,0,"803901.png",0,60
//Break Periods
//Storyboard Layer 0 (Background)
//Storyboard Layer 1 (Fail)
//Storyboard Layer 2 (Pass)
//Storyboard Layer 3 (Foreground)
//Storyboard Sound Samples

[TimingPoints]
4832,666.666666666667,4,1,0,50,1,0
4832,-50,4,1,0,50,0,0
36832,-50,4,1,0,70,0,0
58165,-50,4,1,0,90,0,1
79498,-50,4,1,0,90,0,0

[HitObjects]
220,160,4832,5,0,0:0:0:0:
220,160,4998,1,0,0:0:0:0:
220,160,5165,1,8,0:0:0:0:
220,160,5332,1,0,0:0:0:0:
220,160,5832,1,0,0:0:0:0:
220,160,5998,1,0,0:0:0:0:
220,160,6165,1,8,0:0:0:0:
220,160,6332,1,0,0:0:0:0:
220,160,6832,1,8,0:0:0:0:
220,160,7498,5,0,0:0:0:0:
220,160,7664,1,0,0:0:0:0:
220,160,7831,1,8,0:0:0:0:
220,160,7998,1,0,0:0:0:0:
220,160,8498,1,0,0:0:0:0:
220,160,8664,1,0,0:0:0:0:
220,160,8831,1,8,0:0:0:0:
220,160,8998,1,0,0:0:0:0:
220,160,9498,1,12,0:0:0:0:
220,160,10165,5,0,0:0:0:0:
220,160,10331,1,0,0:0:0:0:
220,160,10498,1,8,0:0:0:0:
220,160,10665,1,0,0:0:0:0:
220,160,11165,1,0,0:0:0:0:
220,160,11331,1,0,0:0:0:0:
220,160,11498,1,8,0:0:0:0:
220,160,11665,1,0,0:0:0:0:
220,160,12165,1,8,0:0:0:0:
220,160,12831,5,0,0:0:0:0:
220,160,12997,1,0,0:0:0:0:
220,160,13164,1,8,0:0:0:0:
220,160,13331,1,0,0:0:0:0:
220,160,13831,1,0,0:0:0:0:
220,160,13997,1,0,0:0:0:0:
220,160,14164,1,8,0:0:0:0:
220,160,14331,1,0,0:0:0:0:
220,160,14831,1,12,0:0:0:0:
192,76,15498,5,4,0:0:0:0:
196,328,16498,1,0,0:0:0:0:
188,236,16832,1,8,0:0:0:0:
192,280,17165,1,0,0:0:0:0:
192,280,17498,1,8,0:0:0:0:
192,280,17832,1,0,0:0:0:0:
192,280,18165,1,0,0:0:0:0:
256,76,19165,1,8,0:0:0:0:
256,76,19498,1,0,0:0:0:0:
256,76,19832,1,0,0:0:0:0:
256,76,20165,1,8,0:0:0:0:
256,76,20498,1,8,0:0:0:0:
256,76,20832,1,0,0:0:0:0:
256,76,21498,1,8,0:0:0:0:
256,76,21832,1,0,0:0:0:0:
256,76,22165,1,8,0:0:0:0:
256,76,22498,1,8,0:0:0:0:
256,76,22832,1,0,0:0:0:0:
164,84,23498,1,0,0:0:0:0:
256,76,23832,1,0,0:0:0:0:
256,76,24165,1,8,0:0:0:0:
256,76,24498,1,8,0:0:0:0:
256,76,24832,1,0,0:0:0:0:
256,76,25165,1,8,0:0:0:0:
256,76,25498,1,8,0:0:0:0:
192,76,26165,5,4,0:0:0:0:
196,328,27165,1,0,0:0:0:0:
188,236,27499,1,8,0:0:0:0:
192,280,27832,1,0,0:0:0:0:
192,280,28165,1,8,0:0:0:0:
192,280,28499,1,8,0:0:0:0:
192,280,28832,1,0,0:0:0:0:
256,76,29832,1,8,0:0:0:0:
256,76,30165,1,0,0:0:0:0:
256,76,30499,1,0,0:0:0:0:
256,76,30832,1,8,0:0:0:0:
256,76,31165,1,8,0:0:0:0:
256,76,31499,1,0,0:0:0:0:
256,76,32165,1,8,0:0:0:0:
256,76,32499,1,0,0:0:0:0:
256,76,32832,1,8,0:0:0:0:
256,76,33165,1,8,0:0:0:0:
256,76,33499,1,0,0:0:0:0:
256,76,34165,1,0,0:0:0:0:
100,76,34498,1,0,0:0:0:0:
256,76,34832,1,8,0:0:0:0:
256,76,35165,1,8,0:0:0:0:
256,76,35499,1,0,0:0:0:0:
168,116,35665,1,0,0:0:0:0:
124,136,35832,1,0,0:0:0:0:
256,76,36165,1,8,0:0:0:0:
256,76,36498,1,8,0:0:0:0:
68,20,36832,5,4,0:0:0:0:
256,76,37498,1,8,0:0:0:0:
256,76,37832,1,8,0:0:0:0:
64,108,38165,1,8,0:0:0:0:
160,92,38332,1,8,0:0:0:0:
256,76,38498,1,0,0:0:0:0:
256,76,38832,1,8,0:0:0:0:
256,76,39165,1,8,0:0:0:0:
256,76,39498,1,0,0:0:0:0:
256,76,39998,1,8,0:0:0:0:
168,124,40165,1,8,0:0:0:0:
256,76,40498,1,0,0:0:0:0:
256,76,41165,1,0,0:0:0:0:
256,76,41498,1,8,0:0:0:0:
256,76,41832,1,8,0:0:0:0:
256,76,42165,1,0,0:0:0:0:
256,76,42498,1,8,0:0:0:0:
256,76,42665,1,8,0:0:0:0:
256,76,42832,1,8,0:0:0:0:
256,76,43165,1,0,0:0:0:0:
256,76,43332,1,0,0:0:0:0:
256,76,43498,1,0,0:0:0:0:
256,76,43832,1,0,0:0:0:0:
256,76,44165,1,8,0:0:0:0:
256,76,44832,1,0,0:0:0:0:
256,76,45165,1,0,0:0:0:0:
256,76,45332,1,0,0:0:0:0:
256,76,45498,1,8,0:0:0:0:
256,76,45832,1,8,0:0:0:0:
256,76,45998,1,8,0:0:0:0:
256,76,46165,1,0,0:0:0:0:
256,76,46498,1,8,0:0:0:0:
256,76,46832,1,8,0:0:0:0:
256,76,47165,1,0,0:0:0:0:
68,20,47498,5,0,0:0:0:0:
256,76,48164,1,8,0:0:0:0:
256,76,48498,1,8,0:0:0:0:
164,40,48832,1,8,0:0:0:0:
164,40,48998,1,8,0:0:0:0:
256,76,49164,1,0,0:0:0:0:
256,76,49498,1,8,0:0:0:0:
256,76,49832,1,0,0:0:0:0:
256,76,50164,1,8,0:0:0:0:
256,76,50664,1,8,0:0:0:0:
156,76,50832,1,8,0:0:0:0:
256,76,51164,1,0,0:0:0:0:
256,76,51498,1,8,0:0:0:0:
256,76,51831,1,0,0:0:0:0:
160,52,51998,1,0,0:0:0:0:
256,76,52164,1,8,0:0:0:0:
256,76,52498,1,8,0:0:0:0:
256,76,52832,5,0,0:0:0:0:
256,76,53164,1,0,0:0:0:0:
256,76,53331,1,0,0:0:0:0:
256,76,53498,1,8,0:0:0:0:
256,76,53831,1,8,0:0:0:0:
256,76,53998,1,0,0:0:0:0:
256,76,54165,1,8,0:0:0:0:
256,76,54498,1,0,0:0:0:0:
256,76,54832,1,8,0:0:0:0:
72,8,55165,1,8,0:0:0:0:
256,76,55332,1,8,0:0:0:0:
256,76,55498,1,0,0:0:0:0:
256,76,55831,1,8,0:0:0:0:
256,76,55998,1,0,0:0:0:0:
256,76,56165,1,8,0:0:0:0:
256,76,56498,1,8,0:0:0:0:
256,76,56664,1,0,0:0:0:0:
208,64,56748,1,0,0:0:0:0:
256,76,56832,1,0,0:0:0:0:
208,64,56998,1,8,0:0:0:0:
256,76,57164,1,0,0:0:0:0:
256,76,57498,1,8,0:0:0:0:
256,76,57832,1,8,0:0:0:0:
256,76,58165,5,4,0:0:0:0:
264,288,58498,1,8,0:0:0:0:
260,172,58665,1,0,0:0:0:0:
264,280,58832,1,8,0:0:0:0:
252,4,59332,1,8,0:0:0:0:
256,80,59498,1,8,0:0:0:0:
260,144,59665,1,0,0:0:0:0:
260,204,59832,1,8,0:0:0:0:
260,204,59998,1,0,0:0:0:0:
260,204,60165,1,8,0:0:0:0:
260,204,60665,1,0,0:0:0:0:
260,204,60832,1,8,0:0:0:0:
236,160,60915,1,8,0:0:0:0:
260,204,60998,1,8,0:0:0:0:
260,204,61165,1,0,0:0:0:0:
260,204,61332,1,0,0:0:0:0:
260,204,61498,1,8,0:0:0:0:
260,204,61832,1,0,0:0:0:0:
260,204,61998,1,8,0:0:0:0:
260,204,62165,1,0,0:0:0:0:
260,204,62332,1,8,0:0:0:0:
260,204,62498,1,0,0:0:0:0:
260,204,62832,1,8,0:0:0:0:
260,204,63165,1,8,0:0:0:0:
256,76,63498,5,0,0:0:0:0:
264,288,63831,1,8,0:0:0:0:
260,172,63998,1,0,0:0:0:0:
264,280,64165,1,8,0:0:0:0:
172,108,64498,1,0,0:0:0:0:
252,4,64665,1,8,0:0:0:0:
256,80,64831,1,8,0:0:0:0:
260,144,64998,1,0,0:0:0:0:
260,204,65165,1,8,0:0:0:0:
260,204,65331,1,0,0:0:0:0:
260,204,65498,1,8,0:0:0:0:
260,204,65998,1,8,0:0:0:0:
260,204,66165,1,0,0:0:0:0:
236,160,66248,1,0,0:0:0:0:
260,204,66331,1,0,0:0:0:0:
260,204,66498,1,8,0:0:0:0:
260,204,66665,1,0,0:0:0:0:
260,204,66831,1,8,0:0:0:0:
260,204,67165,1,0,0:0:0:0:
260,204,67331,1,8,0:0:0:0:
260,204,67498,1,0,0:0:0:0:
260,204,67665,1,8,0:0:0:0:
260,204,67831,1,0,0:0:0:0:
260,204,68165,1,8,0:0:0:0:
260,204,68498,1,8,0:0:0:0:
260,204,68832,5,4,0:0:0:0:
164,64,69332,1,0,0:0:0:0:
164,64,69498,1,8,0:0:0:0:
164,64,69665,1,8,0:0:0:0:
164,64,69998,1,8,0:0:0:0:
164,64,70165,1,0,0:0:0:0:
164,64,70332,1,0,0:0:0:0:
164,64,70832,1,8,0:0:0:0:
164,64,70998,1,0,0:0:0:0:
164,64,71165,1,8,0:0:0:0:
164,64,71332,1,8,0:0:0:0:
164,64,71498,1,0,0:0:0:0:
160,68,71665,1,0,0:0:0:0:
164,64,71998,1,0,0:0:0:0:
164,64,72165,1,8,0:0:0:0:
160,68,72332,1,8,0:0:0:0:
164,64,72665,1,8,0:0:0:0:
164,64,72832,1,8,0:0:0:0:
168,64,72915,1,8,0:0:0:0:
168,64,72998,1,8,0:0:0:0:
164,64,73165,1,0,0:0:0:0:
164,64,73498,1,8,0:0:0:0:
164,64,73832,1,8,0:0:0:0:
164,64,74165,5,0,0:0:0:0:
268,228,74665,1,0,0:0:0:0:
428,332,74832,1,8,0:0:0:0:
316,216,75165,1,0,0:0:0:0:
200,96,75332,1,0,0:0:0:0:
200,96,75832,1,0,0:0:0:0:
112,56,75998,1,0,0:0:0:0:
200,96,76165,1,8,0:0:0:0:
136,20,76332,1,0,0:0:0:0:
200,96,76498,1,8,0:0:0:0:
200,96,76832,1,0,0:0:0:0:
180,64,77332,1,0,0:0:0:0:
200,96,77498,1,8,0:0:0:0:
200,96,77832,1,8,0:0:0:0:
200,96,78165,1,4,0:0:0:0:
200,96,78498,1,0,0:0:0:0:
200,96,78832,1,8,0:0:0:0:
200,96,79165,1,8,0:0:0:0:
200,96,79498,1,0,0:0:0:0:
