osu file format v14

[General]
AudioFilename: audio.mp3
AudioLeadIn: 0
PreviewTime: 58165
Countdown: 0
SampleSet: Normal
StackLeniency: 0.7
Mode: 1
LetterboxInBreaks: 0
WidescreenStoryboard: 0

[Editor]
DistanceSpacing: 1.4
BeatDivisor: 8
GridSize: 4
TimelineZoom: 1.999998

[Metadata]
Title:Freesia
TitleUnicode:Freesia
Artist:(K)NoW_NAME
ArtistUnicode:(K)NoW_NAME
Creator:Skylish
Version:Friendsia Inner Oni
Source:サクラクエスト
Tags:Sakura Quest P.A.WORKS taiko tv size know name knowname genki mizuno R.O.N ayaka tachibana
BeatmapID:1484903
BeatmapSetID:701640

[Difficulty]
HPDrainRate:7
CircleSize:5
OverallDifficulty:6
ApproachRate:5
SliderMultiplier:1.4
SliderTickRate:1

[Events]
//Background and Video events
0,0,"803901.png",0,60
//Break Periods
//Storyboard Layer 0 (Background)
//Storyboard Layer 1 (Fail)
//Storyboard Layer 2 (Pass)
//Storyboard Layer 3 (Foreground)
//Storyboard Sound Samples

[TimingPoints]
4832,666.666666666667,4,1,0,50,1,0
4832,-50,4,1,0,50,0,0
36832,-50,4,1,0,70,0,0
58165,-50,4,1,0,90,0,1
79498,-50,4,1,0,90,0,0

[HitObjects]
220,160,4832,5,0,0:0:0:0:
220,160,4998,1,0,0:0:0:0:
220,160,5165,1,8,0:0:0:0:
220,160,5332,1,0,0:0:0:0:
220,160,5832,1,0,0:0:0:0:
220,160,5998,1,0,0:0:0:0:
220,160,6165,1,8,0:0:0:0:
220,160,6332,1,0,0:0:0:0:
220,160,6832,1,8,0:0:0:0:
220,160,7498,5,0,0:0:0:0:
220,160,7664,1,0,0:0:0:0:
220,160,7831,1,8,0:0:0:0:
220,160,7998,1,0,0:0:0:0:
220,160,8498,1,0,0:0:0:0:
220,160,8664,1,0,0:0:0:0:
220,160,8831,1,8,0:0:0:0:
220,160,8998,1,0,0:0:0:0:
220,160,9498,1,12,0:0:0:0:
220,160,10165,5,0,0:0:0:0:
220,160,10331,1,0,0:0:0:0:
220,160,10498,1,8,0:0:0:0:
220,160,10665,1,0,0:0:0:0:
220,160,11165,1,0,0:0:0:0:
220,160,11331,1,0,0:0:0:0:
220,160,11498,1,8,0:0:0:0:
220,160,11665,1,0,0:0:0:0:
220,160,12165,1,8,0:0:0:0:
220,160,12831,5,0,0:0:0:0:
220,160,12997,1,0,0:0:0:0:
220,160,13164,1,8,0:0:0:0:
220,160,13331,1,0,0:0:0:0:
220,160,13831,1,0,0:0:0:0:
220,160,13997,1,0,0:0:0:0:
220,160,14164,1,8,0:0:0:0:
220,160,14331,1,0,0:0:0:0:
220,160,14498,1,0,0:0:0:0:
220,160,14582,1,0,0:0:0:0:
220,160,14665,1,0,0:0:0:0:
220,160,14831,1,12,0:0:0:0:
192,76,15498,5,4,0:0:0:0:
192,248,16165,1,8,0:0:0:0:
196,328,16498,1,0,0:0:0:0:
188,236,16832,1,8,0:0:0:0:
192,280,16998,1,0,0:0:0:0:
192,280,17165,1,8,0:0:0:0:
192,280,17498,1,8,0:0:0:0:
192,280,17832,1,0,0:0:0:0:
192,280,18165,1,0,0:0:0:0:
192,280,18832,1,8,0:0:0:0:
192,280,19165,1,0,0:0:0:0:
192,280,19498,1,8,0:0:0:0:
192,280,19665,1,8,0:0:0:0:
192,280,19832,1,0,0:0:0:0:
192,280,20165,1,8,0:0:0:0:
192,280,20498,1,8,0:0:0:0:
192,280,20832,5,0,0:0:0:0:
220,188,21165,1,8,0:0:0:0:
236,140,21332,1,0,0:0:0:0:
192,280,21498,1,8,0:0:0:0:
192,280,21832,1,8,0:0:0:0:
192,280,22165,1,0,0:0:0:0:
228,188,22498,1,0,0:0:0:0:
192,280,22832,1,8,0:0:0:0:
192,280,23498,1,0,0:0:0:0:
192,280,23832,1,0,0:0:0:0:
192,280,24165,1,8,0:0:0:0:
192,280,24498,1,0,0:0:0:0:
192,280,24665,1,8,0:0:0:0:
192,280,24832,1,0,0:0:0:0:
192,280,25165,1,0,0:0:0:0:
192,280,25498,1,8,0:0:0:0:
192,76,26165,5,4,0:0:0:0:
192,248,26832,1,8,0:0:0:0:
196,328,27165,1,0,0:0:0:0:
188,236,27499,1,8,0:0:0:0:
192,280,27665,1,0,0:0:0:0:
192,280,27832,1,8,0:0:0:0:
192,280,28165,1,8,0:0:0:0:
192,280,28499,1,0,0:0:0:0:
192,280,28832,1,0,0:0:0:0:
192,280,29499,1,8,0:0:0:0:
192,280,29832,1,0,0:0:0:0:
192,280,30165,1,8,0:0:0:0:
192,280,30332,1,8,0:0:0:0:
192,280,30499,1,0,0:0:0:0:
192,280,30832,1,8,0:0:0:0:
192,280,31165,1,8,0:0:0:0:
192,280,31499,5,0,0:0:0:0:
200,184,31832,1,8,0:0:0:0:
204,136,31998,1,0,0:0:0:0:
192,280,32165,1,8,0:0:0:0:
192,280,32499,1,8,0:0:0:0:
192,280,32832,1,0,0:0:0:0:
200,232,32998,1,8,0:0:0:0:
228,188,33165,1,0,0:0:0:0:
192,280,33499,1,8,0:0:0:0:
192,280,34165,1,0,0:0:0:0:
192,280,34499,1,0,0:0:0:0:
208,232,34665,1,0,0:0:0:0:
192,280,34832,1,8,0:0:0:0:
192,280,35165,1,8,0:0:0:0:
192,280,35499,1,0,0:0:0:0:
200,232,35665,1,8,0:0:0:0:
192,280,35832,5,0,0:0:0:0:
192,256,35915,1,0,0:0:0:0:
196,184,35998,1,0,0:0:0:0:
192,280,36165,1,8,0:0:0:0:
196,184,36498,1,8,0:0:0:0:
192,280,36832,5,4,0:0:0:0:
192,280,37498,1,8,0:0:0:0:
192,280,37832,1,8,0:0:0:0:
168,184,37998,1,8,0:0:0:0:
180,232,38082,1,8,0:0:0:0:
180,232,38165,1,8,0:0:0:0:
192,280,38332,1,0,0:0:0:0:
192,280,38498,1,0,0:0:0:0:
192,280,38832,1,8,0:0:0:0:
192,280,39165,1,8,0:0:0:0:
192,280,39498,1,0,0:0:0:0:
192,280,39998,1,8,0:0:0:0:
188,180,40165,1,8,0:0:0:0:
192,280,40498,1,0,0:0:0:0:
240,140,40665,1,8,0:0:0:0:
272,48,40832,1,0,0:0:0:0:
180,84,40998,1,8,0:0:0:0:
192,280,41082,1,8,0:0:0:0:
180,84,41165,1,8,0:0:0:0:
180,84,41332,1,0,0:0:0:0:
192,280,41498,1,8,0:0:0:0:
192,280,41832,1,8,0:0:0:0:
192,280,42165,1,0,0:0:0:0:
188,132,42498,1,8,0:0:0:0:
192,280,42665,1,8,0:0:0:0:
192,280,42832,1,8,0:0:0:0:
192,280,43165,1,8,0:0:0:0:
192,280,43332,1,0,0:0:0:0:
192,280,43498,1,8,0:0:0:0:
200,84,43582,1,8,0:0:0:0:
192,280,43665,1,8,0:0:0:0:
192,280,43832,1,0,0:0:0:0:
192,280,44165,1,8,0:0:0:0:
200,84,44498,1,8,0:0:0:0:
200,84,44665,1,8,0:0:0:0:
192,280,44832,5,0,0:0:0:0:
192,280,45165,1,0,0:0:0:0:
192,280,45332,1,0,0:0:0:0:
192,280,45498,1,8,0:0:0:0:
192,280,45832,1,8,0:0:0:0:
192,280,45998,1,0,0:0:0:0:
192,280,46165,1,8,0:0:0:0:
192,280,46248,1,8,0:0:0:0:
192,280,46332,1,8,0:0:0:0:
192,232,46498,1,8,0:0:0:0:
192,280,46665,1,0,0:0:0:0:
192,280,46832,1,8,0:0:0:0:
192,280,47165,1,0,0:0:0:0:
192,280,47498,5,0,0:0:0:0:
192,280,48164,1,8,0:0:0:0:
192,280,48498,1,8,0:0:0:0:
168,184,48664,1,8,0:0:0:0:
180,232,48748,1,8,0:0:0:0:
180,232,48831,1,8,0:0:0:0:
192,280,48998,1,0,0:0:0:0:
192,280,49164,1,0,0:0:0:0:
192,280,49498,1,8,0:0:0:0:
192,280,49831,1,0,0:0:0:0:
192,280,50164,1,8,0:0:0:0:
192,280,50664,1,8,0:0:0:0:
188,180,50831,1,8,0:0:0:0:
192,280,51165,1,0,0:0:0:0:
240,140,51331,1,0,0:0:0:0:
272,48,51498,1,8,0:0:0:0:
180,84,51664,1,8,0:0:0:0:
192,280,51748,1,8,0:0:0:0:
180,84,51831,1,8,0:0:0:0:
180,84,51998,1,0,0:0:0:0:
192,280,52164,1,8,0:0:0:0:
192,280,52498,1,8,0:0:0:0:
192,280,52831,5,0,0:0:0:0:
188,132,53164,1,0,0:0:0:0:
192,280,53331,1,0,0:0:0:0:
192,280,53498,1,8,0:0:0:0:
192,280,53831,1,8,0:0:0:0:
192,280,53998,1,0,0:0:0:0:
192,280,54164,1,8,0:0:0:0:
200,84,54248,1,8,0:0:0:0:
192,280,54331,1,8,0:0:0:0:
192,280,54498,1,0,0:0:0:0:
192,280,54831,1,8,0:0:0:0:
200,84,55164,1,8,0:0:0:0:
200,84,55331,1,8,0:0:0:0:
192,280,55498,1,0,0:0:0:0:
192,280,55832,1,8,0:0:0:0:
192,280,55998,1,0,0:0:0:0:
192,280,56164,1,8,0:0:0:0:
192,280,56498,1,8,0:0:0:0:
192,280,56665,1,0,0:0:0:0:
216,236,56748,1,0,0:0:0:0:
192,280,56831,1,8,0:0:0:0:
192,280,56914,1,8,0:0:0:0:
192,280,56998,1,0,0:0:0:0:
192,232,57164,1,8,0:0:0:0:
192,280,57332,1,0,0:0:0:0:
192,280,57498,1,8,0:0:0:0:
200,184,57582,1,8,0:0:0:0:
200,184,57665,1,8,0:0:0:0:
192,280,57832,1,0,0:0:0:0:
200,184,57998,1,0,0:0:0:0:
192,280,58165,5,12,0:0:0:0:
260,96,58498,1,8,0:0:0:0:
224,188,58665,1,0,0:0:0:0:
224,188,58832,1,8,0:0:0:0:
212,140,58915,1,8,0:0:0:0:
212,140,58998,1,8,0:0:0:0:
212,140,59165,1,8,0:0:0:0:
224,188,59332,1,0,0:0:0:0:
224,188,59498,1,8,0:0:0:0:
212,140,59582,1,8,0:0:0:0:
176,104,59665,1,0,0:0:0:0:
224,188,59832,1,8,0:0:0:0:
224,188,59998,1,0,0:0:0:0:
224,188,60165,1,8,0:0:0:0:
212,140,60498,1,8,0:0:0:0:
228,144,60665,1,0,0:0:0:0:
228,144,60748,1,0,0:0:0:0:
228,144,60832,1,0,0:0:0:0:
228,144,60998,1,8,0:0:0:0:
228,144,61165,1,0,0:0:0:0:
188,52,61332,1,0,0:0:0:0:
180,148,61498,1,8,0:0:0:0:
192,100,61832,1,0,0:0:0:0:
192,100,61998,1,8,0:0:0:0:
240,104,62082,1,8,0:0:0:0:
192,100,62165,1,0,0:0:0:0:
192,100,62332,1,8,0:0:0:0:
192,100,62498,1,0,0:0:0:0:
204,116,62832,1,8,0:0:0:0:
244,28,62998,1,0,0:0:0:0:
204,116,63165,1,8,0:0:0:0:
204,116,63332,1,8,0:0:0:0:
204,116,63415,1,8,0:0:0:0:
192,280,63498,5,0,0:0:0:0:
260,96,63831,1,8,0:0:0:0:
224,188,63998,1,0,0:0:0:0:
224,188,64165,1,8,0:0:0:0:
212,140,64248,1,8,0:0:0:0:
212,140,64331,1,8,0:0:0:0:
212,140,64498,1,8,0:0:0:0:
224,188,64665,1,0,0:0:0:0:
208,140,64748,1,0,0:0:0:0:
224,188,64831,1,8,0:0:0:0:
176,104,64998,1,0,0:0:0:0:
224,188,65165,1,8,0:0:0:0:
224,188,65331,1,0,0:0:0:0:
224,188,65498,1,8,0:0:0:0:
212,140,65831,1,0,0:0:0:0:
228,144,65998,1,8,0:0:0:0:
228,144,66081,1,8,0:0:0:0:
228,144,66165,1,0,0:0:0:0:
228,144,66331,1,8,0:0:0:0:
228,144,66498,1,8,0:0:0:0:
188,52,66665,1,0,0:0:0:0:
180,148,66831,1,8,0:0:0:0:
192,100,67165,1,0,0:0:0:0:
192,100,67331,1,8,0:0:0:0:
192,100,67498,1,0,0:0:0:0:
240,104,67582,1,0,0:0:0:0:
192,100,67665,1,8,0:0:0:0:
192,100,67831,1,0,0:0:0:0:
204,116,68165,1,8,0:0:0:0:
184,72,68248,1,8,0:0:0:0:
244,28,68331,1,0,0:0:0:0:
204,116,68498,1,8,0:0:0:0:
204,116,68665,1,8,0:0:0:0:
204,116,68831,5,4,0:0:0:0:
204,116,69332,1,0,0:0:0:0:
204,116,69498,1,8,0:0:0:0:
204,116,69582,1,8,0:0:0:0:
204,116,69665,1,0,0:0:0:0:
204,88,69832,1,8,0:0:0:0:
204,88,69998,1,0,0:0:0:0:
204,88,70165,1,8,0:0:0:0:
204,88,70248,1,8,0:0:0:0:
204,88,70332,1,8,0:0:0:0:
204,88,70498,1,0,0:0:0:0:
204,88,70832,5,8,0:0:0:0:
204,88,70998,1,0,0:0:0:0:
204,88,71165,1,8,0:0:0:0:
204,88,71332,1,8,0:0:0:0:
204,88,71498,1,0,0:0:0:0:
204,88,71582,1,0,0:0:0:0:
204,88,71665,1,8,0:0:0:0:
204,88,71832,1,8,0:0:0:0:
204,88,71998,1,0,0:0:0:0:
204,88,72165,1,8,0:0:0:0:
204,88,72248,1,8,0:0:0:0:
204,88,72332,1,0,0:0:0:0:
184,132,72415,1,0,0:0:0:0:
204,88,72498,1,8,0:0:0:0:
204,88,72665,1,0,0:0:0:0:
204,88,72832,1,8,0:0:0:0:
204,88,73165,1,8,0:0:0:0:
204,88,73248,1,8,0:0:0:0:
224,84,73332,1,0,0:0:0:0:
204,88,73498,1,8,0:0:0:0:
204,88,73665,1,0,0:0:0:0:
224,84,73832,1,8,0:0:0:0:
224,84,74165,5,0,0:0:0:0:
204,88,74498,1,0,0:0:0:0:
204,92,74665,1,0,0:0:0:0:
204,92,74832,1,8,0:0:0:0:
204,92,75165,1,0,0:0:0:0:
204,92,75332,1,8,0:0:0:0:
204,88,75498,1,0,0:0:0:0:
204,92,75582,1,0,0:0:0:0:
204,92,75665,1,8,0:0:0:0:
228,284,75832,1,0,0:0:0:0:
204,92,75998,1,0,0:0:0:0:
228,284,76165,1,8,0:0:0:0:
204,92,76332,1,0,0:0:0:0:
228,284,76498,1,8,0:0:0:0:
228,284,76832,5,0,0:0:0:0:
200,92,77165,1,8,0:0:0:0:
200,92,77332,1,0,0:0:0:0:
228,284,77498,1,8,0:0:0:0:
200,92,77582,1,8,0:0:0:0:
200,92,77665,1,0,0:0:0:0:
228,284,77832,1,8,0:0:0:0:
216,188,77998,1,8,0:0:0:0:
228,284,78165,5,4,0:0:0:0:
228,284,78498,1,0,0:0:0:0:
184,188,78665,1,0,0:0:0:0:
228,284,78832,1,8,0:0:0:0:
228,284,79165,1,8,0:0:0:0:
228,284,79498,1,0,0:0:0:0:
