osu file format v14

[General]
AudioFilename: audio.mp3
AudioLeadIn: 0
PreviewTime: 58163
Countdown: 0
SampleSet: Soft
StackLeniency: 0.3
Mode: 0
LetterboxInBreaks: 0
WidescreenStoryboard: 0

[Editor]
DistanceSpacing: 1
BeatDivisor: 4
GridSize: 4
TimelineZoom: 1.7

[Metadata]
Title:Freesia
TitleUnicode:Freesia
Artist:(K)NoW_NAME
ArtistUnicode:(K)NoW_NAME
Creator:LeKhanhHoa
Version:Normal
Source:サクラクエスト
Tags:Sakura Quest know name ed ending lmt tv size
BeatmapID:1320858
BeatmapSetID:626728

[Difficulty]
HPDrainRate:4
CircleSize:3.5
OverallDifficulty:4
ApproachRate:4.5
SliderMultiplier:1.8
SliderTickRate:1

[Events]
//Background and Video events
Video,-85,"(K)NoW_NAME~1.avi"
0,0,"thumb-1920-803901.jpg",0,0
//Break Periods
//Storyboard Layer 0 (Background)
//Storyboard Layer 1 (Fail)
//Storyboard Layer 2 (Pass)
//Storyboard Layer 3 (Foreground)
//Storyboard Sound Samples

[TimingPoints]
4830,666.666666666667,4,2,1,30,1,0
4830,-125,4,2,1,30,0,0
15330,-100,4,2,1,5,0,0
15496,-125,4,2,1,40,0,0
36163,-125,4,2,1,50,0,0
36830,-100,4,2,1,50,0,0
56663,-100,4,2,1,60,0,0
58163,-100,4,2,2,70,0,1
77996,-100,4,2,2,70,0,1
78163,-100,4,2,2,50,0,1
78330,-100,4,2,2,70,0,1
79496,-125,4,2,3,30,0,0
79663,-125,4,2,1,30,0,0
81830,-125,4,2,1,5,0,0
82163,-125,4,2,1,30,0,0
84496,-125,4,2,1,5,0,0
84830,-125,4,2,1,30,0,0
87163,-125,4,2,1,5,0,0
87496,-125,4,2,1,30,0,0

[Colours]
Combo1 : 216,216,216
Combo2 : 250,20,44
Combo3 : 22,50,241
Combo4 : 79,225,30
Combo5 : 231,236,34
Combo6 : 255,128,192
Combo7 : 255,0,128

[HitObjects]
148,37,4830,6,0,P|130:91|147:149,1,108,8|0,0:0|0:0,0:0:0:0:
142,247,5830,2,0,P|197:235|239:191,1,108,8|0,0:0|0:0,0:0:0:0:
231,92,6830,1,8,0:0:0:0:
354,18,7496,6,0,L|344:126,1,108,8|0,0:0|0:0,0:0:0:0:
421,202,8496,2,0,L|430:310,1,108,8|0,0:0|0:0,0:0:0:0:
326,339,9496,1,12,0:0:0:0:
208,255,10163,6,0,P|168:229|105:231,1,108,8|0,0:0|0:0,0:0:0:0:
6,264,11163,2,0,P|0:212|34:151,1,108,8|0,0:0|0:0,0:0:0:0:
122,120,12163,1,8,0:0:0:0:
255,174,12830,6,0,L|371:184,1,108,8|0,0:0|0:0,0:0:0:0:
408,85,13830,2,0,L|291:95,1,108,8|0,0:0|0:0,0:0:0:0:
200,53,14830,1,12,0:0:0:0:
87,142,15496,54,0,P|74:187|94:252,1,108,6|0,0:0|0:0,0:0:0:0:
117,277,16163,1,8,0:0:0:0:
198,248,16496,2,0,P|233:239|273:245,1,72,0|0,0:0|0:0,0:0:0:0:
309,257,16996,1,0,0:0:0:0:
350,268,17163,2,0,P|359:233|353:193,1,72,0|12,3:0|0:0,0:0:0:0:
342,29,18163,6,0,L|223:38,1,108,2|0,0:0|0:0,0:0:0:0:
202,66,18830,1,8,0:0:0:0:
191,151,19163,2,0,L|182:234,1,72,0|0,0:0|0:0,0:0:0:0:
148,247,19663,2,0,P|135:292|155:357,1,108,0|12,0:0|0:0,0:0:0:0:
310,285,20830,5,2,0:0:0:0:
351,360,21163,2,0,L|422:354,1,72,0|8,0:0|0:0,0:0:0:0:
499,314,21830,1,0,0:0:0:0:
484,230,22163,2,0,L|477:153,1,72,0|0,0:0|3:0,0:0:0:0:
401,117,22830,1,12,0:0:0:0:
288,27,23496,5,2,0:0:0:0:
223,84,23830,2,0,P|215:116|227:163,1,72,0|8,0:0|0:0,0:0:0:0:
294,200,24496,1,0,0:0:0:0:
333,276,24830,2,0,P|341:308|329:355,1,72,0|0,0:0|3:0,0:0:0:0:
249,362,25496,1,12,0:0:0:0:
90,292,26163,54,0,L|80:175,1,108,2|0,0:0|0:0,0:0:0:0:
76,141,26830,1,8,0:0:0:0:
119,66,27163,2,0,P|163:60|201:72,1,72,0|0,0:0|0:0,0:0:0:0:
230,82,27663,1,0,0:0:0:0:
269,99,27830,2,0,L|262:176,1,72,0|12,3:0|0:0,0:0:0:0:
429,209,28830,6,0,L|419:320,1,108,2|0,0:0|0:0,0:0:0:0:
383,341,29496,1,8,0:0:0:0:
314,287,29830,2,0,P|271:279|235:290,1,72,0|0,0:0|0:0,0:0:0:0:
205,305,30330,1,0,0:0:0:0:
174,334,30496,2,0,L|93:325,1,72,0|12,3:0|0:0,0:0:0:0:
64,157,31496,5,2,0:0:0:0:
136,109,31830,2,0,L|129:22,1,72,0|8,0:0|0:0,0:0:0:0:
216,28,32496,1,0,0:0:0:0:
296,59,32830,2,0,L|382:65,1,72,0|0,0:0|3:0,0:0:0:0:
442,108,33496,1,12,0:0:0:0:
482,276,34163,6,0,L|366:266,1,108,2|0,0:0|0:0,0:0:0:0:
345,235,34830,1,8,0:0:0:0:
261,255,35163,1,0,0:0:0:0:
242,340,35496,2,0,L|126:329,1,108,0|2,0:0|0:1,0:0:0:0:
108,295,36163,2,0,P|116:259|105:210,1,72,12|0,0:0|0:0,0:0:0:0:
43,149,36830,54,0,P|76:167|170:150,1,135,6|0,0:0|0:0,0:0:0:0:
192,113,37496,2,0,L|288:121,2,90,8|0|0,0:0|0:0|0:0,0:0:0:0:
111,72,38496,1,2,0:0:0:0:
187,23,38830,2,0,L|283:14,1,90,12|0,0:0|0:0,0:0:0:0:
351,64,39496,6,0,P|366:100|356:155,1,90,2|0,0:0|0:0,0:0:0:0:
333,186,39996,2,0,P|322:220|333:273,1,90
339,316,40496,2,0,L|235:306,1,90
190,240,41163,1,2,0:0:0:0:
111,284,41496,2,0,P|100:250|111:197,1,90,12|0,0:0|0:0,0:0:0:0:
158,121,42163,5,2,0:0:0:0:
222,58,42496,2,0,L|326:49,1,90,0|8,0:0|0:0,0:0:0:0:
365,122,43163,2,0,L|469:130,1,90,0|0,0:0|0:0,0:0:0:0:
476,216,43830,1,2,0:0:0:0:
438,299,44163,1,12,0:0:0:0:
382,227,44496,6,0,P|327:219|290:228,1,90,0|2,0:0|0:0,0:0:0:0:
231,291,45163,2,0,P|176:299|139:290,1,90,0|8,0:0|0:0,0:0:0:0:
61,253,45830,2,0,L|52:155,1,90,0|0,0:0|0:0,0:0:0:0:
127,112,46496,1,0,0:0:0:0:
91,29,46830,2,0,P|139:22|179:36,1,90,12|0,0:0|0:0,0:0:0:0:
233,105,47496,54,0,P|299:128|373:105,1,135,2|0,0:0|0:0,0:0:0:0:
403,125,48163,2,0,P|437:114|490:125,2,90,8|0|0,0:0|0:0|0:0,0:0:0:0:
446,203,49163,1,2,0:0:0:0:
488,282,49496,2,0,P|454:293|401:282,1,90,12|0,0:0|0:0,0:0:0:0:
350,208,50163,6,0,L|256:199,1,90,2|0,0:0|0:0,0:0:0:0:
225,228,50663,2,0,P|214:262|225:315,1,90,0|0,0:0|0:0,0:0:0:0:
193,346,51163,2,0,P|159:357|106:346,1,90,0|0,0:0|0:0,0:0:0:0:
126,258,51830,1,2,0:0:0:0:
159,174,52163,2,0,P|170:140|159:87,1,90,12|0,0:0|0:0,0:0:0:0:
105,15,52830,6,0,L|208:4,2,90,2|0|8,0:0|0:0|0:0,0:0:0:0:
55,90,53830,2,0,L|59:137,1,45,0|0,0:0|0:0,0:0:0:0:
42,176,54163,2,0,L|33:276,1,90,0|2,0:0|0:0,0:0:0:0:
112,309,54830,1,12,0:0:0:0:
204,302,55163,6,0,L|297:293,1,90,0|2,0:0|0:0,0:0:0:0:
358,231,55830,2,0,P|369:197|358:144,1,90,0|8,0:0|0:0,0:0:0:0:
316,65,56496,1,0,0:0:0:0:
255,131,56830,37,2,0:1:0:0:
225,46,57163,1,2,0:1:0:0:
167,114,57496,1,12,0:0:0:0:
137,29,57829,1,0,0:0:0:0:
76,96,58163,70,0,P|62:161|77:206,1,90,4|2,0:0|0:0,0:0:0:0:
154,204,58830,2,0,P|168:269|153:314,1,90,8|0,0:0|0:0,0:0:0:0:
161,335,59330,1,8,0:0:0:0:
196,365,59496,2,0,L|300:354,1,90,0|2,0:0|0:0,0:0:0:0:
302,267,60163,2,0,L|406:256,1,90,8|0,0:0|0:0,0:0:0:0:
464,204,60830,6,0,P|478:139|463:94,1,90,2|2,0:0|0:0,0:0:0:0:
416,47,61496,1,8,0:0:0:0:
360,118,61830,2,0,L|363:174,2,45,0|8|0,0:0|0:0|0:0,0:0:0:0:
291,59,62496,1,2,0:0:0:0:
247,138,62830,2,0,L|143:127,1,90,8|0,0:0|0:0,0:0:0:0:
78,171,63496,86,0,L|89:275,1,90,4|2,0:0|0:0,0:0:0:0:
159,314,64163,2,0,L|170:210,1,90,8|0,0:0|0:0,0:0:0:0:
210,207,64663,1,8,0:0:0:0:
253,217,64830,2,0,P|318:231|363:216,1,90,0|2,0:0|0:0,0:0:0:0:
305,143,65496,2,0,L|316:39,1,90,8|0,0:0|0:0,0:0:0:0:
400,78,66163,6,0,P|414:143|399:188,1,90,2|2,0:0|0:0,0:0:0:0:
339,226,66830,1,8,0:0:0:0:
401,290,67163,2,0,L|451:294,2,45,0|8|0,0:0|0:0|0:0,0:0:0:0:
328,343,67830,1,2,0:0:0:0:
261,282,68163,2,0,B|196:268|196:268|117:289,1,135,8|0,0:0|0:0,0:0:0:0:
86,297,68830,86,0,L|99:144,1,135,4|0,0:0|0:0,0:0:0:0:
140,147,69496,2,0,L|148:38,1,90,8|0,0:0|0:0,0:0:0:0:
186,35,69996,1,8,0:0:0:0:
229,23,70163,2,0,P|294:9|339:24,1,90,0|2,0:0|0:0,0:0:0:0:
285,98,70830,2,0,B|350:112|350:112|429:91,1,135,8|0,0:0|0:0,0:0:0:0:
459,84,71496,6,0,L|471:226,1,135,4|0,0:0|0:0,0:0:0:0:
454,262,72163,2,0,P|389:276|344:261,1,90,8|0,0:0|0:0,0:0:0:0:
334,240,72663,1,8,0:0:0:0:
296,214,72830,2,0,P|231:200|186:215,1,90,0|2,0:0|0:0,0:0:0:0:
243,287,73496,85,8,0:0:0:0:
180,352,73830,1,0,0:0:0:0:
125,283,74163,2,0,L|136:166,1,90,4|2,0:0|0:0,0:0:0:0:
89,114,74830,1,8,0:0:0:0:
9,156,75163,2,0,L|13:209,2,45,0|8|0,0:0|0:0|0:0,0:0:0:0:
15,66,75830,1,2,0:0:0:0:
89,114,76163,5,8,0:0:0:0:
169,73,76496,1,0,0:0:0:0:
258,97,76830,2,0,P|272:162|257:207,1,90,4|2,0:0|0:0,0:0:0:0:
212,254,77496,2,0,P|198:319|213:364,1,90,8|0,0:0|0:0,0:0:0:0:
247,341,77996,2,0,L|304:335,1,45,8|4,0:0|0:0,0:0:0:0:
380,354,78496,1,2,0:0:0:0:
359,266,78830,1,2,0:0:0:0:
419,199,79163,2,0,L|424:134,1,45,2|0,0:0|0:0,0:0:0:0:
403,123,79496,22,0,L|268:110,1,108,4|0,0:0|0:0,0:0:0:0:
196,69,80496,2,0,L|61:82,1,108,8|0,0:0|0:0,0:0:0:0:
88,79,82163,6,0,P|106:133|89:191,1,108,8|0,0:0|0:0,0:0:0:0:
39,274,83163,2,0,P|93:292|151:275,1,108,8|0,0:0|0:0,0:0:0:0:
141,280,84830,6,0,L|277:269,1,108,8|0,0:0|0:0,0:0:0:0:
333,338,85830,2,0,L|470:327,1,108,8|0,0:0|0:0,0:0:0:0:
440,329,87496,6,0,P|458:275|441:217,1,108,8|0,0:0|0:0,0:0:0:0:
342,198,88496,2,0,P|324:144|341:86,1,108,8|0,0:0|0:0,0:0:0:0:
