osu file format v14

[General]
AudioFilename: audio.mp3
AudioLeadIn: 0
PreviewTime: 58163
Countdown: 0
SampleSet: Soft
StackLeniency: 0.3
Mode: 0
LetterboxInBreaks: 0
WidescreenStoryboard: 0

[Editor]
Bookmarks: 56043,77376
DistanceSpacing: 0.9
BeatDivisor: 4
GridSize: 4
TimelineZoom: 1.7

[Metadata]
Title:Freesia
TitleUnicode:Freesia
Artist:(K)NoW_NAME
ArtistUnicode:(K)NoW_NAME
Creator:LeKhanhHoa
Version:LMT's Hard
Source:サクラクエスト
Tags:Sakura Quest know name ed ending lmt tv size
BeatmapID:1320857
BeatmapSetID:626728

[Difficulty]
HPDrainRate:5
CircleSize:4
OverallDifficulty:5
ApproachRate:7.5
SliderMultiplier:1.7
SliderTickRate:1

[Events]
//Background and Video events
Video,-85,"(K)NoW_NAME~1.avi"
0,0,"thumb-1920-803901.jpg",0,0
//Break Periods
//Storyboard Layer 0 (Background)
//Storyboard Layer 1 (Fail)
//Storyboard Layer 2 (Pass)
//Storyboard Layer 3 (Foreground)
//Storyboard Sound Samples

[TimingPoints]
4830,666.666666666667,4,2,1,30,1,0
4830,-133.333333333333,4,2,1,30,0,0
15330,-100,4,2,1,5,0,0
15496,-100,4,2,1,40,0,0
36163,-100,4,2,1,50,0,0
36830,-83.3333333333333,4,2,1,50,0,0
56663,-83.3333333333333,4,2,1,60,0,0
58163,-83.3333333333333,4,2,2,70,0,1
77996,-83.3333333333333,4,2,2,70,0,1
78163,-83.3333333333333,4,2,2,50,0,1
78330,-83.3333333333333,4,2,2,70,0,1
79496,-133.333333333333,4,2,3,30,0,0
79663,-133.333333333333,4,2,1,30,0,0
81830,-133.333333333333,4,2,1,5,0,0
82163,-133.333333333333,4,2,1,30,0,0
84496,-133.333333333333,4,2,1,5,0,0
84830,-133.333333333333,4,2,1,30,0,0
87163,-133.333333333333,4,2,1,5,0,0
87496,-133.333333333333,4,2,1,30,0,0

[Colours]
Combo1 : 216,216,216
Combo2 : 250,20,44
Combo3 : 22,50,241
Combo4 : 79,225,30
Combo5 : 231,236,34
Combo6 : 255,128,192
Combo7 : 255,0,128

[HitObjects]
156,152,4830,6,0,L|149:101,2,31.8750012159348,8|0|0,0:0|0:0|0:0,0:0:0:0:
166,228,5330,1,0,0:0:0:0:
356,152,5830,2,0,L|363:101,2,31.8750012159348,8|0|0,0:0|0:0|0:0,0:0:0:0:
340,228,6330,1,0,0:0:0:0:
256,104,6830,1,8,0:0:0:0:
256,93,7496,6,0,L|256:61,2,31.8750012159348,8|0|0,0:0|0:0|0:0,0:0:0:0:
256,183,7996,1,0,0:0:0:0:
256,291,8496,2,0,L|255:322,2,31.8750012159348,8|0|0,0:0|0:0|0:0,0:0:0:0:
256,201,8996,1,0,0:0:0:0:
123,191,9496,1,12,0:0:0:0:
113,193,10163,6,0,L|81:193,2,31.8750012159348,8|0|0,0:0|0:0|0:0,0:0:0:0:
200,198,10663,1,0,0:0:0:0:
399,193,11163,2,0,L|430:193,2,31.8750012159348,8|0|0,0:0|0:0|0:0,0:0:0:0:
312,198,11663,1,0,0:0:0:0:
256,326,12163,1,8,0:0:0:0:
254,334,12830,6,0,L|253:365,2,31.8750012159348,8|0|0,0:0|0:0|0:0,0:0:0:0:
254,250,13330,1,0,0:0:0:0:
255,49,13830,2,0,L|254:17,2,31.8750012159348,8|0|0,0:0|0:0|0:0,0:0:0:0:
254,133,14330,1,0,0:0:0:0:
241,225,14496,38,0,L|228:235,3,15.9375006079674,2|2|2|2,2:1|2:1|2:1|2:1,0:0:0:0:
248,219,14830,2,0,P|218:211|177:213,1,63.7500024318696,12|0,0:0|0:0,0:0:0:0:
36,304,15496,6,0,L|31:252,1,42.5,6|0,0:0|0:0,0:0:0:0:
123,314,15830,2,0,L|118:366,1,42.5,0|0,0:0|0:0,0:0:0:0:
112,234,16163,1,8,0:0:0:0:
110,222,16496,6,0,L|103:172,1,42.5,0|0,0:0|0:0,0:0:0:0:
27,139,16830,2,0,L|34:89,1,42.5,0|0,0:0|0:0,0:0:0:0:
87,33,17163,1,0,3:0:0:0:
19,230,17496,2,0,L|5:330,1,85,12|0,0:0|0:0,0:0:0:0:
203,285,18163,6,0,P|233:278|258:284,1,42.5,2|0,0:0|0:0,0:0:0:0:
149,355,18496,2,0,P|119:362|94:356,1,42.5,0|0,0:0|0:0,0:0:0:0:
235,367,18830,1,8,0:0:0:0:
244,365,19163,6,0,L|305:358,1,42.5,0|0,0:0|0:0,0:0:0:0:
347,301,19496,2,0,L|412:304,1,42.5,0|0,0:0|0:0,0:0:0:0:
460,353,19830,1,0,0:0:0:0:
267,252,20163,2,0,L|166:245,1,85,12|0,0:0|0:0,0:0:0:0:
79,118,20830,54,0,L|70:61,1,42.5,2|0,0:0|0:0,0:0:0:0:
33,192,21163,2,0,L|24:249,1,42.5,0|0,0:0|0:0,0:0:0:0:
119,192,21496,1,8,0:0:0:0:
122,201,21830,6,0,P|160:191|191:196,1,42.5,0|0,0:0|0:0,0:0:0:0:
127,285,22163,2,0,P|89:295|58:290,1,42.5,0|0,0:0|0:0,0:0:0:0:
206,260,22496,2,0,L|312:253,1,85,0|12,3:0|0:0,0:0:0:0:
300,254,23496,6,0,L|292:328,1,42.5,2|0,0:0|0:0,0:0:0:0:
372,196,23830,2,0,L|380:122,1,42.5,0|0,0:0|0:0,0:0:0:0:
291,169,24163,1,8,0:0:0:0:
284,163,24496,6,0,P|256:157|220:168,1,42.5,0|0,0:0|0:0,0:0:0:0:
172,200,24830,2,0,P|144:206|108:195,1,42.5,0|0,0:0|0:0,0:0:0:0:
47,162,25163,2,0,P|56:206|42:258,2,85,0|12|0,3:0|0:0|0:0,0:0:0:0:
140,290,26163,54,0,P|137:317|146:354,1,42.5,2|0,0:0|0:0,0:0:0:0:
218,254,26496,2,0,P|221:227|212:190,1,42.5,0|0,0:0|0:0,0:0:0:0:
158,145,26830,1,8,0:0:0:0:
155,131,27163,6,0,L|147:76,1,42.5,0|0,0:0|0:0,0:0:0:0:
207,21,27496,1,0,0:0:0:0:
232,99,27663,1,0,0:0:0:0:
290,39,27830,1,0,3:0:0:0:
329,206,28163,2,0,L|346:305,1,85,12|0,0:0|0:0,0:0:0:0:
157,292,28830,6,0,L|113:283,1,42.5,2|0,0:0|0:0,0:0:0:0:
226,347,29163,2,0,L|270:338,1,42.5,0|0,0:0|0:0,0:0:0:0:
237,263,29496,1,8,0:0:0:0:
237,250,29830,5,0,0:0:0:0:
244,167,29996,1,0,0:0:0:0:
312,217,30163,2,0,L|322:286,1,42.5,0|0,0:0|0:0,0:0:0:0:
335,337,30496,1,0,3:0:0:0:
317,136,30830,2,0,L|329:17,1,85,12|0,0:0|0:0,0:0:0:0:
130,34,31496,54,0,P|100:39|78:36,1,42.5,2|0,0:0|0:0,0:0:0:0:
188,101,31830,2,0,P|218:96|240:99,1,42.5,0|0,0:0|0:0,0:0:0:0:
108,122,32163,1,8,0:0:0:0:
104,134,32496,6,0,L|93:192,1,42.5,0|0,0:0|0:0,0:0:0:0:
83,254,32830,2,0,L|72:312,1,42.5,0|0,0:0|0:0,0:0:0:0:
62,374,33163,2,0,P|111:370|168:386,1,85,0|12,3:0|0:0,0:0:0:0:
156,382,34163,6,0,L|167:324,1,42.5,2|0,0:0|0:0,0:0:0:0:
177,262,34497,2,0,L|188:204,1,42.5,0|0,0:0|0:0,0:0:0:0:
200,144,34830,1,8,0:0:0:0:
196,133,35163,6,0,P|167:127|138:111,1,42.5,0|0,0:0|0:0,0:0:0:0:
269,85,35496,2,0,P|298:79|327:63,1,42.5,0|0,0:0|0:0,0:0:0:0:
274,178,35830,38,0,L|261:200,3,21.25,2|2|2|2,0:1|0:1|0:1|0:1,0:0:0:0:
281,171,36163,2,0,P|289:226|282:264,1,85,12|0,0:0|0:0,0:0:0:0:
108,307,36830,6,0,L|102:242,1,50.9999984436036,6|0,0:0|0:0,0:0:0:0:
92,178,37163,2,0,L|86:113,1,50.9999984436036,0|0,0:0|0:0,0:0:0:0:
80,47,37496,1,8,0:0:0:0:
231,96,37830,6,0,L|261:76,3,25.4999992218018
224,104,38163,2,0,P|289:113|337:104,1,101.999996887207,0|2,0:0|0:0,0:0:0:0:
305,227,38830,2,0,L|293:300,1,50.9999984436036,12|0,0:0|0:0,0:0:0:0:
205,276,39163,2,0,L|216:336,1,50.9999984436036,0|0,0:0|0:0,0:0:0:0:
116,325,39496,6,0,P|72:339|7:325,1,101.999996887207,2|0,0:0|0:0,0:0:0:0:
9,251,39996,2,0,P|53:237|118:251,1,101.999996887207,0|0,0:0|0:0,0:0:0:0:
191,266,40496,6,0,L|211:235,3,25.4999992218018,0|0|0|0,0:0|0:0|0:0|0:0,0:0:0:0:
186,276,40830,2,0,P|245:287|293:274,1,101.999996887207,0|2,0:0|0:0,0:0:0:0:
402,153,41496,2,0,L|390:80,1,50.9999984436036,12|0,0:0|0:0,0:0:0:0:
302,104,41829,2,0,L|313:44,1,50.9999984436036,0|0,0:0|0:0,0:0:0:0:
215,71,42163,54,0,P|165:61|106:72,1,101.999996887207,2|0,0:0|0:0,0:0:0:0:
42,113,42663,1,0,0:0:0:0:
112,166,42830,2,0,P|162:176|221:165,1,101.999996887207,8|0,0:0|0:0,0:0:0:0:
285,118,43330,1,0,0:0:0:0:
336,191,43496,2,0,P|323:241|336:294,1,101.999996887207,0|2,0:0|0:0,0:0:0:0:
206,355,44163,2,0,L|94:341,1,101.999996887207,12|0,0:0|0:0,0:0:0:0:
13,354,44663,1,0,0:0:0:0:
53,273,44830,6,0,P|60:227|48:157,1,101.999996887207,2|0,0:0|0:0,0:0:0:0:
117,97,45330,1,0,0:0:0:0:
180,170,45496,2,0,P|173:216|185:286,1,101.999996887207,8|0,0:0|0:0,0:0:0:0:
247,336,45996,1,0,0:0:0:0:
311,267,46163,2,0,P|334:258|409:263,1,101.999996887207,0|0,0:0|0:0,0:0:0:0:
238,42,46830,69,12,0:0:0:0:
486,110,47163,1,0,0:0:0:0:
278,184,47496,6,0,L|215:180,1,50.9999984436036,2|0,0:0|0:0,0:0:0:0:
150,172,47830,2,0,L|92:167,1,50.9999984436036,0|0,0:0|0:0,0:0:0:0:
20,162,48163,1,8,0:0:0:0:
101,305,48496,6,0,L|114:326,3,25.4999992218018,0|0|0|0,0:0|0:0|0:0|0:0,0:0:0:0:
92,291,48830,2,0,P|139:273|204:286,1,101.999996887207,0|2,0:0|0:0,0:0:0:0:
367,291,49496,2,0,L|425:275,1,50.9999984436036,12|0,0:0|0:0,0:0:0:0:
310,192,49830,2,0,L|368:208,1,50.9999984436036,0|0,0:0|0:0,0:0:0:0:
239,127,50163,6,0,P|195:141|128:124,1,101.999996887207,2|0,0:0|0:0,0:0:0:0:
138,43,50663,2,0,P|182:29|249:46,1,101.999996887207,0|0,0:0|0:0,0:0:0:0:
324,76,51163,6,0,L|350:47,3,25.4999992218018,0|0|0|0,0:0|0:0|0:0|0:0,0:0:0:0:
315,92,51496,2,0,P|359:106|426:89,1,101.999996887207,0|2,0:0|0:0,0:0:0:0:
287,243,52163,2,0,L|280:299,1,50.9999984436036,12|0,0:0|0:0,0:0:0:0:
189,197,52496,2,0,L|196:253,1,50.9999984436036,0|0,0:0|0:0,0:0:0:0:
121,125,52830,54,0,P|115:70|125:19,1,101.999996887207,2|0,0:0|0:0,0:0:0:0:
232,54,53330,1,0,0:0:0:0:
289,142,53496,2,0,P|295:197|285:248,1,101.999996887207,8|0,0:0|0:0,0:0:0:0:
226,62,53996,1,0,0:0:0:0:
343,45,54163,2,0,P|386:39|445:51,1,101.999996887207,0|2,0:0|0:0,0:0:0:0:
189,180,54830,2,0,L|86:174,1,101.999996887207,12|0,0:0|0:0,0:0:0:0:
0,169,55330,1,0,0:0:0:0:
46,88,55496,6,0,P|97:75|163:93,1,101.999996887207,2|0,0:0|0:0,0:0:0:0:
195,176,55996,1,0,0:0:0:0:
151,278,56163,2,0,P|100:291|34:273,1,101.999996887207,8|0,0:0|0:0,0:0:0:0:
205,172,56663,1,2,0:1:0:0:
272,271,56830,2,0,L|287:377,1,101.999996887207,2|2,0:1|0:1,0:0:0:0:
372,134,57496,69,12,0:0:0:0:
451,150,57663,1,0,0:0:0:0:
490,81,57830,1,0,0:0:0:0:
436,23,57996,1,0,0:0:0:0:
365,55,58163,70,0,P|322:55|261:40,1,101.999996887207,4|0,0:0|0:0,0:0:0:0:
206,105,58663,1,0,0:0:0:0:
239,186,58830,2,0,P|196:186|135:201,1,101.999996887207,8|0,0:0|0:0,0:0:0:0:
91,269,59330,2,0,L|21:255,1,50.9999984436036,8|0,0:0|0:0,0:0:0:0:
146,334,59663,2,0,L|91:365,1,50.9999984436036,0|2,0:0|0:0,0:0:0:0:
231,344,59996,1,0,0:0:0:0:
314,332,60163,2,0,P|357:332|418:317,1,101.999996887207,8|0,0:0|0:0,0:0:0:0:
483,265,60663,6,0,P|465:206|469:144,1,101.999996887207,8|0,0:0|0:0,0:0:0:0:
390,131,61163,2,0,L|379:81,1,50.9999984436036,2|0,0:0|0:0,0:0:0:0:
320,177,61496,2,0,P|277:161|213:159,1,101.999996887207,8|0,0:0|0:0,0:0:0:0:
148,181,61996,1,8,0:0:0:0:
71,182,62163,1,0,0:0:0:0:
26,119,62330,1,0,0:0:0:0:
60,187,62496,86,0,L|53:262,1,50.9999984436036,2|0,0:0|0:0,0:0:0:0:
89,315,62830,2,0,P|136:301|199:307,1,101.999996887207,8|0,0:0|0:0,0:0:0:0:
198,139,63496,6,0,P|246:139|308:107,1,101.999996887207,4|2,0:0|0:0,0:0:0:0:
322,198,63996,1,0,0:0:0:0:
298,283,64163,2,0,P|358:291|404:315,1,101.999996887207,8|0,0:0|0:0,0:0:0:0:
461,257,64663,2,0,L|488:318,1,50.9999984436036,8|0,0:0|0:0,0:0:0:0:
465,163,64996,2,0,L|512:192,1,50.9999984436036,0|2,0:0|0:0,0:0:0:0:
424,89,65330,1,0,0:0:0:0:
346,55,65496,2,0,P|273:67|237:59,1,101.999996887207,8|0,0:0|0:0,0:0:0:0:
174,24,65996,1,8,0:0:0:0:
109,82,66163,86,0,P|76:87|34:80,1,50.9999984436036,2|0,0:0|0:0,0:0:0:0:
120,167,66496,2,0,L|60:220,1,50.9999984436036,2|0,0:0|0:0,0:0:0:0:
177,234,66830,2,0,P|230:227|278:236,1,101.999996887207,8|0,0:0|0:0,0:0:0:0:
338,285,67330,1,8,0:0:0:0:
412,303,67496,1,0,0:0:0:0:
474,259,67663,1,0,0:0:0:0:
419,313,67830,6,0,L|411:371,1,50.9999984436036,2|0,0:0|0:0,0:0:0:0:
337,379,68163,1,8,0:0:0:0:
363,162,68496,1,8,0:0:0:0:
296,200,68663,1,8,0:0:0:0:
222,178,68830,86,0,P|157:180|91:217,1,101.999996887207,4|2,0:0|0:0,0:0:0:0:
42,150,69330,1,0,0:0:0:0:
114,105,69496,2,0,P|134:47|130:-2,1,101.999996887207,8|0,0:0|0:0,0:0:0:0:
31,149,69996,1,8,0:0:0:0:
110,202,70163,2,0,P|130:259|126:309,1,101.999996887207,0|2,0:0|0:0,0:0:0:0:
353,325,70830,5,8,0:0:0:0:
326,253,70996,1,0,0:0:0:0:
330,176,71163,1,0,0:0:0:0:
389,127,71330,1,0,0:0:0:0:
324,167,71496,86,0,P|261:169|215:150,1,101.999996887207,4|2,0:0|0:0,0:0:0:0:
150,205,71996,1,0,0:0:0:0:
211,272,72163,2,0,P|273:280|315:307,1,101.999996887207,8|0,0:0|0:0,0:0:0:0:
160,203,72663,1,8,0:0:0:0:
124,288,72830,2,0,P|65:311|15:309,1,101.999996887207,0|2,0:0|0:0,0:0:0:0:
155,195,73496,6,0,L|141:122,1,50.9999984436036,8|0,0:0|0:0,0:0:0:0:
231,123,73830,2,0,L|242:60,1,50.9999984436036,0|0,0:0|0:0,0:0:0:0:
327,114,74163,86,0,P|396:128|451:114,1,101.999996887207,4|2,0:0|0:0,0:0:0:0:
253,215,74830,2,0,P|184:201|129:215,1,101.999996887207,8|0,0:0|0:0,0:0:0:0:
83,252,75330,2,0,L|23:239,1,50.9999984436036,8|0,0:0|0:0,0:0:0:0:
124,332,75663,2,0,L|70:348,1,50.9999984436036,0|2,0:0|0:0,0:0:0:0:
207,358,75996,1,0,0:0:0:0:
287,331,76163,2,0,P|344:322|403:332,1,101.999996887207,8|0,0:0|0:0,0:0:0:0:
356,139,76830,6,0,P|343:68|359:0,1,101.999996887207,4|2,0:0|0:0,0:0:0:0:
224,217,77496,2,0,P|211:288|227:356,1,101.999996887207,8|0,0:0|0:0,0:0:0:0:
144,365,77996,2,0,L|121:303,1,50.9999984436036,8|4,0:0|0:0,0:0:0:0:
121,307,78496,85,2,0:0:0:0:
61,185,78830,1,2,0:0:0:0:
139,77,79163,2,0,L|208:63,1,50.9999984436036,2|0,0:0|0:0,0:0:0:0:
267,45,79496,38,0,L|273:2,2,31.8750012159348,4|0|0,0:0|0:0|0:0,0:0:0:0:
255,121,79996,1,0,0:0:0:0:
264,341,80496,2,0,L|269:382,2,31.8750012159348,8|0|0,0:0|0:0|0:0,0:0:0:0:
255,263,80996,2,0,B|298:245|334:262|334:262|368:276|413:258,1,159.375006079674,0|0,0:0|0:0,0:0:0:0:
420,179,82163,6,0,L|470:186,2,31.8750012159348,8|0|0,0:0|0:0|0:0,0:0:0:0:
343,164,82663,1,0,0:0:0:0:
92,179,83163,2,0,L|42:186,2,31.8750012159348,8|0|0,0:0|0:0|0:0,0:0:0:0:
169,164,83663,2,0,B|181:203|181:203|151:270|176:338,1,159.375006079674,0|0,0:0|0:0,0:0:0:0:
267,339,84830,6,0,L|273:382,2,31.8750012159348,8|0|0,0:0|0:0|0:0,0:0:0:0:
255,263,85330,1,0,0:0:0:0:
264,43,85830,2,0,L|269:2,2,31.8750012159348,8|0|0,0:0|0:0|0:0,0:0:0:0:
255,121,86330,2,0,B|295:130|332:100|332:100|379:121|427:114,1,159.375006079674,0|0,0:0|0:0,0:0:0:0:
424,201,87497,6,0,L|474:208,2,31.8750012159348,8|0|0,0:0|0:0|0:0,0:0:0:0:
354,236,87997,1,0,0:0:0:0:
88,201,88496,2,0,L|38:208,2,31.8750012159348,8|0|0,0:0|0:0|0:0,0:0:0:0:
158,236,88996,1,0,0:0:0:0:
