osu file format v14

[General]
AudioFilename: audio.mp3
AudioLeadIn: 0
PreviewTime: 58163
Countdown: 0
SampleSet: Soft
StackLeniency: 0.4
Mode: 0
LetterboxInBreaks: 0
WidescreenStoryboard: 0

[Editor]
Bookmarks: 46830
DistanceSpacing: 2.3
BeatDivisor: 8
GridSize: 4
TimelineZoom: 1.7

[Metadata]
Title:Freesia
TitleUnicode:Freesia
Artist:(K)NoW_NAME
ArtistUnicode:(K)NoW_NAME
Creator:LeKhanhHoa
Version:Insane
Source:サクラクエスト
Tags:Sakura Quest know name ed ending lmt tv size
BeatmapID:1320856
BeatmapSetID:626728

[Difficulty]
HPDrainRate:6
CircleSize:4
OverallDifficulty:7
ApproachRate:8.7
SliderMultiplier:2.1
SliderTickRate:1

[Events]
//Background and Video events
Video,-85,"(K)NoW_NAME~1.avi"
0,0,"thumb-1920-803901.jpg",0,0
//Break Periods
//Storyboard Layer 0 (Background)
//Storyboard Layer 1 (Fail)
//Storyboard Layer 2 (Pass)
//Storyboard Layer 3 (Foreground)
//Storyboard Sound Samples

[TimingPoints]
4830,666.666666666667,4,2,1,30,1,0
4830,-133.333333333333,4,2,1,30,0,0
15330,-133.333333333333,4,2,1,5,0,0
15496,-100,4,2,1,40,0,0
36163,-90.9090909090909,4,2,1,50,0,0
36830,-83.3333333333333,4,2,1,50,0,0
46830,-90.9090909090909,4,2,1,50,0,0
47496,-83.3333333333333,4,2,1,50,0,0
56663,-83.3333333333333,4,2,1,60,0,0
58163,-83.3333333333333,4,2,2,70,0,1
78163,-83.3333333333333,4,2,2,50,0,1
78330,-83.3333333333333,4,2,2,70,0,1
79496,-200,4,2,3,30,0,0
79663,-200,4,2,1,30,0,0
81830,-200,4,2,1,5,0,0
82163,-200,4,2,1,30,0,0
84496,-200,4,2,1,5,0,0
84830,-200,4,2,1,30,0,0
87163,-200,4,2,1,5,0,0
87496,-200,4,2,1,30,0,0

[Colours]
Combo1 : 216,216,216
Combo2 : 250,20,44
Combo3 : 22,50,241
Combo4 : 79,225,30
Combo5 : 231,236,34
Combo6 : 255,128,192
Combo7 : 255,0,128

[HitObjects]
136,6,4830,5,8,0:0:0:0:
160,94,4997,1,0,0:0:0:0:
132,180,5163,1,0,0:0:0:0:
72,248,5330,1,0,0:0:0:0:
72,248,5830,5,8,0:0:0:0:
152,207,5996,1,0,0:0:0:0:
240,228,6163,1,0,0:0:0:0:
300,295,6329,1,0,0:0:0:0:
390,289,6496,2,0,L|446:293,2,39.3750015020371,0|0|8,3:0|3:0|0:0,0:0:0:0:
390,289,7496,5,8,0:0:0:0:
338,214,7663,1,0,0:0:0:0:
346,123,7830,1,0,0:0:0:0:
416,74,7996,1,0,0:0:0:0:
416,74,8496,5,8,0:0:0:0:
330,103,8663,1,0,0:0:0:0:
239,103,8830,1,0,0:0:0:0:
157,63,8996,1,0,0:0:0:0:
98,131,9163,2,0,L|102:192,1,59.0625022530557,0|0,3:0|3:0,3:0:0:0:
104,219,9496,1,12,0:0:0:0:
104,219,10163,53,8,0:0:0:0:
194,221,10330,1,0,0:0:0:0:
275,259,10496,1,0,0:0:0:0:
321,336,10663,1,0,0:0:0:0:
321,336,11163,5,8,0:0:0:0:
297,248,11330,1,0,0:0:0:0:
294,157,11496,1,0,0:0:0:0:
324,71,11663,1,0,0:0:0:0:
242,31,11830,2,0,L|186:27,2,39.3750015020371,0|0|8,3:0|3:0|0:0,0:0:0:0:
242,31,12830,5,8,0:0:0:0:
308,92,12996,1,0,0:0:0:0:
398,97,13163,1,0,0:0:0:0:
483,69,13329,1,0,0:0:0:0:
483,69,13830,5,8,0:0:0:0:
392,65,13996,1,0,0:0:0:0:
313,111,14163,1,0,0:0:0:0:
271,191,14329,1,0,0:0:0:0:
350,249,14496,37,2,2:1:0:0:
369,251,14579,1,2,2:1:0:0:
389,253,14662,1,2,2:1:0:0:
408,254,14746,1,2,2:1:0:0:
428,257,14830,2,0,L|302:267,1,118.125004506111,12|0,0:0|0:0,0:0:0:0:
106,279,15496,6,0,P|89:332|103:385,1,105,6|0,0:0|0:0,0:0:0:0:
173,334,15996,1,0,0:0:0:0:
185,251,16163,1,8,0:0:0:0:
169,59,16496,6,0,L|243:52,1,52.5,0|0,0:0|0:0,0:0:0:0:
278,129,16830,1,0,0:0:0:0:
320,41,16996,1,0,0:0:0:0:
404,116,17163,2,0,L|397:42,1,52.5,0|0,0:0|3:0,3:0:0:0:
495,29,17496,2,0,L|484:145,1,105,12|0,0:0|0:0,0:0:0:0:
340,232,18163,6,0,P|337:268|343:291,1,52.5,2|0,0:0|0:0,0:0:0:0:
266,321,18496,2,0,P|289:348|309:360,1,52.5
389,354,18830,1,8,0:0:0:0:
229,217,19163,6,0,L|161:211,1,52.5
150,298,19496,1,0,0:0:0:0:
86,238,19663,2,0,P|103:185|89:132,1,105,0|0,0:0|3:0,0:0:0:0:
34,95,20163,2,0,L|153:83,1,105,12|0,0:0|0:0,0:0:0:0:
299,48,20830,54,0,L|366:42,1,52.5,2|0,0:0|0:0,0:0:0:0:
413,101,21163,2,0,L|480:106,1,52.5
509,35,21496,1,8,0:0:0:0:
331,169,21830,6,0,L|326:236,1,52.5
422,225,22163,2,0,L|384:280,1,52.5
469,323,22496,2,0,L|408:352,1,52.5,2|0,1:2|3:0,3:0:0:0:
307,333,22830,2,0,L|188:321,1,105,12|0,0:0|0:0,0:0:0:0:
89,156,23496,6,0,P|53:153|30:159,1,52.5,2|0,0:0|0:0,0:0:0:0:
168,116,23830,2,0,P|144:88|124:76,1,52.5
39,48,24163,1,8,0:0:0:0:
266,72,24496,6,0,L|261:139,1,52.5
355,113,24830,2,0,L|422:108,1,52.5
459,183,25163,2,0,L|526:188,1,52.5,0|0,0:0|3:0,3:0:0:0:
382,222,25496,2,0,L|263:210,1,105,12|0,0:0|0:0,0:0:0:0:
134,349,26163,54,0,P|187:366|240:352,1,105,2|0,0:0|0:0,0:0:0:0:
189,281,26663,1,0,0:0:0:0:
286,293,26830,1,8,0:0:0:0:
121,75,27163,6,0,L|126:135,1,52.5
27,227,27496,1,0,0:0:0:0:
41,143,27663,1,0,0:0:0:0:
112,203,27830,2,0,L|188:196,1,52.5,0|0,0:0|3:0,3:0:0:0:
235,129,28163,2,0,L|354:141,1,105,12|0,0:0|0:0,0:0:0:0:
453,273,28830,6,0,L|456:329,1,52.5,2|0,0:0|0:0,0:0:0:0:
372,308,29163,2,0,L|368:364,1,52.5
286,293,29496,1,8,0:0:0:0:
471,101,29830,6,0,L|395:108,1,52.5,0|0,0:0|0:0,0:0:0:0:
351,59,30163,2,0,L|302:117,1,52.5,0|0,0:0|0:0,0:0:0:0:
230,81,30496,2,0,L|236:156,1,52.5,0|0,0:0|3:0,3:0:0:0:
327,203,30830,2,0,L|315:84,1,105,12|0,0:0|0:0,0:0:0:0:
175,185,31496,54,0,P|139:188|116:182,1,52.5,2|0,0:0|0:0,0:0:0:0:
14,249,31830,2,0,P|29:216|46:199,1,52.5,0|0,0:0|0:0,0:0:0:0:
64,119,32163,1,8,0:0:0:0:
122,306,32496,6,0,P|130:330|146:351,1,52.5,0|0,0:0|0:0,0:0:0:0:
217,299,32830,2,0,P|240:310|266:313,1,52.5,0|0,0:0|0:0,0:0:0:0:
281,228,33163,2,0,P|305:219|326:203,1,52.5,2|0,1:2|3:0,3:0:0:0:
403,144,33496,2,0,P|420:197|406:250,1,105,12|0,0:0|0:0,0:0:0:0:
247,76,34163,6,0,P|194:59|141:73,1,105,2|0,0:0|0:0,0:0:0:0:
49,120,34663,1,0,0:0:0:0:
153,159,34830,2,0,L|159:234,1,52.5,8|0,0:0|0:0,0:0:0:0:
83,299,35163,2,0,L|77:374,1,52.5
4,255,35496,1,0,0:0:0:0:
72,207,35663,1,0,0:0:0:0:
191,313,35830,53,2,0:1:0:0:
209,320,35913,1,2,0:1:0:0:
228,323,35996,1,2,0:1:0:0:
248,321,36080,1,2,0:1:0:0:
266,313,36163,2,0,P|272:267|262:239,1,57.7500017623902,12|0,0:0|0:0,0:0:0:0:
348,221,36496,2,0,P|319:184|292:171,1,57.7500017623902
250,124,36830,6,0,B|300:135|300:135|388:121,1,125.999996154785,6|0,0:0|0:0,0:0:0:0:
227,17,37330,1,0,0:0:0:0:
119,68,37496,2,0,L|112:137,1,62.9999980773926,8|0,0:0|0:0,0:0:0:0:
188,246,37830,2,0,L|181:176,1,62.9999980773926
70,291,38163,5,0,0:0:0:0:
83,210,38330,1,0,0:0:0:0:
229,327,38496,1,2,0:0:0:0:
147,337,38663,1,0,0:0:0:0:
286,251,38830,2,0,P|322:243|356:254,1,62.9999980773926,12|0,0:0|0:0,0:0:0:0:
408,370,39163,2,0,P|400:334|411:300,1,62.9999980773926,0|0,0:0|0:0,0:0:0:0:
486,166,39496,5,2,0:0:0:0:
430,226,39663,1,0,0:0:0:0:
403,145,39830,1,0,0:0:0:0:
459,85,39997,1,0,0:0:0:0:
315,148,40163,2,0,L|226:140,1,62.9999980773926,8|0,0:0|0:0,0:0:0:0:
46,187,40496,2,0,L|174:176,1,125.999996154785,0|0,0:0|0:0,0:0:0:0:
116,97,40996,1,0,0:0:0:0:
50,266,41163,1,2,0:0:0:0:
172,205,41330,1,0,0:0:0:0:
255,353,41496,6,0,L|335:345,1,62.9999980773926,12|0,0:0|0:0,0:0:0:0:
489,278,41830,2,0,L|408:270,1,62.9999980773926
272,199,42163,54,0,P|263:160|279:120,1,62.9999980773926,2|0,0:0|0:0,0:0:0:0:
333,270,42496,1,0,0:0:0:0:
246,285,42663,1,0,0:0:0:0:
345,167,42830,2,0,L|426:159,1,62.9999980773926,8|0,0:0|0:0,0:0:0:0:
298,58,43163,1,0,0:0:0:0:
375,84,43330,1,0,0:0:0:0:
268,138,43496,6,0,L|189:144,1,62.9999980773926
104,228,43830,2,0,L|176:234,1,62.9999980773926,2|0,0:0|0:0,0:0:0:0:
27,292,44163,2,0,P|7:223|23:168,1,125.999996154785,12|0,0:0|0:0,0:0:0:0:
92,51,44663,1,0,0:0:0:0:
205,143,44830,6,0,L|286:135,1,62.9999980773926,2|0,0:0|0:0,0:0:0:0:
291,63,45163,1,0,0:0:0:0:
209,56,45330,1,0,0:0:0:0:
347,145,45496,2,0,P|383:153|417:142,1,62.9999980773926,8|0,0:0|0:0,0:0:0:0:
458,66,45830,1,0,0:0:0:0:
376,73,45997,1,0,0:0:0:0:
444,218,46163,2,0,L|507:225,1,62.9999980773926
376,276,46496,2,0,L|295:284,1,62.9999980773926
193,267,46830,54,0,P|147:261|119:271,1,57.7500017623902,12|0,0:0|0:0,0:0:0:0:
101,185,47163,2,0,P|64:214|51:241,1,57.7500017623902
14,290,47496,6,0,B|25:240|25:240|11:152,1,125.999996154785,2|0,0:0|0:0,0:0:0:0:
82,33,47996,1,0,0:0:0:0:
176,104,48163,2,0,P|184:140|173:174,1,62.9999980773926,8|0,0:0|0:0,0:0:0:0:
84,94,48496,2,0,P|75:63|82:33,1,62.9999980773926
245,24,48830,5,0,0:0:0:0:
256,108,48996,1,0,0:0:0:0:
402,48,49163,1,2,0:0:0:0:
324,57,49330,1,0,0:0:0:0:
383,213,49496,2,0,L|375:294,1,62.9999980773926,12|0,0:0|0:0,0:0:0:0:
284,348,49830,2,0,L|276:267,1,62.9999980773926
355,133,50163,5,2,0:0:0:0:
440,141,50330,1,0,0:0:0:0:
383,213,50496,1,0,0:0:0:0:
468,221,50663,1,0,0:0:0:0:
385,59,50830,2,0,P|349:51|315:62,1,62.9999980773926,8|0,0:0|0:0,0:0:0:0:
146,129,51163,2,0,L|274:118,1,125.999996154785
220,37,51663,1,0,0:0:0:0:
173,214,51830,1,2,0:0:0:0:
134,96,51996,1,0,0:0:0:0:
69,205,52163,6,0,L|-12:213,1,62.9999980773926,12|0,0:0|0:0,0:0:0:0:
125,298,52496,2,0,L|206:306,1,62.9999980773926
321,300,52830,54,0,P|329:336|318:370,1,62.9999980773926,2|0,0:0|0:0,0:0:0:0:
353,217,53163,2,0,P|380:192|415:184,1,62.9999980773926
257,237,53496,2,0,P|221:225|197:199,1,62.9999980773926,8|0,0:0|0:0,0:0:0:0:
253,71,53830,1,0,0:0:0:0:
267,152,53996,1,0,0:0:0:0:
107,118,54163,6,0,L|42:113,1,62.9999980773926
140,213,54496,2,0,L|204:208,1,62.9999980773926,2|0,0:0|0:0,0:0:0:0:
63,376,54830,2,0,P|43:307|59:252,1,125.999996154785,12|0,0:0|0:0,0:0:0:0:
107,118,55330,1,0,0:0:0:0:
267,152,55496,6,0,L|331:147,1,62.9999980773926,2|0,0:0|0:0,0:0:0:0:
403,80,55830,1,0,0:0:0:0:
319,59,55996,1,0,0:0:0:0:
411,186,56163,2,0,P|419:222|408:256,1,62.9999980773926,8|0,0:0|0:0,0:0:0:0:
276,245,56496,1,0,0:0:0:0:
354,324,56662,53,2,0:1:0:0:
332,327,56746,1,2,0:1:0:0:
309,329,56830,2,0,L|226:321,1,62.9999980773926,2|2,0:1|0:1,0:0:0:0:
102,271,57163,2,0,L|185:263,1,62.9999980773926,2|2,0:1|0:1,0:0:0:0:
304,169,57496,2,0,L|164:182,1,125.999996154785,12|0,0:0|0:0,0:0:0:0:
41,119,57996,1,0,0:0:0:0:
179,56,58163,70,0,B|190:106|190:106|176:194,1,125.999996154785,4|2,0:0|0:0,0:0:0:0:
102,271,58663,1,0,0:0:0:0:
246,322,58830,2,0,L|371:310,1,125.999996154785,8|0,0:0|0:0,0:0:0:0:
431,147,59330,1,8,0:0:0:0:
480,315,59496,5,0,0:0:0:0:
343,207,59663,1,0,0:0:0:0:
512,212,59830,1,2,0:0:0:0:
372,310,59996,1,0,0:0:0:0:
407,126,60163,2,0,P|338:106|283:122,1,125.999996154785,8|0,0:0|0:0,0:0:0:0:
228,246,60663,1,8,0:0:0:0:
201,135,60830,86,0,P|209:99|198:65,1,62.9999980773926,2|0,0:0|0:0,0:0:0:0:
54,203,61163,1,2,0:0:0:0:
129,102,61330,1,0,0:0:0:0:
138,229,61496,2,0,L|145:300,1,62.9999980773926,8|0,0:0|0:0,0:0:0:0:
361,216,61830,1,0,0:0:0:0:
263,139,61996,6,0,L|199:134,1,62.9999980773926,8|0,0:0|0:0,0:0:0:0:
361,216,62330,1,0,0:0:0:0:
429,123,62496,2,0,L|434:59,1,62.9999980773926,2|0,0:0|0:0,0:0:0:0:
499,194,62830,2,0,L|487:322,1,125.999996154785,8|0,0:0|0:0,0:0:0:0:
361,216,63330,1,8,0:0:0:0:
279,311,63496,86,0,B|229:322|229:322|141:308,1,125.999996154785,4|2,0:0|0:0,0:0:0:0:
32,197,63996,1,0,0:0:0:0:
199,156,64163,2,0,L|194:220,1,62.9999980773926,8|0,0:0|0:0,0:0:0:0:
59,284,64496,1,0,0:0:0:0:
15,113,64663,5,8,0:0:0:0:
117,175,64830,1,0,0:0:0:0:
149,72,64996,2,0,L|213:67,1,62.9999980773926,0|2,0:0|0:0,0:0:0:0:
378,106,65330,1,0,0:0:0:0:
278,230,65496,2,0,L|291:91,1,125.999996154785,8|0,0:0|0:0,0:0:0:0:
363,228,65996,1,8,0:0:0:0:
194,233,66163,85,2,0:0:0:0:
348,348,66330,1,0,0:0:0:0:
278,230,66496,1,2,0:0:0:0:
197,355,66663,1,0,0:0:0:0:
112,237,66830,2,0,L|117:173,1,62.9999980773926,8|0,0:0|0:0,0:0:0:0:
149,72,67163,1,0,0:0:0:0:
194,233,67330,5,8,0:0:0:0:
55,100,67496,1,0,0:0:0:0:
210,141,67663,1,0,0:0:0:0:
112,237,67830,2,0,L|107:299,1,62.9999980773926,2|0,0:0|0:0,0:0:0:0:
197,355,68163,85,8,0:0:0:0:
280,200,68330,1,0,0:0:0:0:
197,355,68496,1,8,0:0:0:0:
280,200,68663,1,8,0:0:0:0:
319,350,68830,6,0,L|447:338,1,125.999996154785,4|2,0:0|0:0,0:0:0:0:
480,212,69330,1,0,0:0:0:0:
397,146,69496,2,0,P|377:215|393:270,1,125.999996154785,8|0,0:0|0:0,0:0:0:0:
480,212,69996,1,8,0:0:0:0:
454,76,70163,2,0,P|442:40|416:16,1,62.9999980773926
336,144,70496,2,0,P|372:152|406:141,1,62.9999980773926,2|0,0:0|0:0,0:0:0:0:
325,44,70830,85,8,0:0:0:0:
251,82,70996,1,0,0:0:0:0:
181,40,71163,1,0,0:0:0:0:
254,3,71330,1,0,0:0:0:0:
145,110,71496,6,0,L|17:122,1,125.999996154785,4|2,0:0|0:0,0:0:0:0:
46,238,71996,1,0,0:0:0:0:
127,304,72163,2,0,P|147:235|131:180,1,125.999996154785,8|0,0:0|0:0,0:0:0:0:
46,238,72663,1,8,0:0:0:0:
96,377,72830,2,0,P|132:385|166:374,1,62.9999980773926
249,260,73163,86,0,P|285:252|319:263,1,62.9999980773926,2|0,0:0|0:0,0:0:0:0:
435,334,73496,2,0,P|399:342|365:331,1,62.9999980773926,8|0,0:0|0:0,0:0:0:0:
295,173,73830,2,0,L|289:107,1,62.9999980773926
415,126,74163,6,0,L|403:254,1,125.999996154785,4|2,0:0|0:0,0:0:0:0:
280,330,74663,1,0,0:0:0:0:
172,227,74830,2,0,L|106:221,1,62.9999980773926,8|0,0:0|0:0,0:0:0:0:
32,145,75163,2,0,L|97:139,1,62.9999980773926,0|8,0:0|0:0,0:0:0:0:
27,230,75496,1,0,0:0:0:0:
74,56,75663,1,0,0:0:0:0:
170,166,75830,86,0,P|178:202|167:236,1,62.9999980773926,2|0,0:0|0:0,0:0:0:0:
96,352,76163,2,0,P|88:316|99:282,1,62.9999980773926,8|0,0:0|0:0,0:0:0:0:
248,265,76496,2,0,L|313:259,1,62.9999980773926
420,184,76830,6,0,L|292:172,1,125.999996154785,4|2,0:0|0:0,0:0:0:0:
167,257,77330,1,0,0:0:0:0:
157,88,77496,2,0,L|222:82,1,62.9999980773926,8|0,0:0|0:0,0:0:0:0:
355,138,77830,1,0,0:0:0:0:
251,243,77996,1,8,0:0:0:0:
248,265,78080,1,0,0:0:0:0:
246,288,78164,86,0,L|254:371,1,62.9999980773926,4|0,0:0|0:0,0:0:0:0:
413,246,78496,2,0,L|421:163,1,62.9999980773926,2|0,0:0|0:0,0:0:0:0:
350,98,78830,2,0,L|342:15,1,62.9999980773926,2|0,0:0|0:0,0:0:0:0:
177,6,79163,1,2,0:0:0:0:
258,21,79330,1,0,0:0:0:0:
254,131,79496,37,4,0:0:0:0:
218,215,79663,1,0,0:0:0:0:
151,278,79830,1,0,0:0:0:0:
70,321,79996,1,0,0:0:0:0:
70,321,80496,5,8,0:0:0:0:
160,302,80663,1,0,0:0:0:0:
251,315,80830,1,0,0:0:0:0:
325,368,80997,1,0,0:0:0:0:
404,323,81163,2,0,L|414:208,1,105,0|0,3:0|0:0,0:0:0:0:
413,218,82163,5,8,0:0:0:0:
372,135,82330,1,0,0:0:0:0:
403,49,82496,1,0,0:0:0:0:
488,14,82663,1,0,0:0:0:0:
488,14,83163,5,8,0:0:0:0:
419,75,83330,1,0,0:0:0:0:
327,74,83496,1,0,0:0:0:0:
253,18,83663,1,0,0:0:0:0:
170,59,83830,2,0,P|156:88|162:158,1,105,0|0,3:0|0:0,0:0:0:0:
162,158,84830,53,8,0:0:0:0:
241,204,84996,1,0,0:0:0:0:
290,281,85163,1,0,0:0:0:0:
278,372,85330,1,0,0:0:0:0:
278,372,85830,5,8,0:0:0:0:
315,288,85996,1,0,0:0:0:0:
398,248,86163,1,0,0:0:0:0:
488,264,86330,1,0,0:0:0:0:
510,175,86496,2,0,L|500:69,1,105,0|0,3:0|0:0,0:0:0:0:
500,70,87496,5,8,0:0:0:0:
407,61,87663,1,0,0:0:0:0:
314,53,87830,1,0,0:0:0:0:
223,45,87996,1,0,0:0:0:0:
222,44,88496,5,8,0:0:0:0:
213,136,88663,1,0,0:0:0:0:
204,228,88830,1,0,0:0:0:0:
195,320,88996,1,0,0:0:0:0:
