osu file format v14

[General]
AudioFilename: audio.mp3
AudioLeadIn: 0
PreviewTime: 58163
Countdown: 0
SampleSet: Soft
StackLeniency: 0.3
Mode: 0
LetterboxInBreaks: 0
WidescreenStoryboard: 0

[Editor]
DistanceSpacing: 1.2
BeatDivisor: 8
GridSize: 4
TimelineZoom: 1.7

[Metadata]
Title:Freesia
TitleUnicode:Freesia
Artist:(K)NoW_NAME
ArtistUnicode:(K)NoW_NAME
Creator:LeKhanhHoa
Version:Easy
Source:サクラクエスト
Tags:Sakura Quest know name ed ending lmt tv size
BeatmapID:1320855
BeatmapSetID:626728

[Difficulty]
HPDrainRate:2
CircleSize:3
OverallDifficulty:3
ApproachRate:3
SliderMultiplier:1.4
SliderTickRate:1

[Events]
//Background and Video events
Video,-85,"(K)NoW_NAME~1.avi"
0,0,"thumb-1920-803901.jpg",0,0
//Break Periods
//Storyboard Layer 0 (Background)
//Storyboard Layer 1 (Fail)
//Storyboard Layer 2 (Pass)
//Storyboard Layer 3 (Foreground)
//Storyboard Sound Samples

[TimingPoints]
4830,666.666666666667,4,2,1,30,1,0
4830,-100,4,2,1,30,0,0
15330,-100,4,2,1,5,0,0
15496,-100,4,2,1,40,0,0
36163,-100,4,2,1,50,0,0
56663,-100,4,2,1,60,0,0
58163,-100,4,2,2,70,0,1
78163,-100,4,2,2,50,0,1
78330,-100,4,2,2,70,0,1
79496,-100,4,2,3,30,0,0
79663,-100,4,2,1,30,0,0
81830,-100,4,2,1,5,0,0
82163,-100,4,2,1,30,0,0
84496,-100,4,2,1,5,0,0
84830,-100,4,2,1,30,0,0
87163,-100,4,2,1,5,0,0
87496,-100,4,2,1,30,0,0

[Colours]
Combo1 : 216,216,216
Combo2 : 250,20,44
Combo3 : 22,50,241
Combo4 : 79,225,30
Combo5 : 231,236,34
Combo6 : 255,128,192
Combo7 : 255,0,128

[HitObjects]
112,80,4830,6,0,P|98:132|115:208,1,105,8|0,0:0|0:0,0:0:0:0:
189,243,5830,2,0,P|203:191|186:115,1,105,8|0,0:0|0:0,0:0:0:0:
253,52,6830,1,8,0:0:0:0:
388,85,7496,6,0,L|378:192,1,105,8|0,0:0|0:0,0:0:0:0:
300,260,8496,2,0,L|290:152,1,105,8|0,0:0|0:0,0:0:0:0:
189,125,9496,1,12,0:0:0:0:
67,193,10163,6,0,P|53:242|64:298,1,105,8|0,0:0|0:0,0:0:0:0:
155,343,11163,2,0,P|204:329|260:340,1,105,8|0,0:0|0:0,0:0:0:0:
360,352,12163,1,8,0:0:0:0:
413,221,12830,6,0,L|423:114,1,105,8|0,0:0|0:0,0:0:0:0:
360,31,13830,2,0,L|253:41,1,105,8|0,0:0|0:0,0:0:0:0:
200,130,14830,1,12,0:0:0:0:
61,113,15496,54,0,P|54:191|65:258,1,140,6|8,0:0|0:0,0:0:0:0:
121,312,16496,2,0,P|87:332|36:335,2,70,0|0|0,0:0|0:0|3:0,0:0:0:0:
149,232,17496,1,12,0:0:0:0:
310,279,18163,6,0,B|384:293|384:293|463:286,1,140,2|8,0:0|0:0,0:0:0:0:
440,203,19163,2,0,L|523:197,2,70,0|0|0,0:0|0:0|0:0,0:0:0:0:
355,199,20163,1,12,0:0:0:0:
227,89,20830,6,0,P|148:78|81:90,1,140,2|8,0:0|0:0,0:0:0:0:
28,145,21830,2,0,L|19:235,2,70,0|0|0,0:0|0:0|3:0,0:0:0:0:
108,169,22830,1,12,0:0:0:0:
132,335,23496,6,0,P|211:346|278:334,1,140,2|8,0:0|0:0,0:0:0:0:
311,263,24496,2,0,P|314:229|304:185,2,70,0|0|0,0:0|0:0|3:0,0:0:0:0:
352,336,25496,1,12,0:0:0:0:
470,217,26163,54,0,L|456:58,1,140,2|8,0:0|0:0,0:0:0:0:
398,18,27163,2,0,P|363:12|320:25,2,70,0|0|0,0:0|0:0|3:0,0:0:0:0:
366,96,28163,1,12,0:0:0:0:
220,171,28830,6,0,P|141:182|74:170,1,140,2|8,0:0|0:0,0:0:0:0:
38,100,29830,2,0,P|32:65|45:22,2,70,0|0|0,0:0|0:0|3:0,0:0:0:0:
116,69,30830,1,12,0:0:0:0:
262,150,31496,6,0,L|248:309,1,140,2|8,0:0|0:0,0:0:0:0:
295,359,32496,2,0,L|385:350,2,70,0|0|0,0:0|0:0|3:0,0:0:0:0:
211,367,33496,1,12,0:0:0:0:
56,300,34163,6,0,L|42:141,1,140,2|8,0:0|0:0,0:0:0:0:
19,79,35163,2,0,L|10:-11,2,70,0|0|2,0:0|0:0|0:1,0:0:0:0:
101,95,36163,2,0,L|196:87,1,70,12|0,0:0|0:0,0:0:0:0:
244,48,36830,54,0,P|255:88|248:127,1,70,6|0,0:0|0:0,0:0:0:0:
192,174,37496,2,0,P|181:214|188:253,2,70,8|0|0,0:0|0:0|0:0,0:0:0:0:
265,215,38496,1,2,0:0:0:0:
335,260,38830,2,0,L|426:250,1,70,12|0,0:0|0:0,0:0:0:0:
485,234,39496,6,0,P|494:173|471:111,2,105,2|0|0,0:0|0:0|0:0,0:0:0:0:
404,252,40830,2,0,L|318:260,1,70,0|2,0:0|0:0,0:0:0:0:
252,278,41496,2,0,L|166:270,1,70,12|0,0:0|0:0,0:0:0:0:
111,226,42163,6,0,L|25:234,2,70,2|0|8,0:0|0:0|0:0,0:0:0:0:
185,186,43163,2,0,L|192:100,1,70,0|0,0:0|0:0,0:0:0:0:
230,42,43830,1,2,0:0:0:0:
299,88,44163,2,0,L|390:79,1,70,12|0,0:0|0:0,0:0:0:0:
435,30,44830,6,0,P|485:23|518:35,2,70,2|0|8,0:0|0:0|0:0,0:0:0:0:
472,105,45830,2,0,L|478:181,1,70,0|0,0:0|0:0,0:0:0:0:
444,252,46496,1,0,0:0:0:0:
367,217,46830,2,0,P|317:210|284:222,1,70,12|0,0:0|0:0,0:0:0:0:
251,283,47496,54,0,L|155:274,1,70,2|0,0:0|0:0,0:0:0:0:
98,292,48163,2,0,P|48:299|15:287,2,70,8|0|0,0:0|0:0|0:0,0:0:0:0:
63,215,49163,1,2,0:0:0:0:
103,141,49496,2,0,L|184:134,1,70,12|0,0:0|0:0,0:0:0:0:
257,144,50163,6,0,P|271:194|262:245,2,105,2|0|0,0:0|0:0|0:0,0:0:0:0:
268,60,51496,2,0,L|350:51,1,70,0|2,0:0|0:0,0:0:0:0:
399,109,52163,2,0,L|390:191,1,70,12|0,0:0|0:0,0:0:0:0:
387,262,52830,6,0,L|395:344,2,70,2|0|8,0:0|0:0|0:0,0:0:0:0:
316,215,53830,2,0,L|232:223,1,70,0|0,0:0|0:0,0:0:0:0:
173,263,54496,1,2,0:0:0:0:
108,209,54830,2,0,P|101:159|113:126,1,70,12|0,0:0|0:0,0:0:0:0:
143,67,55496,6,0,P|93:60|60:72,2,70,2|0|8,0:0|0:0|0:0,0:0:0:0:
217,99,56496,1,0,0:0:0:0:
295,128,56830,2,0,P|345:135|378:123,2,70,2|2|12,0:1|0:1|0:0,0:0:0:0:
128,148,58163,6,0,P|120:201|129:241,1,70,4|2,0:0|0:0,0:0:0:0:
176,281,58830,2,0,L|169:370,2,70,8|0|0,0:0|0:0|0:0,0:0:0:0:
243,229,59830,1,2,0:0:0:0:
213,150,60163,2,0,L|288:143,1,70,8|0,0:0|0:0,0:0:0:0:
366,137,60830,6,0,P|376:184|366:225,1,70,2|2,0:0|0:0,0:0:0:0:
397,285,61496,2,0,P|387:332|397:373,2,70,8|0|0,0:0|0:0|0:0,0:0:0:0:
478,266,62496,1,2,0:0:0:0:
456,184,62830,2,0,L|464:100,1,70,8|0,0:0|0:0,0:0:0:0:
413,46,63496,86,0,L|329:54,1,70,4|2,0:0|0:0,0:0:0:0:
260,67,64163,2,0,L|190:60,2,70,8|0|0,0:0|0:0|0:0,0:0:0:0:
314,130,65163,1,2,0:0:0:0:
324,213,65496,2,0,P|330:258|322:295,1,70,8|0,0:0|0:0,0:0:0:0:
251,321,66163,6,0,P|245:276|253:239,1,70,2|2,0:0|0:0,0:0:0:0:
237,168,66830,2,0,L|144:177,2,70,8|0|0,0:0|0:0|0:0,0:0:0:0:
314,130,67830,1,2,0:0:0:0:
358,201,68163,2,0,L|442:193,1,70,8|0,0:0|0:0,0:0:0:0:
458,116,68830,86,0,P|462:74|452:23,1,70,4|2,0:0|0:0,0:0:0:0:
376,28,69496,2,0,L|208:12,1,140,8|0,0:0|0:0,0:0:0:0:
209,94,70496,1,2,0:0:0:0:
202,179,70830,2,0,P|198:221|208:272,1,70,8|0,0:0|0:0,0:0:0:0:
206,332,71496,6,0,P|164:336|113:326,1,70,4|2,0:0|0:0,0:0:0:0:
61,295,72163,2,0,L|46:128,1,140,8|0,0:0|0:0,0:0:0:0:
87,80,73163,1,2,0:0:0:0:
172,95,73496,2,0,L|260:100,1,70,8|0,0:0|0:0,0:0:0:0:
315,140,74163,86,0,P|319:182|309:233,1,70,4|2,0:0|0:0,0:0:0:0:
267,278,74830,1,8,0:0:0:0:
332,330,75163,2,0,L|409:322,1,70,0|0,0:0|0:0,0:0:0:0:
427,242,75830,1,2,0:0:0:0:
445,160,76163,2,0,P|449:118|439:67,1,70,8|0,0:0|0:0,0:0:0:0:
377,41,76830,6,0,L|300:49,1,70,4|2,0:0|0:0,0:0:0:0:
241,98,77496,1,8,0:0:0:0:
179,154,77830,2,0,L|171:231,1,70,0|4,0:0|0:0,0:0:0:0:
158,306,78496,2,0,L|73:299,2,70,2|2|2,0:0|0:0|0:0,0:0:0:0:
241,313,79496,22,0,P|316:295|363:317,1,105,4|0,0:0|0:0,0:0:0:0:
366,200,80496,2,0,P|431:240|449:289,1,105,8|0,0:0|0:0,0:0:0:0:
443,263,82163,6,0,L|455:130,1,105,8|0,0:0|0:0,0:0:0:0:
349,135,83163,2,0,L|336:2,1,105,8|0,0:0|0:0,0:0:0:0:
339,30,84830,6,0,P|264:12|217:34,1,105,8|0,0:0|0:0,0:0:0:0:
136,43,85830,2,0,P|176:108|225:126,1,105,8|0,0:0|0:0,0:0:0:0:
199,120,87496,6,0,L|331:132,1,105,8|0,0:0|0:0,0:0:0:0:
362,216,88496,2,0,L|229:228,1,105,8|0,0:0|0:0,0:0:0:0:
