osu file format v14

[General]
AudioFilename: audio.mp3
AudioLeadIn: 0
PreviewTime: 67871
Countdown: 0
SampleSet: Normal
StackLeniency: 0.7
Mode: 3
LetterboxInBreaks: 1
SpecialStyle: 1
WidescreenStoryboard: 1

[Editor]
Bookmarks: 22506
DistanceSpacing: 1
BeatDivisor: 8
GridSize: 8
TimelineZoom: 2.1

[Metadata]
Title:Otaser*Revolution
TitleUnicode:Otaser*Revolution
Artist:(IOSYS) feat. miko & kimu
ArtistUnicode:(IOSYS) feat. miko & kimu
Creator:Strugatskaya
Version:SHD
Source:ARM
Tags:Work In progress
BeatmapID:1126533
BeatmapSetID:531609

[Difficulty]
HPDrainRate:8
CircleSize:7
OverallDifficulty:8
ApproachRate:5
SliderMultiplier:1.6
SliderTickRate:2

[Events]
//Background and Video events
0,0,"46073613.jpg",0,0
//Break Periods
//Storyboard Layer 0 (Background)
//Storyboard Layer 1 (Fail)
//Storyboard Layer 2 (Pass)
//Storyboard Layer 3 (Foreground)
//Storyboard Sound Samples
Sample,13425,0,"kic.wav",70
Sample,13749,0,"kic.wav",70
Sample,14398,0,"kic.wav",70
Sample,15695,0,"kic.wav",70
Sample,16020,0,"kic.wav",70
Sample,16344,0,"clap.wav",70
Sample,18128,0,"kic.wav",70
Sample,18168,0,"kic.wav",70
Sample,18209,0,"kic.wav",70
Sample,18249,0,"kic.wav",70
Sample,18452,0,"kic.wav",70
Sample,18452,0,"snare.wav",70
Sample,18493,0,"kic.wav",70
Sample,18493,0,"snare.wav",70
Sample,18533,0,"kic.wav",70
Sample,18533,0,"snare.wav",70
Sample,18574,0,"kic.wav",70
Sample,18574,0,"snare.wav",70
Sample,19263,0,"kic.wav",70
Sample,19344,0,"kic.wav",70
Sample,19425,0,"kic.wav",70
Sample,19506,0,"kic.wav",70
Sample,19587,0,"kic.wav",70
Sample,19668,0,"kic.wav",70
Sample,19749,0,"kic.wav",70
Sample,19831,0,"kic.wav",70
Sample,22506,0,"kic.wav",70
Sample,22831,0,"kic.wav",70
Sample,23155,0,"kic.wav",70
Sample,23479,0,"kic.wav",70
Sample,23804,0,"kic.wav",70
Sample,24128,0,"kic.wav",70
Sample,24452,0,"kic.wav",70
Sample,24614,0,"kic.wav",70
Sample,24655,0,"kic.wav",70
Sample,24695,0,"kic.wav",70
Sample,24736,0,"kic.wav",70
Sample,26074,0,"snare.wav",70
Sample,27695,0,"kic.wav",70
Sample,28020,0,"kic.wav",70
Sample,28344,0,"kic.wav",70
Sample,28506,0,"snare.wav",70
Sample,28668,0,"kic.wav",70
Sample,28993,0,"kic.wav",70
Sample,29317,0,"kic.wav",70
Sample,29804,0,"kic.wav",70
Sample,29844,0,"kic.wav",70
Sample,29885,0,"kic.wav",70
Sample,29925,0,"kic.wav",70
Sample,29966,0,"kic.wav",70
Sample,32885,0,"cymbal.wav",70
Sample,34993,0,"kic.wav",70
Sample,35033,0,"kic.wav",70
Sample,35074,0,"kic.wav",70
Sample,35114,0,"kic.wav",70
Sample,37182,0,"kic.wav",70
Sample,37304,0,"kic.wav",70
Sample,37344,0,"kic.wav",70
Sample,37385,0,"kic.wav",70
Sample,37425,0,"kic.wav",70
Sample,38074,0,"cymbal.wav",70
Sample,40182,0,"kic.wav",70
Sample,40222,0,"kic.wav",70
Sample,40263,0,"kic.wav",70
Sample,40304,0,"kic.wav",70
Sample,41722,0,"snare.wav",70
Sample,41804,0,"cymbal.wav",70
Sample,43101,0,"kic.wav",70
Sample,46344,0,"kic.wav",70
Sample,47641,0,"kic.wav",70
Sample,47966,0,"kic.wav",70
Sample,48128,0,"snare.wav",70
Sample,49101,0,"cymbal.wav",70
Sample,49101,0,"clap.wav",70
Sample,49101,0,"snare.wav",70
Sample,49425,0,"snare.wav",70
Sample,49425,0,"cymbal.wav",70
Sample,49425,0,"clap.wav",70
Sample,50398,0,"snare.wav",70
Sample,50398,0,"clap.wav",70
Sample,50398,0,"cymbal.wav",70
Sample,50479,0,"cymbal.wav",70
Sample,50479,0,"clap.wav",70
Sample,50479,0,"snare.wav",70
Sample,57554,0,"kic.wav",70
Sample,57574,0,"kic.wav",70
Sample,58831,0,"cymbal.wav",70
Sample,61425,0,"cymbal.wav",70
Sample,69533,0,"snare.wav",70
Sample,75371,0,"clap.wav",70
Sample,76020,0,"clap.wav",70
Sample,76668,0,"clap.wav",70
Sample,77641,0,"clap.wav",70
Sample,79912,0,"snare.wav",70
Sample,80439,0,"kic.wav",70
Sample,80479,0,"kic.wav",70
Sample,80520,0,"kic.wav",70

[TimingPoints]
1750,324.324324324324,4,1,1,30,1,0
66614,-100,4,2,0,30,0,0
67587,-100,4,1,1,30,0,0
112020,-200,4,2,0,30,0,0
113317,-100,4,2,0,30,0,0

[HitObjects]
36,192,1750,5,0,0:0:0:0:
329,192,1750,1,0,0:0:0:0:
182,192,1750,1,0,0:0:0:0:
402,192,1831,1,0,0:0:0:0:
475,192,1912,1,0,0:0:0:0:
402,192,1993,1,0,0:0:0:0:
182,192,2074,128,0,2236:0:0:0:0:
329,192,2074,1,0,0:0:0:0:
329,192,2236,1,0,0:0:0:0:
109,192,2317,1,0,0:0:0:0:
36,192,2398,1,0,0:0:0:0:
109,192,2479,1,0,0:0:0:0:
182,192,2560,128,0,2722:0:0:0:0:
329,192,2560,1,0,0:0:0:0:
256,192,2722,1,0,0:0:0:0:
402,192,2722,1,0,0:0:0:0:
475,192,2804,1,0,0:0:0:0:
329,192,2804,1,0,0:0:0:0:
256,192,2885,1,0,0:0:0:0:
402,192,2885,128,0,3047:0:0:0:0:
256,192,3047,1,0,0:0:0:0:
109,192,3047,128,0,3371:0:0:0:0:
182,192,3047,1,0,0:0:0:0:
329,192,3128,1,0,0:0:0:0:
256,192,3209,1,0,0:0:0:0:
402,192,3209,128,0,3371:0:0:0:0:
182,192,3209,1,0,0:0:0:0:
182,192,3371,1,0,0:0:0:0:
329,192,3371,1,0,0:0:0:0:
182,192,3533,1,0,0:0:0:0:
329,192,3533,1,0,0:0:0:0:
402,192,3533,1,0,0:0:0:0:
109,192,3533,1,0,0:0:0:0:
182,192,3695,1,0,0:0:0:0:
36,192,3695,1,0,0:0:0:0:
256,192,3777,1,0,0:0:0:0:
329,192,3858,1,0,0:0:0:0:
402,192,3939,1,0,0:0:0:0:
475,192,4020,1,0,0:0:0:0:
402,192,4101,1,0,0:0:0:0:
329,192,4182,1,0,0:0:0:0:
182,192,4182,128,0,4344:0:0:0:0:
329,192,4344,1,0,0:0:0:0:
256,192,4425,1,0,0:0:0:0:
182,192,4506,1,0,0:0:0:0:
109,192,4587,1,0,0:0:0:0:
182,192,4668,1,0,0:0:0:0:
329,192,4668,128,0,4831:0:0:0:0:
182,192,4831,1,0,0:0:0:0:
402,192,4912,1,0,0:0:0:0:
475,192,4993,1,0,0:0:0:0:
402,192,5074,1,0,0:0:0:0:
182,192,5155,1,0,0:0:0:0:
329,192,5155,128,0,5317:0:0:0:0:
182,192,5317,1,0,0:0:0:0:
109,192,5398,1,0,0:0:0:0:
36,192,5479,1,0,0:0:0:0:
109,192,5560,1,0,0:0:0:0:
182,192,5641,1,0,0:0:0:0:
256,192,5722,1,0,0:0:0:0:
182,192,5804,1,0,0:0:0:0:
109,192,5885,1,0,0:0:0:0:
36,192,5966,1,0,0:0:0:0:
182,192,5966,128,0,6290:0:0:0:0:
329,192,6128,1,0,0:0:0:0:
475,192,6128,1,0,0:0:0:0:
256,192,6290,1,0,0:0:0:0:
402,192,6290,1,0,0:0:0:0:
182,192,6452,1,0,0:0:0:0:
329,192,6452,1,0,0:0:0:0:
475,192,6452,1,0,0:0:0:0:
402,192,6614,1,0,0:0:0:0:
256,192,6614,1,0,0:0:0:0:
109,192,6614,1,0,0:0:0:0:
182,192,6614,1,0,0:0:0:0:
109,192,6777,1,0,0:0:0:0:
256,192,6777,1,0,0:0:0:0:
402,192,6777,1,0,0:0:0:0:
329,192,6777,1,0,0:0:0:0:
109,192,6939,1,0,0:0:0:0:
256,192,6939,1,0,0:0:0:0:
402,192,6939,1,0,0:0:0:0:
182,192,6939,1,0,0:0:0:0:
475,192,7020,1,0,0:0:0:0:
402,192,7101,1,0,0:0:0:0:
329,192,7182,1,0,0:0:0:0:
256,192,7263,1,0,0:0:0:0:
109,192,7263,128,0,7425:0:0:0:0:
256,192,7425,1,0,0:0:0:0:
329,192,7506,1,0,0:0:0:0:
402,192,7587,1,0,0:0:0:0:
329,192,7668,1,0,0:0:0:0:
256,192,7749,1,0,0:0:0:0:
109,192,7749,128,0,7912:0:0:0:0:
256,192,7912,1,0,0:0:0:0:
402,192,7912,1,0,0:0:0:0:
182,192,7993,1,0,0:0:0:0:
329,192,7993,1,0,0:0:0:0:
402,192,8074,128,0,8236:0:0:0:0:
109,192,8074,1,0,0:0:0:0:
256,192,8074,1,0,0:0:0:0:
256,192,8236,1,0,0:0:0:0:
109,192,8236,128,0,8560:0:0:0:0:
329,192,8236,1,0,0:0:0:0:
256,192,8398,1,0,0:0:0:0:
402,192,8398,128,0,8560:0:0:0:0:
182,192,8398,1,0,0:0:0:0:
182,192,8560,1,0,0:0:0:0:
329,192,8560,1,0,0:0:0:0:
182,192,8722,1,0,0:0:0:0:
109,192,8722,1,0,0:0:0:0:
329,192,8722,1,0,0:0:0:0:
402,192,8722,1,0,0:0:0:0:
329,192,8885,1,0,0:0:0:0:
256,192,8966,1,0,0:0:0:0:
182,192,9047,1,0,0:0:0:0:
109,192,9128,1,0,0:0:0:0:
182,192,9209,1,0,0:0:0:0:
36,192,9209,1,0,0:0:0:0:
329,192,9209,1,0,0:0:0:0:
109,192,9371,1,0,0:0:0:0:
256,192,9371,1,0,0:0:0:0:
402,192,9371,1,0,0:0:0:0:
182,192,9533,1,0,0:0:0:0:
329,192,9533,1,0,0:0:0:0:
475,192,9533,1,0,0:0:0:0:
36,192,9614,1,0,0:0:0:0:
109,192,9614,1,0,0:0:0:0:
402,192,9695,1,0,0:0:0:0:
475,192,9695,1,0,0:0:0:0:
109,192,9777,1,0,0:0:0:0:
182,192,9777,1,0,0:0:0:0:
329,192,9858,1,0,0:0:0:0:
402,192,9858,1,0,0:0:0:0:
36,192,9939,1,0,0:0:0:0:
109,192,9939,1,0,0:0:0:0:
256,192,10020,1,0,0:0:0:0:
329,192,10020,1,0,0:0:0:0:
109,192,10101,1,0,0:0:0:0:
182,192,10101,1,0,0:0:0:0:
475,192,10182,1,0,0:0:0:0:
402,192,10182,1,0,0:0:0:0:
109,192,10263,1,0,0:0:0:0:
36,192,10263,1,0,0:0:0:0:
329,192,10344,1,0,0:0:0:0:
402,192,10344,1,0,0:0:0:0:
109,192,10425,1,0,0:0:0:0:
182,192,10425,1,0,0:0:0:0:
329,192,10506,1,0,0:0:0:0:
256,192,10506,1,0,0:0:0:0:
36,192,10587,1,0,0:0:0:0:
109,192,10587,1,0,0:0:0:0:
402,192,10668,1,0,0:0:0:0:
475,192,10668,1,0,0:0:0:0:
256,192,10749,1,0,0:0:0:0:
182,192,10831,128,0,11155:0:0:0:0:
329,192,10831,128,0,11155:0:0:0:0:
36,192,10831,1,0,0:0:0:0:
475,192,10831,1,0,0:0:0:0:
109,192,11074,1,0,0:0:0:0:
402,192,11074,1,0,0:0:0:0:
36,192,11155,1,0,0:0:0:0:
475,192,11155,1,0,0:0:0:0:
182,192,11317,1,0,0:0:0:0:
329,192,11317,1,0,0:0:0:0:
182,192,11479,1,0,0:0:0:0:
109,192,11479,1,0,0:0:0:0:
256,192,11479,1,0,0:0:0:0:
329,192,11560,1,0,0:0:0:0:
402,192,11560,1,0,0:0:0:0:
475,192,11560,1,0,0:0:0:0:
109,192,11641,1,0,0:0:0:0:
36,192,11641,1,0,0:0:0:0:
182,192,11641,1,0,0:0:0:0:
402,192,11722,1,0,0:0:0:0:
475,192,11722,1,0,0:0:0:0:
329,192,11722,1,0,0:0:0:0:
109,192,11804,1,0,0:0:0:0:
182,192,11804,1,0,0:0:0:0:
256,192,11804,1,0,0:0:0:0:
329,192,11885,1,0,0:0:0:0:
402,192,11885,1,0,0:0:0:0:
475,192,11885,1,0,0:0:0:0:
109,192,11966,1,0,0:0:0:0:
36,192,11966,1,0,0:0:0:0:
182,192,11966,1,0,0:0:0:0:
402,192,12047,1,0,0:0:0:0:
475,192,12047,1,0,0:0:0:0:
329,192,12047,1,0,0:0:0:0:
182,192,12128,1,0,0:0:0:0:
36,192,12128,1,0,0:0:0:0:
256,192,12209,1,0,0:0:0:0:
182,192,12290,1,0,0:0:0:0:
109,192,12371,1,0,0:0:0:0:
182,192,12452,1,0,0:0:0:0:
329,192,12452,128,0,12614:0:0:0:0:
475,192,12452,1,0,0:0:0:0:
402,192,12452,1,0,0:0:0:0:
402,192,12695,1,0,0:0:0:0:
475,192,12777,1,0,0:0:0:0:
36,192,12777,1,0,0:0:0:0:
109,192,12777,1,0,0:0:0:0:
402,192,12858,1,0,0:0:0:0:
329,192,12939,1,0,0:0:0:0:
182,192,12939,128,0,13101:0:0:0:0:
329,192,13101,128,0,13425:0:0:0:0:
256,192,13101,1,0,0:0:0:0:
402,192,13101,1,0,0:0:0:0:
475,192,13101,1,0,0:0:0:0:
256,192,13263,1,0,0:0:0:0:
182,192,13263,128,0,13587:0:0:0:0:
109,192,13425,1,0,0:0:0:0:
402,192,13425,128,0,13749:0:0:0:0:
36,192,13425,1,0,0:0:0:0:
329,192,13587,1,0,0:0:0:0:
109,192,13587,128,0,13912:0:0:0:0:
256,192,13587,1,0,0:0:0:0:
182,192,13749,1,0,0:0:0:0:
475,192,13749,128,0,14074:0:0:0:0:
329,192,13749,1,0,0:0:0:0:
256,192,13912,1,0,0:0:0:0:
36,192,13912,128,0,14236:0:0:0:0:
329,192,13912,1,0,0:0:0:0:
329,192,14074,1,0,0:0:0:0:
402,192,14074,128,0,14398:0:0:0:0:
182,192,14074,1,0,0:0:0:0:
109,192,14236,128,0,14560:0:0:0:0:
256,192,14236,1,0,0:0:0:0:
182,192,14236,1,0,0:0:0:0:
329,192,14398,128,0,14560:0:0:0:0:
182,192,14398,1,0,0:0:0:0:
256,192,14398,1,0,0:0:0:0:
256,192,14560,1,0,0:0:0:0:
182,192,14560,1,0,0:0:0:0:
36,192,14722,1,0,0:0:0:0:
182,192,14722,1,0,0:0:0:0:
329,192,14722,1,0,0:0:0:0:
109,192,14804,1,0,0:0:0:0:
182,192,14885,1,0,0:0:0:0:
256,192,14966,1,0,0:0:0:0:
329,192,15047,1,0,0:0:0:0:
475,192,15047,128,0,15209:0:0:0:0:
329,192,15209,1,0,0:0:0:0:
256,192,15290,1,0,0:0:0:0:
182,192,15371,1,0,0:0:0:0:
109,192,15452,1,0,0:0:0:0:
182,192,15533,1,0,0:0:0:0:
36,192,15533,128,0,15695:0:0:0:0:
329,192,15533,1,0,0:0:0:0:
475,192,15695,128,0,16344:0:0:0:0:
109,192,15695,1,0,0:0:0:0:
182,192,15695,1,0,0:0:0:0:
109,192,15858,128,0,16020:0:0:0:0:
182,192,15858,1,0,0:0:0:0:
182,192,16020,1,0,0:0:0:0:
256,192,16020,1,0,0:0:0:0:
182,192,16182,128,0,16344:0:0:0:0:
402,192,16182,1,0,0:0:0:0:
329,192,16263,1,0,0:0:0:0:
256,192,16344,1,0,0:0:0:0:
329,192,16506,1,0,0:0:0:0:
182,192,16506,1,0,0:0:0:0:
256,192,16506,1,0,0:0:0:0:
109,192,16668,1,0,0:0:0:0:
182,192,16668,1,0,0:0:0:0:
329,192,16668,1,0,0:0:0:0:
402,192,16668,1,0,0:0:0:0:
182,192,16831,1,0,0:0:0:0:
329,192,16831,1,0,0:0:0:0:
109,192,16912,1,0,0:0:0:0:
256,192,16912,1,0,0:0:0:0:
182,192,16993,1,0,0:0:0:0:
329,192,16993,1,0,0:0:0:0:
256,192,17155,1,0,0:0:0:0:
109,192,17155,1,0,0:0:0:0:
329,192,17317,1,0,0:0:0:0:
475,192,17317,1,0,0:0:0:0:
182,192,17317,1,0,0:0:0:0:
402,192,17398,1,0,0:0:0:0:
329,192,17479,1,0,0:0:0:0:
256,192,17560,1,0,0:0:0:0:
182,192,17641,1,0,0:0:0:0:
36,192,17641,128,0,17804:0:0:0:0:
182,192,17804,1,0,0:0:0:0:
256,192,17885,1,0,0:0:0:0:
329,192,17966,1,0,0:0:0:0:
402,192,18047,1,0,0:0:0:0:
329,192,18128,1,0,0:0:0:0:
475,192,18128,128,0,18290:0:0:0:0:
182,192,18128,1,0,0:0:0:0:
402,192,18290,1,0,0:0:0:0:
36,192,18290,128,0,19101:0:0:0:0:
329,192,18290,1,0,0:0:0:0:
329,192,18452,1,0,0:0:0:0:
256,192,18493,1,0,0:0:0:0:
182,192,18533,1,0,0:0:0:0:
109,192,18574,1,0,0:0:0:0:
256,192,18777,1,0,0:0:0:0:
329,192,18777,1,0,0:0:0:0:
256,192,18939,1,0,0:0:0:0:
182,192,18939,1,0,0:0:0:0:
182,192,19101,1,0,0:0:0:0:
109,192,19101,1,0,0:0:0:0:
256,192,19182,1,0,0:0:0:0:
329,192,19263,1,0,0:0:0:0:
402,192,19344,1,0,0:0:0:0:
475,192,19425,1,0,0:0:0:0:
402,192,19506,1,0,0:0:0:0:
329,192,19587,1,0,0:0:0:0:
256,192,19668,1,0,0:0:0:0:
329,192,19749,1,0,0:0:0:0:
182,192,19749,1,0,0:0:0:0:
402,192,19831,1,0,0:0:0:0:
109,192,19831,1,0,0:0:0:0:
475,192,19912,1,0,0:0:0:0:
36,192,19912,1,0,0:0:0:0:
109,192,20560,1,0,0:0:0:0:
402,192,20560,1,0,0:0:0:0:
182,192,20560,128,0,20722:0:0:0:0:
256,192,20560,1,0,0:0:0:0:
256,192,20722,128,0,20804:0:0:0:0:
329,192,20804,128,0,21047:0:0:0:0:
109,192,21047,1,0,0:0:0:0:
402,192,21047,1,0,0:0:0:0:
256,192,21047,1,0,0:0:0:0:
109,192,21371,1,0,0:0:0:0:
256,192,21371,1,0,0:0:0:0:
402,192,21371,1,0,0:0:0:0:
182,192,21371,1,0,0:0:0:0:
109,192,21533,1,0,0:0:0:0:
256,192,21533,1,0,0:0:0:0:
329,192,21533,1,0,0:0:0:0:
402,192,21533,1,0,0:0:0:0:
109,192,21695,1,0,0:0:0:0:
182,192,21695,1,0,0:0:0:0:
256,192,21695,1,0,0:0:0:0:
402,192,21695,1,0,0:0:0:0:
109,192,21858,1,0,0:0:0:0:
256,192,21858,1,0,0:0:0:0:
329,192,21858,1,0,0:0:0:0:
402,192,21858,1,0,0:0:0:0:
182,192,22020,1,0,0:0:0:0:
256,192,22020,1,0,0:0:0:0:
109,192,22101,1,0,0:0:0:0:
36,192,22101,1,0,0:0:0:0:
182,192,22182,1,0,0:0:0:0:
256,192,22182,1,0,0:0:0:0:
109,192,22263,1,0,0:0:0:0:
36,192,22263,1,0,0:0:0:0:
182,192,22344,1,0,0:0:0:0:
256,192,22344,1,0,0:0:0:0:
109,192,22425,1,0,0:0:0:0:
36,192,22425,1,0,0:0:0:0:
182,192,22506,1,0,0:0:0:0:
329,192,22506,1,0,0:0:0:0:
256,192,22587,1,0,0:0:0:0:
36,192,22668,1,0,0:0:0:0:
182,192,22668,1,0,0:0:0:0:
329,192,22749,1,0,0:0:0:0:
256,192,22831,1,0,0:0:0:0:
109,192,22831,1,0,0:0:0:0:
36,192,22912,1,0,0:0:0:0:
109,192,22993,1,0,0:0:0:0:
256,192,22993,1,0,0:0:0:0:
402,192,23074,1,0,0:0:0:0:
329,192,23155,1,0,0:0:0:0:
182,192,23155,1,0,0:0:0:0:
109,192,23236,1,0,0:0:0:0:
182,192,23317,1,0,0:0:0:0:
329,192,23317,1,0,0:0:0:0:
36,192,23398,1,0,0:0:0:0:
402,192,23479,1,0,0:0:0:0:
256,192,23479,1,0,0:0:0:0:
182,192,23560,1,0,0:0:0:0:
475,192,23641,1,0,0:0:0:0:
329,192,23641,1,0,0:0:0:0:
402,192,23722,1,0,0:0:0:0:
475,192,23804,1,0,0:0:0:0:
256,192,23804,1,0,0:0:0:0:
329,192,23885,1,0,0:0:0:0:
402,192,23966,1,0,0:0:0:0:
256,192,23966,1,0,0:0:0:0:
475,192,24047,1,0,0:0:0:0:
402,192,24128,1,0,0:0:0:0:
182,192,24128,1,0,0:0:0:0:
109,192,24209,1,0,0:0:0:0:
329,192,24290,1,0,0:0:0:0:
182,192,24290,1,0,0:0:0:0:
402,192,24371,1,0,0:0:0:0:
329,192,24452,1,0,0:0:0:0:
109,192,24452,1,0,0:0:0:0:
182,192,24533,1,0,0:0:0:0:
36,192,24614,1,0,0:0:0:0:
109,192,24655,1,0,0:0:0:0:
182,192,24695,1,0,0:0:0:0:
256,192,24736,1,0,0:0:0:0:
402,192,24777,1,0,0:0:0:0:
109,192,24777,1,0,0:0:0:0:
329,192,24858,1,0,0:0:0:0:
36,192,24939,1,0,0:0:0:0:
182,192,24939,1,0,0:0:0:0:
329,192,25020,1,0,0:0:0:0:
109,192,25101,1,0,0:0:0:0:
256,192,25101,1,0,0:0:0:0:
36,192,25182,1,0,0:0:0:0:
256,192,25263,1,0,0:0:0:0:
109,192,25263,1,0,0:0:0:0:
402,192,25344,1,0,0:0:0:0:
329,192,25425,1,0,0:0:0:0:
182,192,25425,1,0,0:0:0:0:
109,192,25506,1,0,0:0:0:0:
329,192,25587,1,0,0:0:0:0:
182,192,25587,1,0,0:0:0:0:
475,192,25668,1,0,0:0:0:0:
256,192,25749,1,0,0:0:0:0:
402,192,25749,1,0,0:0:0:0:
109,192,25831,1,0,0:0:0:0:
402,192,25912,1,0,0:0:0:0:
256,192,25912,1,0,0:0:0:0:
182,192,25993,1,0,0:0:0:0:
329,192,26074,1,0,0:0:0:0:
475,192,26074,1,0,0:0:0:0:
256,192,26155,1,0,0:0:0:0:
329,192,26236,1,0,0:0:0:0:
475,192,26236,1,0,0:0:0:0:
182,192,26317,1,0,0:0:0:0:
256,192,26398,1,0,0:0:0:0:
402,192,26398,1,0,0:0:0:0:
475,192,26479,1,0,0:0:0:0:
329,192,26560,1,0,0:0:0:0:
182,192,26560,1,0,0:0:0:0:
36,192,26560,1,0,0:0:0:0:
182,192,26722,1,0,0:0:0:0:
329,192,26722,1,0,0:0:0:0:
475,192,26722,1,0,0:0:0:0:
402,192,26885,1,0,0:0:0:0:
256,192,26885,1,0,0:0:0:0:
109,192,26885,1,0,0:0:0:0:
182,192,27047,1,0,0:0:0:0:
329,192,27047,1,0,0:0:0:0:
475,192,27047,1,0,0:0:0:0:
329,192,27209,1,0,0:0:0:0:
182,192,27209,1,0,0:0:0:0:
36,192,27209,1,0,0:0:0:0:
109,192,27371,1,0,0:0:0:0:
256,192,27371,1,0,0:0:0:0:
329,192,27452,1,0,0:0:0:0:
256,192,27533,1,0,0:0:0:0:
402,192,27533,1,0,0:0:0:0:
182,192,27614,1,0,0:0:0:0:
329,192,27695,1,0,0:0:0:0:
475,192,27695,1,0,0:0:0:0:
256,192,27777,1,0,0:0:0:0:
329,192,27858,1,0,0:0:0:0:
475,192,27858,1,0,0:0:0:0:
182,192,27939,1,0,0:0:0:0:
256,192,28020,1,0,0:0:0:0:
402,192,28020,1,0,0:0:0:0:
475,192,28101,1,0,0:0:0:0:
256,192,28182,1,0,0:0:0:0:
402,192,28182,1,0,0:0:0:0:
109,192,28263,1,0,0:0:0:0:
182,192,28344,1,0,0:0:0:0:
329,192,28344,1,0,0:0:0:0:
402,192,28425,1,0,0:0:0:0:
182,192,28506,1,0,0:0:0:0:
329,192,28506,1,0,0:0:0:0:
36,192,28587,1,0,0:0:0:0:
109,192,28668,1,0,0:0:0:0:
256,192,28668,1,0,0:0:0:0:
329,192,28749,1,0,0:0:0:0:
109,192,28831,1,0,0:0:0:0:
256,192,28831,1,0,0:0:0:0:
402,192,28912,1,0,0:0:0:0:
36,192,28993,1,0,0:0:0:0:
182,192,28993,1,0,0:0:0:0:
329,192,28993,1,0,0:0:0:0:
256,192,29074,1,0,0:0:0:0:
182,192,29155,1,0,0:0:0:0:
36,192,29155,1,0,0:0:0:0:
402,192,29155,1,0,0:0:0:0:
329,192,29236,1,0,0:0:0:0:
109,192,29317,1,0,0:0:0:0:
256,192,29317,1,0,0:0:0:0:
475,192,29317,1,0,0:0:0:0:
182,192,29398,1,0,0:0:0:0:
256,192,29479,1,0,0:0:0:0:
109,192,29479,1,0,0:0:0:0:
402,192,29479,1,0,0:0:0:0:
36,192,29560,1,0,0:0:0:0:
182,192,29641,1,0,0:0:0:0:
329,192,29641,1,0,0:0:0:0:
402,192,29722,1,0,0:0:0:0:
36,192,29804,1,0,0:0:0:0:
109,192,29844,1,0,0:0:0:0:
182,192,29885,1,0,0:0:0:0:
256,192,29966,1,0,0:0:0:0:
402,192,29966,1,0,0:0:0:0:
475,192,30128,1,0,0:0:0:0:
36,192,30128,1,0,0:0:0:0:
182,192,30209,1,0,0:0:0:0:
329,192,30209,1,0,0:0:0:0:
402,192,30290,1,0,0:0:0:0:
256,192,30290,1,0,0:0:0:0:
109,192,30290,1,0,0:0:0:0:
36,192,30371,1,0,0:0:0:0:
329,192,30452,1,0,0:0:0:0:
182,192,30452,1,0,0:0:0:0:
402,192,30533,1,0,0:0:0:0:
256,192,30614,1,0,0:0:0:0:
109,192,30614,1,0,0:0:0:0:
475,192,30614,1,0,0:0:0:0:
329,192,30695,1,0,0:0:0:0:
36,192,30777,1,0,0:0:0:0:
182,192,30777,1,0,0:0:0:0:
402,192,30777,1,0,0:0:0:0:
329,192,30858,1,0,0:0:0:0:
109,192,30939,1,0,0:0:0:0:
256,192,30939,1,0,0:0:0:0:
402,192,31020,1,0,0:0:0:0:
182,192,31101,1,0,0:0:0:0:
329,192,31101,1,0,0:0:0:0:
109,192,31182,1,0,0:0:0:0:
256,192,31263,1,0,0:0:0:0:
402,192,31263,1,0,0:0:0:0:
36,192,31263,1,0,0:0:0:0:
182,192,31344,1,0,0:0:0:0:
329,192,31425,1,0,0:0:0:0:
475,192,31425,1,0,0:0:0:0:
109,192,31425,1,0,0:0:0:0:
402,192,31587,1,0,0:0:0:0:
256,192,31587,1,0,0:0:0:0:
109,192,31587,1,0,0:0:0:0:
182,192,31587,1,0,0:0:0:0:
329,192,31587,1,0,0:0:0:0:
109,192,31749,1,0,0:0:0:0:
182,192,31749,1,0,0:0:0:0:
329,192,31749,1,0,0:0:0:0:
402,192,31749,1,0,0:0:0:0:
256,192,31749,1,0,0:0:0:0:
109,192,31912,1,0,0:0:0:0:
182,192,31912,1,0,0:0:0:0:
256,192,31912,1,0,0:0:0:0:
329,192,31912,1,0,0:0:0:0:
402,192,31912,1,0,0:0:0:0:
109,192,32074,1,0,0:0:0:0:
182,192,32074,1,0,0:0:0:0:
256,192,32074,1,0,0:0:0:0:
329,192,32074,1,0,0:0:0:0:
402,192,32074,1,0,0:0:0:0:
109,192,32236,1,0,0:0:0:0:
182,192,32236,1,0,0:0:0:0:
256,192,32236,1,0,0:0:0:0:
329,192,32236,1,0,0:0:0:0:
402,192,32236,1,0,0:0:0:0:
475,192,32317,1,0,0:0:0:0:
402,192,32358,1,0,0:0:0:0:
329,192,32398,1,0,0:0:0:0:
256,192,32439,1,0,0:0:0:0:
182,192,32479,1,0,0:0:0:0:
109,192,32520,1,0,0:0:0:0:
36,192,32560,1,0,0:0:0:0:
36,192,32722,128,0,32885:0:0:0:0:
109,192,32722,1,0,0:0:0:0:
182,192,32804,1,0,0:0:0:0:
256,192,32885,1,0,0:0:0:0:
402,192,32885,1,0,0:0:0:0:
109,192,33047,128,0,33209:0:0:0:0:
182,192,33047,1,0,0:0:0:0:
256,192,33128,1,0,0:0:0:0:
475,192,33209,1,0,0:0:0:0:
329,192,33209,1,0,0:0:0:0:
182,192,33371,128,0,33533:0:0:0:0:
256,192,33371,1,0,0:0:0:0:
329,192,33452,1,0,0:0:0:0:
402,192,33533,1,0,0:0:0:0:
475,192,33533,1,0,0:0:0:0:
329,192,33614,1,0,0:0:0:0:
256,192,33614,1,0,0:0:0:0:
475,192,33695,128,0,33858:0:0:0:0:
402,192,33695,1,0,0:0:0:0:
329,192,33777,1,0,0:0:0:0:
256,192,33858,1,0,0:0:0:0:
182,192,33858,1,0,0:0:0:0:
402,192,34020,128,0,34182:0:0:0:0:
329,192,34020,1,0,0:0:0:0:
256,192,34101,1,0,0:0:0:0:
182,192,34182,1,0,0:0:0:0:
109,192,34182,1,0,0:0:0:0:
329,192,34344,128,0,34506:0:0:0:0:
256,192,34344,1,0,0:0:0:0:
182,192,34425,1,0,0:0:0:0:
109,192,34506,1,0,0:0:0:0:
36,192,34506,1,0,0:0:0:0:
36,192,34668,128,0,34831:0:0:0:0:
109,192,34668,1,0,0:0:0:0:
182,192,34749,1,0,0:0:0:0:
256,192,34831,1,0,0:0:0:0:
402,192,34831,1,0,0:0:0:0:
329,192,34912,1,0,0:0:0:0:
109,192,34993,128,0,35155:0:0:0:0:
182,192,34993,1,0,0:0:0:0:
256,192,35033,1,0,0:0:0:0:
329,192,35074,1,0,0:0:0:0:
402,192,35114,1,0,0:0:0:0:
475,192,35155,1,0,0:0:0:0:
402,192,35236,1,0,0:0:0:0:
182,192,35317,128,0,35479:0:0:0:0:
256,192,35317,1,0,0:0:0:0:
329,192,35398,1,0,0:0:0:0:
256,192,35479,1,0,0:0:0:0:
402,192,35479,1,0,0:0:0:0:
109,192,35641,1,0,0:0:0:0:
329,192,35641,1,0,0:0:0:0:
402,192,35804,1,0,0:0:0:0:
256,192,35804,1,0,0:0:0:0:
36,192,35804,1,0,0:0:0:0:
329,192,35885,1,0,0:0:0:0:
182,192,35885,1,0,0:0:0:0:
256,192,35966,1,0,0:0:0:0:
109,192,35966,1,0,0:0:0:0:
36,192,35966,1,0,0:0:0:0:
182,192,36128,1,0,0:0:0:0:
329,192,36128,1,0,0:0:0:0:
36,192,36128,1,0,0:0:0:0:
256,192,36209,1,0,0:0:0:0:
402,192,36209,1,0,0:0:0:0:
109,192,36209,1,0,0:0:0:0:
329,192,36290,1,0,0:0:0:0:
475,192,36290,1,0,0:0:0:0:
182,192,36290,1,0,0:0:0:0:
402,192,36371,1,0,0:0:0:0:
109,192,36371,1,0,0:0:0:0:
256,192,36452,128,0,36614:0:0:0:0:
109,192,36614,1,0,0:0:0:0:
402,192,36614,1,0,0:0:0:0:
36,192,36695,1,0,0:0:0:0:
182,192,36695,1,0,0:0:0:0:
329,192,36695,1,0,0:0:0:0:
109,192,36777,1,0,0:0:0:0:
256,192,36777,1,0,0:0:0:0:
402,192,36777,1,0,0:0:0:0:
329,192,36858,1,0,0:0:0:0:
182,192,36858,1,0,0:0:0:0:
36,192,36858,1,0,0:0:0:0:
109,192,36939,1,0,0:0:0:0:
256,192,36939,1,0,0:0:0:0:
402,192,36939,1,0,0:0:0:0:
182,192,37020,1,0,0:0:0:0:
329,192,37020,1,0,0:0:0:0:
475,192,37020,1,0,0:0:0:0:
256,192,37101,128,0,37263:0:0:0:0:
402,192,37101,1,0,0:0:0:0:
402,192,37263,1,0,0:0:0:0:
329,192,37304,1,0,0:0:0:0:
256,192,37344,1,0,0:0:0:0:
182,192,37385,1,0,0:0:0:0:
109,192,37425,1,0,0:0:0:0:
329,192,37506,1,0,0:0:0:0:
256,192,37587,1,0,0:0:0:0:
402,192,37587,1,0,0:0:0:0:
36,192,37587,1,0,0:0:0:0:
329,192,37668,1,0,0:0:0:0:
475,192,37668,1,0,0:0:0:0:
256,192,37749,128,0,37912:0:0:0:0:
109,192,37749,1,0,0:0:0:0:
182,192,37749,1,0,0:0:0:0:
109,192,37912,1,0,0:0:0:0:
36,192,37993,1,0,0:0:0:0:
182,192,37993,1,0,0:0:0:0:
109,192,38074,1,0,0:0:0:0:
256,192,38074,1,0,0:0:0:0:
182,192,38155,1,0,0:0:0:0:
329,192,38155,1,0,0:0:0:0:
256,192,38236,1,0,0:0:0:0:
402,192,38236,1,0,0:0:0:0:
36,192,38236,1,0,0:0:0:0:
329,192,38317,1,0,0:0:0:0:
475,192,38317,1,0,0:0:0:0:
402,192,38398,1,0,0:0:0:0:
256,192,38398,1,0,0:0:0:0:
36,192,38398,1,0,0:0:0:0:
256,192,38560,1,0,0:0:0:0:
109,192,38560,1,0,0:0:0:0:
475,192,38560,1,0,0:0:0:0:
182,192,38641,1,0,0:0:0:0:
36,192,38641,1,0,0:0:0:0:
109,192,38722,1,0,0:0:0:0:
256,192,38722,1,0,0:0:0:0:
475,192,38722,1,0,0:0:0:0:
182,192,38804,1,0,0:0:0:0:
329,192,38804,1,0,0:0:0:0:
256,192,38885,1,0,0:0:0:0:
402,192,38885,1,0,0:0:0:0:
182,192,38966,1,0,0:0:0:0:
329,192,38966,1,0,0:0:0:0:
256,192,39047,1,0,0:0:0:0:
109,192,39047,1,0,0:0:0:0:
475,192,39047,1,0,0:0:0:0:
182,192,39209,1,0,0:0:0:0:
329,192,39209,1,0,0:0:0:0:
256,192,39290,1,0,0:0:0:0:
402,192,39290,1,0,0:0:0:0:
329,192,39371,1,0,0:0:0:0:
182,192,39371,1,0,0:0:0:0:
36,192,39533,128,0,39695:0:0:0:0:
109,192,39533,128,0,39695:0:0:0:0:
182,192,39533,1,0,0:0:0:0:
329,192,39533,1,0,0:0:0:0:
182,192,39695,128,0,39858:0:0:0:0:
256,192,39695,128,0,39858:0:0:0:0:
329,192,39695,1,0,0:0:0:0:
475,192,39695,1,0,0:0:0:0:
329,192,39858,1,0,0:0:0:0:
475,192,39858,1,0,0:0:0:0:
36,192,39858,1,0,0:0:0:0:
402,192,39939,1,0,0:0:0:0:
256,192,39939,1,0,0:0:0:0:
329,192,40020,1,0,0:0:0:0:
182,192,40020,1,0,0:0:0:0:
109,192,40101,1,0,0:0:0:0:
256,192,40101,1,0,0:0:0:0:
182,192,40182,1,0,0:0:0:0:
329,192,40182,1,0,0:0:0:0:
256,192,40263,1,0,0:0:0:0:
402,192,40263,1,0,0:0:0:0:
329,192,40344,1,0,0:0:0:0:
475,192,40344,1,0,0:0:0:0:
36,192,40344,1,0,0:0:0:0:
36,192,40506,128,0,40668:0:0:0:0:
109,192,40506,1,0,0:0:0:0:
182,192,40506,1,0,0:0:0:0:
109,192,40668,1,0,0:0:0:0:
182,192,40668,1,0,0:0:0:0:
256,192,40668,1,0,0:0:0:0:
475,192,40831,128,0,40993:0:0:0:0:
329,192,40831,1,0,0:0:0:0:
402,192,40831,1,0,0:0:0:0:
402,192,40993,1,0,0:0:0:0:
329,192,40993,1,0,0:0:0:0:
256,192,40993,1,0,0:0:0:0:
109,192,41155,128,0,41317:0:0:0:0:
182,192,41155,1,0,0:0:0:0:
256,192,41155,1,0,0:0:0:0:
182,192,41317,1,0,0:0:0:0:
256,192,41317,1,0,0:0:0:0:
329,192,41317,1,0,0:0:0:0:
402,192,41479,128,0,41641:0:0:0:0:
256,192,41479,1,0,0:0:0:0:
329,192,41479,1,0,0:0:0:0:
329,192,41641,1,0,0:0:0:0:
256,192,41641,1,0,0:0:0:0:
182,192,41641,1,0,0:0:0:0:
36,192,41804,128,0,41966:0:0:0:0:
109,192,41804,1,0,0:0:0:0:
182,192,41804,1,0,0:0:0:0:
256,192,41966,1,0,0:0:0:0:
109,192,41966,1,0,0:0:0:0:
182,192,41966,1,0,0:0:0:0:
475,192,42128,128,0,42290:0:0:0:0:
402,192,42128,1,0,0:0:0:0:
329,192,42128,1,0,0:0:0:0:
402,192,42290,1,0,0:0:0:0:
329,192,42290,1,0,0:0:0:0:
256,192,42290,1,0,0:0:0:0:
36,192,42452,128,0,43263:0:0:0:0:
109,192,42452,1,0,0:0:0:0:
182,192,42493,1,0,0:0:0:0:
256,192,42533,1,0,0:0:0:0:
329,192,42574,1,0,0:0:0:0:
402,192,42614,1,0,0:0:0:0:
109,192,42614,1,0,0:0:0:0:
182,192,42655,1,0,0:0:0:0:
256,192,42695,1,0,0:0:0:0:
329,192,42736,1,0,0:0:0:0:
402,192,42777,1,0,0:0:0:0:
109,192,42817,1,0,0:0:0:0:
182,192,42858,1,0,0:0:0:0:
256,192,42898,1,0,0:0:0:0:
329,192,42939,1,0,0:0:0:0:
109,192,42939,128,0,43263:0:0:0:0:
475,192,42939,1,0,0:0:0:0:
475,192,43263,128,0,44236:0:0:0:0:
182,192,43263,1,0,0:0:0:0:
256,192,43263,1,0,0:0:0:0:
329,192,43344,1,0,0:0:0:0:
402,192,43344,1,0,0:0:0:0:
256,192,43425,1,0,0:0:0:0:
182,192,43425,1,0,0:0:0:0:
109,192,43506,1,0,0:0:0:0:
36,192,43506,1,0,0:0:0:0:
182,192,43587,1,0,0:0:0:0:
256,192,43587,1,0,0:0:0:0:
109,192,43749,1,0,0:0:0:0:
182,192,43749,1,0,0:0:0:0:
256,192,43749,128,0,44074:0:0:0:0:
36,192,43912,1,0,0:0:0:0:
109,192,43912,1,0,0:0:0:0:
109,192,44074,1,0,0:0:0:0:
182,192,44074,1,0,0:0:0:0:
36,192,44236,1,0,0:0:0:0:
182,192,44236,1,0,0:0:0:0:
256,192,44236,1,0,0:0:0:0:
256,192,44398,1,0,0:0:0:0:
329,192,44398,1,0,0:0:0:0:
109,192,44479,1,0,0:0:0:0:
182,192,44479,1,0,0:0:0:0:
256,192,44560,1,0,0:0:0:0:
329,192,44560,1,0,0:0:0:0:
402,192,44641,1,0,0:0:0:0:
475,192,44641,1,0,0:0:0:0:
256,192,44722,1,0,0:0:0:0:
36,192,44722,128,0,45533:0:0:0:0:
329,192,44722,1,0,0:0:0:0:
329,192,44885,1,0,0:0:0:0:
402,192,44885,1,0,0:0:0:0:
256,192,44885,128,0,45209:0:0:0:0:
475,192,45047,1,0,0:0:0:0:
402,192,45047,1,0,0:0:0:0:
329,192,45209,1,0,0:0:0:0:
402,192,45209,1,0,0:0:0:0:
256,192,45371,1,0,0:0:0:0:
475,192,45371,1,0,0:0:0:0:
329,192,45371,1,0,0:0:0:0:
329,192,45533,1,0,0:0:0:0:
402,192,45533,1,0,0:0:0:0:
256,192,45695,1,0,0:0:0:0:
329,192,45695,1,0,0:0:0:0:
402,192,45777,1,0,0:0:0:0:
475,192,45777,1,0,0:0:0:0:
256,192,45858,1,0,0:0:0:0:
329,192,45858,1,0,0:0:0:0:
109,192,45939,1,0,0:0:0:0:
182,192,45939,1,0,0:0:0:0:
256,192,46020,1,0,0:0:0:0:
329,192,46020,1,0,0:0:0:0:
475,192,46020,128,0,46668:0:0:0:0:
329,192,46182,1,0,0:0:0:0:
402,192,46182,1,0,0:0:0:0:
182,192,46344,1,0,0:0:0:0:
256,192,46344,1,0,0:0:0:0:
329,192,46344,128,0,46668:0:0:0:0:
109,192,46506,1,0,0:0:0:0:
36,192,46506,1,0,0:0:0:0:
182,192,46668,1,0,0:0:0:0:
256,192,46668,1,0,0:0:0:0:
182,192,46831,1,0,0:0:0:0:
256,192,46831,1,0,0:0:0:0:
402,192,46831,1,0,0:0:0:0:
36,192,47155,128,0,48452:0:0:0:0:
256,192,47155,1,0,0:0:0:0:
329,192,47155,1,0,0:0:0:0:
109,192,47236,1,0,0:0:0:0:
182,192,47236,1,0,0:0:0:0:
256,192,47317,1,0,0:0:0:0:
329,192,47317,1,0,0:0:0:0:
109,192,47479,128,0,48452:0:0:0:0:
329,192,47479,1,0,0:0:0:0:
402,192,47479,1,0,0:0:0:0:
402,192,47641,1,0,0:0:0:0:
475,192,47641,1,0,0:0:0:0:
182,192,47804,128,0,48452:0:0:0:0:
329,192,47804,1,0,0:0:0:0:
402,192,47804,1,0,0:0:0:0:
475,192,47966,1,0,0:0:0:0:
402,192,47966,1,0,0:0:0:0:
256,192,48128,128,0,48452:0:0:0:0:
329,192,48128,1,0,0:0:0:0:
402,192,48128,1,0,0:0:0:0:
402,192,48290,1,0,0:0:0:0:
475,192,48290,1,0,0:0:0:0:
329,192,48452,1,0,0:0:0:0:
402,192,48533,1,0,0:0:0:0:
475,192,48533,1,0,0:0:0:0:
329,192,48614,1,0,0:0:0:0:
256,192,48614,1,0,0:0:0:0:
36,192,48614,128,0,49425:0:0:0:0:
182,192,48695,1,0,0:0:0:0:
109,192,48695,1,0,0:0:0:0:
256,192,48777,1,0,0:0:0:0:
329,192,48777,1,0,0:0:0:0:
329,192,48939,1,0,0:0:0:0:
402,192,48939,1,0,0:0:0:0:
256,192,48939,128,0,49263:0:0:0:0:
475,192,49101,1,0,0:0:0:0:
182,192,49101,1,0,0:0:0:0:
329,192,49263,1,0,0:0:0:0:
402,192,49263,1,0,0:0:0:0:
256,192,49425,1,0,0:0:0:0:
402,192,49425,1,0,0:0:0:0:
182,192,49425,1,0,0:0:0:0:
182,192,49587,1,0,0:0:0:0:
256,192,49587,1,0,0:0:0:0:
329,192,49668,1,0,0:0:0:0:
402,192,49668,1,0,0:0:0:0:
256,192,49749,1,0,0:0:0:0:
182,192,49749,1,0,0:0:0:0:
36,192,49831,1,0,0:0:0:0:
109,192,49831,1,0,0:0:0:0:
182,192,49912,1,0,0:0:0:0:
256,192,49912,1,0,0:0:0:0:
475,192,49912,128,0,50722:0:0:0:0:
109,192,50074,1,0,0:0:0:0:
182,192,50074,1,0,0:0:0:0:
256,192,50074,128,0,50398:0:0:0:0:
36,192,50236,1,0,0:0:0:0:
109,192,50398,1,0,0:0:0:0:
182,192,50398,1,0,0:0:0:0:
329,192,50398,1,0,0:0:0:0:
256,192,50560,1,0,0:0:0:0:
109,192,50560,1,0,0:0:0:0:
109,192,50722,1,0,0:0:0:0:
182,192,50722,1,0,0:0:0:0:
329,192,50722,1,0,0:0:0:0:
182,192,50885,1,0,0:0:0:0:
256,192,50885,1,0,0:0:0:0:
109,192,51047,1,0,0:0:0:0:
256,192,51047,1,0,0:0:0:0:
402,192,51047,1,0,0:0:0:0:
475,192,51047,1,0,0:0:0:0:
36,192,51128,1,0,0:0:0:0:
182,192,51128,1,0,0:0:0:0:
109,192,51209,1,0,0:0:0:0:
256,192,51209,1,0,0:0:0:0:
182,192,51290,1,0,0:0:0:0:
329,192,51290,1,0,0:0:0:0:
256,192,51371,1,0,0:0:0:0:
402,192,51371,1,0,0:0:0:0:
36,192,51371,1,0,0:0:0:0:
109,192,51371,1,0,0:0:0:0:
329,192,51452,1,0,0:0:0:0:
475,192,51452,1,0,0:0:0:0:
182,192,51452,1,0,0:0:0:0:
402,192,51533,1,0,0:0:0:0:
256,192,51533,1,0,0:0:0:0:
182,192,51614,1,0,0:0:0:0:
329,192,51614,1,0,0:0:0:0:
109,192,51695,1,0,0:0:0:0:
256,192,51695,1,0,0:0:0:0:
402,192,51695,1,0,0:0:0:0:
475,192,51695,1,0,0:0:0:0:
109,192,51858,1,0,0:0:0:0:
256,192,51858,1,0,0:0:0:0:
182,192,51939,1,0,0:0:0:0:
329,192,51939,1,0,0:0:0:0:
256,192,52020,1,0,0:0:0:0:
402,192,52020,1,0,0:0:0:0:
36,192,52020,1,0,0:0:0:0:
109,192,52020,1,0,0:0:0:0:
182,192,52182,1,0,0:0:0:0:
329,192,52182,1,0,0:0:0:0:
475,192,52182,1,0,0:0:0:0:
36,192,52344,128,0,52993:0:0:0:0:
109,192,52344,1,0,0:0:0:0:
402,192,52425,1,0,0:0:0:0:
182,192,52506,1,0,0:0:0:0:
329,192,52587,1,0,0:0:0:0:
256,192,52668,1,0,0:0:0:0:
182,192,52749,1,0,0:0:0:0:
329,192,52831,1,0,0:0:0:0:
109,192,52912,1,0,0:0:0:0:
402,192,52993,1,0,0:0:0:0:
475,192,52993,128,0,53641:0:0:0:0:
329,192,53317,128,0,53641:0:0:0:0:
36,192,53641,1,0,0:0:0:0:
182,192,53641,1,0,0:0:0:0:
109,192,53722,1,0,0:0:0:0:
256,192,53722,1,0,0:0:0:0:
182,192,53804,1,0,0:0:0:0:
329,192,53804,1,0,0:0:0:0:
256,192,53885,1,0,0:0:0:0:
402,192,53885,1,0,0:0:0:0:
329,192,53966,1,0,0:0:0:0:
475,192,53966,1,0,0:0:0:0:
36,192,54128,1,0,0:0:0:0:
182,192,54128,1,0,0:0:0:0:
109,192,54209,1,0,0:0:0:0:
256,192,54209,1,0,0:0:0:0:
182,192,54290,1,0,0:0:0:0:
329,192,54290,1,0,0:0:0:0:
256,192,54371,1,0,0:0:0:0:
402,192,54371,1,0,0:0:0:0:
329,192,54452,1,0,0:0:0:0:
475,192,54452,1,0,0:0:0:0:
182,192,54614,128,0,54939:0:0:0:0:
109,192,54614,1,0,0:0:0:0:
109,192,54777,128,0,54939:0:0:0:0:
36,192,54777,1,0,0:0:0:0:
329,192,54939,1,0,0:0:0:0:
475,192,54939,1,0,0:0:0:0:
402,192,55020,1,0,0:0:0:0:
256,192,55020,1,0,0:0:0:0:
329,192,55101,1,0,0:0:0:0:
182,192,55101,1,0,0:0:0:0:
256,192,55182,1,0,0:0:0:0:
109,192,55182,1,0,0:0:0:0:
182,192,55263,1,0,0:0:0:0:
36,192,55263,1,0,0:0:0:0:
329,192,55425,1,0,0:0:0:0:
475,192,55425,1,0,0:0:0:0:
402,192,55506,1,0,0:0:0:0:
256,192,55506,1,0,0:0:0:0:
329,192,55587,1,0,0:0:0:0:
182,192,55587,1,0,0:0:0:0:
256,192,55668,1,0,0:0:0:0:
109,192,55668,1,0,0:0:0:0:
182,192,55749,1,0,0:0:0:0:
36,192,55749,1,0,0:0:0:0:
329,192,55912,128,0,56236:0:0:0:0:
402,192,55912,1,0,0:0:0:0:
402,192,56074,128,0,56236:0:0:0:0:
475,192,56074,1,0,0:0:0:0:
36,192,56236,1,0,0:0:0:0:
182,192,56236,1,0,0:0:0:0:
109,192,56317,1,0,0:0:0:0:
256,192,56317,1,0,0:0:0:0:
182,192,56398,1,0,0:0:0:0:
329,192,56398,1,0,0:0:0:0:
256,192,56479,1,0,0:0:0:0:
402,192,56479,1,0,0:0:0:0:
329,192,56560,1,0,0:0:0:0:
475,192,56560,1,0,0:0:0:0:
329,192,56722,1,0,0:0:0:0:
475,192,56722,1,0,0:0:0:0:
402,192,56804,1,0,0:0:0:0:
256,192,56804,1,0,0:0:0:0:
329,192,56885,1,0,0:0:0:0:
182,192,56885,1,0,0:0:0:0:
256,192,56966,1,0,0:0:0:0:
109,192,56966,1,0,0:0:0:0:
182,192,57047,1,0,0:0:0:0:
36,192,57047,1,0,0:0:0:0:
329,192,57209,128,0,57533:0:0:0:0:
402,192,57209,1,0,0:0:0:0:
402,192,57371,128,0,57533:0:0:0:0:
475,192,57371,1,0,0:0:0:0:
36,192,57533,1,0,0:0:0:0:
182,192,57533,1,0,0:0:0:0:
109,192,57614,1,0,0:0:0:0:
256,192,57614,1,0,0:0:0:0:
182,192,57695,1,0,0:0:0:0:
329,192,57695,1,0,0:0:0:0:
256,192,57777,1,0,0:0:0:0:
402,192,57777,1,0,0:0:0:0:
329,192,57858,1,0,0:0:0:0:
475,192,57858,1,0,0:0:0:0:
36,192,58020,1,0,0:0:0:0:
182,192,58020,1,0,0:0:0:0:
109,192,58101,1,0,0:0:0:0:
256,192,58101,1,0,0:0:0:0:
182,192,58182,1,0,0:0:0:0:
329,192,58182,1,0,0:0:0:0:
256,192,58263,1,0,0:0:0:0:
402,192,58263,1,0,0:0:0:0:
329,192,58344,1,0,0:0:0:0:
475,192,58344,1,0,0:0:0:0:
256,192,58506,128,0,58831:0:0:0:0:
182,192,58506,1,0,0:0:0:0:
329,192,58506,1,0,0:0:0:0:
109,192,58831,1,0,0:0:0:0:
402,192,58831,1,0,0:0:0:0:
36,192,58831,1,0,0:0:0:0:
475,192,58831,1,0,0:0:0:0:
329,192,58912,1,0,0:0:0:0:
36,192,58993,128,0,59317:0:0:0:0:
256,192,58993,1,0,0:0:0:0:
182,192,59074,1,0,0:0:0:0:
109,192,59155,128,0,59317:0:0:0:0:
256,192,59155,1,0,0:0:0:0:
182,192,59317,128,0,59641:0:0:0:0:
402,192,59317,1,0,0:0:0:0:
475,192,59317,1,0,0:0:0:0:
256,192,59479,128,0,59641:0:0:0:0:
475,192,59479,1,0,0:0:0:0:
402,192,59560,1,0,0:0:0:0:
475,192,59641,128,0,59966:0:0:0:0:
329,192,59641,1,0,0:0:0:0:
256,192,59722,1,0,0:0:0:0:
402,192,59804,128,0,59966:0:0:0:0:
182,192,59804,1,0,0:0:0:0:
329,192,59966,128,0,60290:0:0:0:0:
36,192,59966,1,0,0:0:0:0:
109,192,59966,1,0,0:0:0:0:
256,192,60128,128,0,60290:0:0:0:0:
36,192,60128,1,0,0:0:0:0:
109,192,60209,1,0,0:0:0:0:
182,192,60290,1,0,0:0:0:0:
36,192,60290,128,0,60614:0:0:0:0:
256,192,60371,1,0,0:0:0:0:
329,192,60452,1,0,0:0:0:0:
109,192,60452,128,0,60614:0:0:0:0:
402,192,60614,1,0,0:0:0:0:
475,192,60614,1,0,0:0:0:0:
182,192,60614,128,0,60939:0:0:0:0:
256,192,60777,128,0,60939:0:0:0:0:
475,192,60777,1,0,0:0:0:0:
402,192,60858,1,0,0:0:0:0:
329,192,60939,1,0,0:0:0:0:
475,192,60939,128,0,61263:0:0:0:0:
256,192,61020,1,0,0:0:0:0:
182,192,61101,1,0,0:0:0:0:
402,192,61101,128,0,61263:0:0:0:0:
36,192,61263,1,0,0:0:0:0:
109,192,61263,1,0,0:0:0:0:
329,192,61263,128,0,61587:0:0:0:0:
256,192,61425,128,0,61587:0:0:0:0:
36,192,61425,1,0,0:0:0:0:
109,192,61506,1,0,0:0:0:0:
182,192,61587,1,0,0:0:0:0:
36,192,61587,128,0,61912:0:0:0:0:
256,192,61668,1,0,0:0:0:0:
329,192,61749,1,0,0:0:0:0:
109,192,61749,128,0,61912:0:0:0:0:
182,192,61912,128,0,62236:0:0:0:0:
329,192,61912,1,0,0:0:0:0:
402,192,61993,1,0,0:0:0:0:
256,192,62074,128,0,62236:0:0:0:0:
475,192,62074,1,0,0:0:0:0:
329,192,62236,1,0,0:0:0:0:
475,192,62236,128,0,62560:0:0:0:0:
256,192,62317,1,0,0:0:0:0:
182,192,62398,1,0,0:0:0:0:
402,192,62398,128,0,62560:0:0:0:0:
329,192,62560,128,0,62722:0:0:0:0:
36,192,62560,1,0,0:0:0:0:
109,192,62641,1,0,0:0:0:0:
182,192,62722,1,0,0:0:0:0:
256,192,62722,1,0,0:0:0:0:
109,192,62804,1,0,0:0:0:0:
182,192,62804,1,0,0:0:0:0:
36,192,62885,1,0,0:0:0:0:
109,192,62885,1,0,0:0:0:0:
36,192,62966,1,0,0:0:0:0:
182,192,62966,1,0,0:0:0:0:
256,192,63047,1,0,0:0:0:0:
109,192,63047,1,0,0:0:0:0:
182,192,63128,1,0,0:0:0:0:
329,192,63128,1,0,0:0:0:0:
329,192,63209,1,0,0:0:0:0:
256,192,63209,1,0,0:0:0:0:
329,192,63290,1,0,0:0:0:0:
475,192,63290,1,0,0:0:0:0:
402,192,63371,1,0,0:0:0:0:
256,192,63371,1,0,0:0:0:0:
329,192,63452,1,0,0:0:0:0:
182,192,63452,1,0,0:0:0:0:
256,192,63533,1,0,0:0:0:0:
182,192,63533,1,0,0:0:0:0:
36,192,63614,1,0,0:0:0:0:
182,192,63614,1,0,0:0:0:0:
109,192,63695,1,0,0:0:0:0:
256,192,63695,1,0,0:0:0:0:
182,192,63777,1,0,0:0:0:0:
329,192,63777,1,0,0:0:0:0:
329,192,63858,1,0,0:0:0:0:
256,192,63858,1,0,0:0:0:0:
329,192,63939,1,0,0:0:0:0:
475,192,63939,1,0,0:0:0:0:
402,192,64020,1,0,0:0:0:0:
256,192,64020,1,0,0:0:0:0:
109,192,64020,1,0,0:0:0:0:
256,192,64344,128,0,64668:0:0:0:0:
182,192,64344,1,0,0:0:0:0:
109,192,64344,1,0,0:0:0:0:
329,192,64668,128,0,64993:0:0:0:0:
182,192,64668,1,0,0:0:0:0:
109,192,64668,1,0,0:0:0:0:
256,192,64993,1,0,0:0:0:0:
402,192,64993,128,0,65317:0:0:0:0:
182,192,64993,1,0,0:0:0:0:
182,192,65317,1,0,0:0:0:0:
329,192,65317,128,0,65601:0:0:0:0:
256,192,65317,1,0,0:0:0:0:
109,192,65601,1,0,0:0:0:0:
256,192,65601,1,0,0:0:0:0:
182,192,65682,1,0,0:0:0:0:
329,192,65682,1,0,0:0:0:0:
256,192,65804,1,0,0:0:0:0:
402,192,65804,1,0,0:0:0:0:
329,192,65966,1,0,0:0:0:0:
402,192,65966,128,0,66614:0:0:0:0:
182,192,65966,1,0,0:0:0:0:
256,192,66047,1,0,0:0:0:0:
182,192,66128,1,0,0:0:0:0:
256,192,66209,1,0,0:0:0:0:
182,192,66290,1,0,0:0:0:0:
256,192,66371,1,0,0:0:0:0:
182,192,66452,1,0,0:0:0:0:
256,192,66533,1,0,0:0:0:0:
329,192,66614,1,0,0:0:0:0:
182,192,66614,1,0,0:0:0:0:
475,192,66614,128,0,67587:0:0:0:0:
109,192,66777,1,0,0:0:0:0:
256,192,66777,1,0,0:0:0:0:
36,192,66777,1,0,0:0:0:0:
109,192,66858,1,0,0:0:0:0:
256,192,66858,1,0,0:0:0:0:
36,192,66858,1,0,0:0:0:0:
109,192,66939,1,0,0:0:0:0:
256,192,66939,1,0,0:0:0:0:
36,192,66939,1,0,0:0:0:0:
182,192,67101,1,0,0:0:0:0:
329,192,67101,1,0,0:0:0:0:
256,192,67263,1,0,0:0:0:0:
402,192,67263,1,0,0:0:0:0:
402,192,67587,1,0,0:0:0:0:
256,192,67587,1,0,0:0:0:0:
109,192,67587,1,0,0:0:0:0:
475,192,67912,128,0,68885:0:0:0:0:
182,192,67912,1,0,0:0:0:0:
329,192,67912,1,0,0:0:0:0:
109,192,67993,1,0,0:0:0:0:
256,192,68074,1,0,0:0:0:0:
182,192,68074,1,0,0:0:0:0:
36,192,68074,1,0,0:0:0:0:
329,192,68155,1,0,0:0:0:0:
109,192,68236,1,0,0:0:0:0:
36,192,68236,1,0,0:0:0:0:
256,192,68236,1,0,0:0:0:0:
329,192,68317,1,0,0:0:0:0:
109,192,68398,1,0,0:0:0:0:
182,192,68398,1,0,0:0:0:0:
256,192,68398,1,0,0:0:0:0:
402,192,68479,1,0,0:0:0:0:
329,192,68560,1,0,0:0:0:0:
109,192,68560,1,0,0:0:0:0:
256,192,68641,1,0,0:0:0:0:
182,192,68722,1,0,0:0:0:0:
329,192,68722,1,0,0:0:0:0:
402,192,68722,1,0,0:0:0:0:
36,192,68804,1,0,0:0:0:0:
109,192,68885,1,0,0:0:0:0:
256,192,68885,1,0,0:0:0:0:
182,192,68966,1,0,0:0:0:0:
256,192,69047,1,0,0:0:0:0:
329,192,69047,1,0,0:0:0:0:
402,192,69047,1,0,0:0:0:0:
109,192,69128,1,0,0:0:0:0:
182,192,69209,1,0,0:0:0:0:
36,192,69209,128,0,69858:0:0:0:0:
402,192,69209,1,0,0:0:0:0:
109,192,69290,1,0,0:0:0:0:
182,192,69371,1,0,0:0:0:0:
256,192,69371,1,0,0:0:0:0:
329,192,69371,1,0,0:0:0:0:
402,192,69452,1,0,0:0:0:0:
329,192,69533,1,0,0:0:0:0:
475,192,69533,1,0,0:0:0:0:
256,192,69614,1,0,0:0:0:0:
329,192,69695,1,0,0:0:0:0:
402,192,69695,1,0,0:0:0:0:
475,192,69695,1,0,0:0:0:0:
109,192,69777,1,0,0:0:0:0:
182,192,69858,1,0,0:0:0:0:
329,192,69858,1,0,0:0:0:0:
256,192,69939,1,0,0:0:0:0:
329,192,70020,1,0,0:0:0:0:
182,192,70101,1,0,0:0:0:0:
475,192,70182,128,0,70506:0:0:0:0:
402,192,70182,1,0,0:0:0:0:
256,192,70182,1,0,0:0:0:0:
329,192,70263,1,0,0:0:0:0:
182,192,70344,1,0,0:0:0:0:
36,192,70344,1,0,0:0:0:0:
109,192,70344,1,0,0:0:0:0:
256,192,70425,1,0,0:0:0:0:
329,192,70506,1,0,0:0:0:0:
182,192,70506,1,0,0:0:0:0:
109,192,70587,1,0,0:0:0:0:
182,192,70668,1,0,0:0:0:0:
256,192,70668,1,0,0:0:0:0:
329,192,70668,1,0,0:0:0:0:
36,192,70749,1,0,0:0:0:0:
109,192,70831,1,0,0:0:0:0:
256,192,70831,1,0,0:0:0:0:
329,192,70912,1,0,0:0:0:0:
402,192,70993,1,0,0:0:0:0:
256,192,70993,1,0,0:0:0:0:
182,192,70993,1,0,0:0:0:0:
36,192,70993,128,0,72452:0:0:0:0:
329,192,71074,1,0,0:0:0:0:
402,192,71155,1,0,0:0:0:0:
256,192,71155,1,0,0:0:0:0:
182,192,71236,1,0,0:0:0:0:
109,192,71317,1,0,0:0:0:0:
256,192,71317,1,0,0:0:0:0:
329,192,71317,1,0,0:0:0:0:
475,192,71398,1,0,0:0:0:0:
402,192,71479,1,0,0:0:0:0:
256,192,71479,1,0,0:0:0:0:
182,192,71560,1,0,0:0:0:0:
109,192,71641,1,0,0:0:0:0:
256,192,71641,1,0,0:0:0:0:
329,192,71641,1,0,0:0:0:0:
402,192,71722,1,0,0:0:0:0:
109,192,71804,128,0,71966:0:0:0:0:
182,192,71804,128,0,71966:0:0:0:0:
329,192,71804,1,0,0:0:0:0:
475,192,71804,1,0,0:0:0:0:
402,192,71885,1,0,0:0:0:0:
256,192,71966,128,0,72128:0:0:0:0:
329,192,71966,128,0,72128:0:0:0:0:
475,192,71966,1,0,0:0:0:0:
402,192,72047,1,0,0:0:0:0:
109,192,72128,128,0,72290:0:0:0:0:
182,192,72128,128,0,72290:0:0:0:0:
475,192,72128,1,0,0:0:0:0:
329,192,72209,1,0,0:0:0:0:
402,192,72290,128,0,72452:0:0:0:0:
475,192,72290,128,0,72452:0:0:0:0:
256,192,72290,1,0,0:0:0:0:
182,192,72371,1,0,0:0:0:0:
109,192,72452,1,0,0:0:0:0:
256,192,72452,1,0,0:0:0:0:
182,192,72614,1,0,0:0:0:0:
329,192,72614,1,0,0:0:0:0:
109,192,72695,1,0,0:0:0:0:
256,192,72695,1,0,0:0:0:0:
36,192,72777,1,0,0:0:0:0:
329,192,72777,1,0,0:0:0:0:
109,192,72939,1,0,0:0:0:0:
402,192,72939,1,0,0:0:0:0:
182,192,73101,1,0,0:0:0:0:
475,192,73101,1,0,0:0:0:0:
36,192,73101,128,0,73425:0:0:0:0:
109,192,73101,128,0,73425:0:0:0:0:
402,192,73263,128,0,73749:0:0:0:0:
475,192,73263,128,0,73749:0:0:0:0:
256,192,73263,1,0,0:0:0:0:
329,192,73263,1,0,0:0:0:0:
329,192,73425,128,0,73749:0:0:0:0:
256,192,73425,1,0,0:0:0:0:
182,192,73587,128,0,73749:0:0:0:0:
109,192,73587,1,0,0:0:0:0:
36,192,73749,1,0,0:0:0:0:
182,192,73912,1,0,0:0:0:0:
109,192,73912,1,0,0:0:0:0:
256,192,73912,1,0,0:0:0:0:
329,192,73912,1,0,0:0:0:0:
402,192,73912,1,0,0:0:0:0:
109,192,74074,1,0,0:0:0:0:
182,192,74074,1,0,0:0:0:0:
256,192,74074,1,0,0:0:0:0:
329,192,74074,1,0,0:0:0:0:
402,192,74074,1,0,0:0:0:0:
402,192,74236,128,0,74560:0:0:0:0:
475,192,74236,128,0,74560:0:0:0:0:
329,192,74236,1,0,0:0:0:0:
256,192,74236,1,0,0:0:0:0:
182,192,74236,1,0,0:0:0:0:
36,192,74398,128,0,75047:0:0:0:0:
109,192,74398,128,0,75047:0:0:0:0:
182,192,74398,1,0,0:0:0:0:
182,192,74560,128,0,75047:0:0:0:0:
256,192,74560,1,0,0:0:0:0:
402,192,74722,1,0,0:0:0:0:
475,192,74722,1,0,0:0:0:0:
329,192,74722,128,0,75047:0:0:0:0:
475,192,74885,1,0,0:0:0:0:
402,192,74885,128,0,75047:0:0:0:0:
475,192,75047,1,0,0:0:0:0:
109,192,75209,1,0,0:0:0:0:
256,192,75209,1,0,0:0:0:0:
329,192,75290,1,0,0:0:0:0:
182,192,75290,1,0,0:0:0:0:
256,192,75371,1,0,0:0:0:0:
402,192,75371,1,0,0:0:0:0:
182,192,75533,1,0,0:0:0:0:
329,192,75533,1,0,0:0:0:0:
256,192,75533,1,0,0:0:0:0:
402,192,75614,1,0,0:0:0:0:
256,192,75695,1,0,0:0:0:0:
109,192,75695,1,0,0:0:0:0:
182,192,75695,1,0,0:0:0:0:
329,192,75777,1,0,0:0:0:0:
36,192,75858,1,0,0:0:0:0:
182,192,75858,1,0,0:0:0:0:
109,192,75858,1,0,0:0:0:0:
256,192,75939,1,0,0:0:0:0:
109,192,76020,128,0,76182:0:0:0:0:
109,192,76344,1,0,0:0:0:0:
256,192,76344,1,0,0:0:0:0:
182,192,76344,1,0,0:0:0:0:
36,192,76425,1,0,0:0:0:0:
182,192,76506,1,0,0:0:0:0:
329,192,76506,1,0,0:0:0:0:
256,192,76506,1,0,0:0:0:0:
109,192,76587,1,0,0:0:0:0:
256,192,76668,1,0,0:0:0:0:
402,192,76668,1,0,0:0:0:0:
329,192,76668,128,0,76831:0:0:0:0:
182,192,76749,1,0,0:0:0:0:
36,192,76993,1,0,0:0:0:0:
109,192,76993,1,0,0:0:0:0:
182,192,76993,1,0,0:0:0:0:
256,192,76993,1,0,0:0:0:0:
402,192,77155,1,0,0:0:0:0:
109,192,77317,1,0,0:0:0:0:
182,192,77317,1,0,0:0:0:0:
256,192,77317,1,0,0:0:0:0:
329,192,77317,1,0,0:0:0:0:
475,192,77479,1,0,0:0:0:0:
182,192,77641,1,0,0:0:0:0:
256,192,77641,1,0,0:0:0:0:
329,192,77641,1,0,0:0:0:0:
402,192,77641,1,0,0:0:0:0:
182,192,77804,1,0,0:0:0:0:
329,192,77804,1,0,0:0:0:0:
256,192,77885,1,0,0:0:0:0:
109,192,77885,1,0,0:0:0:0:
182,192,77966,1,0,0:0:0:0:
36,192,77966,1,0,0:0:0:0:
36,192,78128,1,0,0:0:0:0:
182,192,78128,1,0,0:0:0:0:
36,192,78290,1,0,0:0:0:0:
182,192,78290,1,0,0:0:0:0:
475,192,78452,128,0,79263:0:0:0:0:
109,192,78452,1,0,0:0:0:0:
256,192,78452,1,0,0:0:0:0:
329,192,78533,1,0,0:0:0:0:
256,192,78614,1,0,0:0:0:0:
109,192,78614,1,0,0:0:0:0:
182,192,78695,1,0,0:0:0:0:
36,192,78777,1,0,0:0:0:0:
109,192,78777,1,0,0:0:0:0:
256,192,78777,1,0,0:0:0:0:
329,192,78858,1,0,0:0:0:0:
256,192,78939,1,0,0:0:0:0:
109,192,78939,1,0,0:0:0:0:
182,192,79020,1,0,0:0:0:0:
109,192,79101,1,0,0:0:0:0:
36,192,79101,1,0,0:0:0:0:
256,192,79101,1,0,0:0:0:0:
329,192,79182,1,0,0:0:0:0:
182,192,79263,1,0,0:0:0:0:
36,192,79263,1,0,0:0:0:0:
256,192,79344,1,0,0:0:0:0:
329,192,79425,1,0,0:0:0:0:
402,192,79425,1,0,0:0:0:0:
475,192,79425,1,0,0:0:0:0:
256,192,79506,1,0,0:0:0:0:
36,192,79587,128,0,80236:0:0:0:0:
182,192,79587,1,0,0:0:0:0:
329,192,79587,1,0,0:0:0:0:
256,192,79668,1,0,0:0:0:0:
329,192,79749,1,0,0:0:0:0:
475,192,79749,1,0,0:0:0:0:
109,192,79831,1,0,0:0:0:0:
329,192,79912,1,0,0:0:0:0:
182,192,79912,1,0,0:0:0:0:
402,192,79993,1,0,0:0:0:0:
475,192,80074,1,0,0:0:0:0:
329,192,80074,1,0,0:0:0:0:
256,192,80074,1,0,0:0:0:0:
182,192,80155,1,0,0:0:0:0:
109,192,80236,1,0,0:0:0:0:
256,192,80236,1,0,0:0:0:0:
182,192,80317,1,0,0:0:0:0:
36,192,80398,1,0,0:0:0:0:
109,192,80439,1,0,0:0:0:0:
182,192,80479,1,0,0:0:0:0:
256,192,80520,1,0,0:0:0:0:
475,192,80560,128,0,80885:0:0:0:0:
329,192,80560,1,0,0:0:0:0:
182,192,80641,1,0,0:0:0:0:
109,192,80722,1,0,0:0:0:0:
36,192,80722,1,0,0:0:0:0:
256,192,80722,1,0,0:0:0:0:
329,192,80804,1,0,0:0:0:0:
182,192,80885,1,0,0:0:0:0:
36,192,80885,1,0,0:0:0:0:
256,192,80966,1,0,0:0:0:0:
329,192,81047,1,0,0:0:0:0:
402,192,81047,1,0,0:0:0:0:
475,192,81047,1,0,0:0:0:0:
256,192,81128,1,0,0:0:0:0:
182,192,81209,1,0,0:0:0:0:
329,192,81209,1,0,0:0:0:0:
256,192,81290,1,0,0:0:0:0:
36,192,81371,128,0,82831:0:0:0:0:
109,192,81371,1,0,0:0:0:0:
182,192,81371,1,0,0:0:0:0:
402,192,81371,1,0,0:0:0:0:
329,192,81452,1,0,0:0:0:0:
402,192,81533,1,0,0:0:0:0:
475,192,81533,1,0,0:0:0:0:
329,192,81614,1,0,0:0:0:0:
256,192,81695,1,0,0:0:0:0:
182,192,81695,1,0,0:0:0:0:
109,192,81695,1,0,0:0:0:0:
329,192,81777,1,0,0:0:0:0:
402,192,81858,1,0,0:0:0:0:
475,192,81858,1,0,0:0:0:0:
329,192,81939,1,0,0:0:0:0:
109,192,82020,1,0,0:0:0:0:
256,192,82020,1,0,0:0:0:0:
182,192,82101,1,0,0:0:0:0:
256,192,82182,1,0,0:0:0:0:
402,192,82182,1,0,0:0:0:0:
329,192,82263,1,0,0:0:0:0:
256,192,82344,1,0,0:0:0:0:
109,192,82344,1,0,0:0:0:0:
402,192,82344,1,0,0:0:0:0:
182,192,82425,1,0,0:0:0:0:
256,192,82506,1,0,0:0:0:0:
329,192,82506,1,0,0:0:0:0:
402,192,82506,1,0,0:0:0:0:
475,192,82587,1,0,0:0:0:0:
402,192,82668,1,0,0:0:0:0:
182,192,82668,1,0,0:0:0:0:
256,192,82749,1,0,0:0:0:0:
475,192,82749,1,0,0:0:0:0:
109,192,82831,1,0,0:0:0:0:
329,192,82831,1,0,0:0:0:0:
256,192,82912,1,0,0:0:0:0:
182,192,82993,1,0,0:0:0:0:
329,192,82993,1,0,0:0:0:0:
402,192,82993,1,0,0:0:0:0:
109,192,83074,1,0,0:0:0:0:
182,192,83155,1,0,0:0:0:0:
329,192,83155,1,0,0:0:0:0:
109,192,83236,1,0,0:0:0:0:
36,192,83317,1,0,0:0:0:0:
182,192,83317,1,0,0:0:0:0:
402,192,83479,128,0,83804:0:0:0:0:
475,192,83479,128,0,83804:0:0:0:0:
182,192,83479,1,0,0:0:0:0:
256,192,83479,1,0,0:0:0:0:
329,192,83479,1,0,0:0:0:0:
36,192,83641,128,0,84290:0:0:0:0:
109,192,83641,128,0,84290:0:0:0:0:
256,192,83641,1,0,0:0:0:0:
329,192,83641,1,0,0:0:0:0:
182,192,83804,128,0,84290:0:0:0:0:
256,192,83804,1,0,0:0:0:0:
329,192,83966,1,0,0:0:0:0:
329,192,84128,128,0,84290:0:0:0:0:
402,192,84128,1,0,0:0:0:0:
475,192,84128,1,0,0:0:0:0:
402,192,84290,1,0,0:0:0:0:
475,192,84290,1,0,0:0:0:0:
329,192,84452,1,0,0:0:0:0:
256,192,84452,1,0,0:0:0:0:
182,192,84452,1,0,0:0:0:0:
109,192,84452,1,0,0:0:0:0:
402,192,84452,1,0,0:0:0:0:
36,192,84614,128,0,85101:0:0:0:0:
109,192,84614,128,0,85101:0:0:0:0:
182,192,84614,1,0,0:0:0:0:
256,192,84614,1,0,0:0:0:0:
329,192,84614,1,0,0:0:0:0:
402,192,84777,128,0,85425:0:0:0:0:
475,192,84777,128,0,85425:0:0:0:0:
182,192,84777,1,0,0:0:0:0:
256,192,84777,1,0,0:0:0:0:
329,192,84939,128,0,85587:0:0:0:0:
256,192,84939,1,0,0:0:0:0:
182,192,85101,128,0,85587:0:0:0:0:
256,192,85101,1,0,0:0:0:0:
109,192,85263,1,0,0:0:0:0:
109,192,85425,128,0,85587:0:0:0:0:
36,192,85425,1,0,0:0:0:0:
36,192,85587,1,0,0:0:0:0:
256,192,85587,1,0,0:0:0:0:
256,192,85668,1,0,0:0:0:0:
36,192,85668,1,0,0:0:0:0:
109,192,85749,1,0,0:0:0:0:
329,192,85749,1,0,0:0:0:0:
329,192,85912,128,0,86074:0:0:0:0:
182,192,85912,128,0,86074:0:0:0:0:
109,192,86074,1,0,0:0:0:0:
402,192,86074,1,0,0:0:0:0:
36,192,86155,1,0,0:0:0:0:
475,192,86155,1,0,0:0:0:0:
109,192,86236,1,0,0:0:0:0:
402,192,86236,1,0,0:0:0:0:
182,192,86317,1,0,0:0:0:0:
329,192,86317,1,0,0:0:0:0:
109,192,86398,128,0,86722:0:0:0:0:
402,192,86398,128,0,86722:0:0:0:0:
36,192,86722,1,0,0:0:0:0:
475,192,86722,1,0,0:0:0:0:
182,192,86804,1,0,0:0:0:0:
329,192,86804,1,0,0:0:0:0:
109,192,86885,1,0,0:0:0:0:
402,192,86885,1,0,0:0:0:0:
475,192,86966,1,0,0:0:0:0:
36,192,86966,1,0,0:0:0:0:
109,192,87047,1,0,0:0:0:0:
402,192,87047,1,0,0:0:0:0:
36,192,87371,1,0,0:0:0:0:
109,192,87371,1,0,0:0:0:0:
182,192,87371,1,0,0:0:0:0:
256,192,87371,128,0,87452:0:0:0:0:
182,192,87533,1,0,0:0:0:0:
329,192,87533,1,0,0:0:0:0:
329,192,87695,1,0,0:0:0:0:
402,192,87695,1,0,0:0:0:0:
475,192,87695,1,0,0:0:0:0:
256,192,87695,128,0,87777:0:0:0:0:
182,192,87858,1,0,0:0:0:0:
329,192,87858,1,0,0:0:0:0:
36,192,88020,1,0,0:0:0:0:
109,192,88020,1,0,0:0:0:0:
182,192,88020,1,0,0:0:0:0:
256,192,88020,128,0,88101:0:0:0:0:
182,192,88182,1,0,0:0:0:0:
329,192,88182,1,0,0:0:0:0:
109,192,88263,1,0,0:0:0:0:
402,192,88263,1,0,0:0:0:0:
36,192,88668,128,0,89641:0:0:0:0:
182,192,88993,128,0,89966:0:0:0:0:
109,192,88993,128,0,89641:0:0:0:0:
329,192,89317,128,0,90290:0:0:0:0:
475,192,89641,128,0,90614:0:0:0:0:
256,192,89641,128,0,90290:0:0:0:0:
36,192,89966,1,0,0:0:0:0:
109,192,89966,128,0,91182:0:0:0:0:
402,192,89966,128,0,90614:0:0:0:0:
182,192,90290,128,0,91182:0:0:0:0:
36,192,90290,128,0,91182:0:0:0:0:
329,192,90614,128,0,91182:0:0:0:0:
402,192,90939,128,0,91182:0:0:0:0:
256,192,91263,1,0,0:0:0:0:
109,192,91263,1,0,0:0:0:0:
182,192,91263,1,0,0:0:0:0:
329,192,91263,1,0,0:0:0:0:
402,192,91263,1,0,0:0:0:0:
256,192,91425,1,0,0:0:0:0:
402,192,91425,1,0,0:0:0:0:
329,192,91425,1,0,0:0:0:0:
182,192,91425,1,0,0:0:0:0:
109,192,91425,1,0,0:0:0:0:
36,192,91912,1,0,0:0:0:0:
109,192,91912,1,0,0:0:0:0:
182,192,91912,1,0,0:0:0:0:
329,192,91912,1,0,0:0:0:0:
402,192,91912,1,0,0:0:0:0:
475,192,91912,1,0,0:0:0:0:
329,192,92074,1,0,0:0:0:0:
402,192,92074,1,0,0:0:0:0:
475,192,92074,1,0,0:0:0:0:
182,192,92074,1,0,0:0:0:0:
109,192,92074,1,0,0:0:0:0:
36,192,92074,1,0,0:0:0:0:
329,192,92560,1,0,0:0:0:0:
402,192,92560,1,0,0:0:0:0:
475,192,92560,1,0,0:0:0:0:
329,192,92885,1,0,0:0:0:0:
256,192,92885,1,0,0:0:0:0:
182,192,92885,1,0,0:0:0:0:
182,192,93209,1,0,0:0:0:0:
109,192,93209,1,0,0:0:0:0:
36,192,93209,1,0,0:0:0:0:
256,192,93290,1,0,0:0:0:0:
329,192,93371,1,0,0:0:0:0:
475,192,93371,1,0,0:0:0:0:
182,192,93371,1,0,0:0:0:0:
402,192,93452,1,0,0:0:0:0:
329,192,93533,1,0,0:0:0:0:
182,192,93533,1,0,0:0:0:0:
256,192,93533,1,0,0:0:0:0:
109,192,93614,1,0,0:0:0:0:
36,192,93695,1,0,0:0:0:0:
182,192,93695,1,0,0:0:0:0:
256,192,93695,1,0,0:0:0:0:
329,192,93777,1,0,0:0:0:0:
402,192,93858,1,0,0:0:0:0:
475,192,93858,1,0,0:0:0:0:
109,192,93858,1,0,0:0:0:0:
36,192,93858,128,0,95155:0:0:0:0:
182,192,94506,1,0,0:0:0:0:
329,192,94506,1,0,0:0:0:0:
475,192,94506,1,0,0:0:0:0:
109,192,94668,1,0,0:0:0:0:
182,192,94709,1,0,0:0:0:0:
256,192,94749,1,0,0:0:0:0:
329,192,94790,1,0,0:0:0:0:
402,192,94831,1,0,0:0:0:0:
109,192,94831,1,0,0:0:0:0:
475,192,94871,1,0,0:0:0:0:
182,192,94871,1,0,0:0:0:0:
256,192,94912,1,0,0:0:0:0:
329,192,94952,1,0,0:0:0:0:
402,192,94993,1,0,0:0:0:0:
256,192,94993,1,0,0:0:0:0:
182,192,95317,1,0,0:0:0:0:
256,192,95317,1,0,0:0:0:0:
329,192,95317,1,0,0:0:0:0:
109,192,95479,1,0,0:0:0:0:
402,192,95479,1,0,0:0:0:0:
182,192,95641,1,0,0:0:0:0:
329,192,95641,1,0,0:0:0:0:
182,192,95804,1,0,0:0:0:0:
329,192,95804,1,0,0:0:0:0:
182,192,95966,1,0,0:0:0:0:
329,192,95966,1,0,0:0:0:0:
109,192,96047,1,0,0:0:0:0:
256,192,96047,1,0,0:0:0:0:
182,192,96128,1,0,0:0:0:0:
329,192,96128,1,0,0:0:0:0:
256,192,96290,1,0,0:0:0:0:
402,192,96290,1,0,0:0:0:0:
329,192,96452,1,0,0:0:0:0:
475,192,96452,1,0,0:0:0:0:
402,192,96533,1,0,0:0:0:0:
256,192,96533,1,0,0:0:0:0:
182,192,96614,1,0,0:0:0:0:
329,192,96614,1,0,0:0:0:0:
256,192,96695,1,0,0:0:0:0:
109,192,96695,1,0,0:0:0:0:
36,192,96777,1,0,0:0:0:0:
182,192,96777,1,0,0:0:0:0:
36,192,96939,1,0,0:0:0:0:
182,192,96939,1,0,0:0:0:0:
109,192,97020,1,0,0:0:0:0:
256,192,97020,1,0,0:0:0:0:
182,192,97101,1,0,0:0:0:0:
329,192,97101,1,0,0:0:0:0:
256,192,97182,1,0,0:0:0:0:
402,192,97182,1,0,0:0:0:0:
475,192,97263,1,0,0:0:0:0:
329,192,97263,1,0,0:0:0:0:
109,192,97425,128,0,97587:0:0:0:0:
182,192,97425,1,0,0:0:0:0:
402,192,97587,128,0,98074:0:0:0:0:
182,192,97587,1,0,0:0:0:0:
329,192,97587,1,0,0:0:0:0:
256,192,97749,1,0,0:0:0:0:
329,192,97749,1,0,0:0:0:0:
109,192,97912,128,0,98074:0:0:0:0:
182,192,97912,1,0,0:0:0:0:
329,192,97912,1,0,0:0:0:0:
182,192,98074,1,0,0:0:0:0:
329,192,98074,1,0,0:0:0:0:
109,192,98236,1,0,0:0:0:0:
402,192,98236,1,0,0:0:0:0:
329,192,98398,1,0,0:0:0:0:
475,192,98398,1,0,0:0:0:0:
402,192,98479,1,0,0:0:0:0:
256,192,98479,1,0,0:0:0:0:
182,192,98560,1,0,0:0:0:0:
329,192,98560,1,0,0:0:0:0:
256,192,98641,1,0,0:0:0:0:
109,192,98641,1,0,0:0:0:0:
329,192,98722,128,0,99047:0:0:0:0:
36,192,98722,1,0,0:0:0:0:
182,192,98722,1,0,0:0:0:0:
109,192,98804,1,0,0:0:0:0:
182,192,98885,1,0,0:0:0:0:
182,192,99047,1,0,0:0:0:0:
109,192,99128,1,0,0:0:0:0:
256,192,99128,1,0,0:0:0:0:
36,192,99209,1,0,0:0:0:0:
182,192,99209,1,0,0:0:0:0:
109,192,99290,1,0,0:0:0:0:
256,192,99290,1,0,0:0:0:0:
329,192,99371,1,0,0:0:0:0:
182,192,99371,128,0,99533:0:0:0:0:
329,192,99533,1,0,0:0:0:0:
256,192,99614,1,0,0:0:0:0:
402,192,99614,1,0,0:0:0:0:
329,192,99695,1,0,0:0:0:0:
475,192,99695,1,0,0:0:0:0:
402,192,99777,1,0,0:0:0:0:
256,192,99777,1,0,0:0:0:0:
182,192,99858,1,0,0:0:0:0:
329,192,99858,128,0,100020:0:0:0:0:
182,192,100020,1,0,0:0:0:0:
256,192,100101,1,0,0:0:0:0:
109,192,100101,1,0,0:0:0:0:
36,192,100182,1,0,0:0:0:0:
182,192,100182,1,0,0:0:0:0:
109,192,100263,1,0,0:0:0:0:
256,192,100263,1,0,0:0:0:0:
182,192,100344,1,0,0:0:0:0:
329,192,100344,1,0,0:0:0:0:
402,192,100344,128,0,100668:0:0:0:0:
109,192,100506,128,0,101155:0:0:0:0:
256,192,100506,1,0,0:0:0:0:
329,192,100506,1,0,0:0:0:0:
182,192,100668,1,0,0:0:0:0:
329,192,100668,1,0,0:0:0:0:
402,192,100831,128,0,101155:0:0:0:0:
256,192,100831,1,0,0:0:0:0:
182,192,100831,1,0,0:0:0:0:
256,192,100993,1,0,0:0:0:0:
329,192,100993,1,0,0:0:0:0:
182,192,101155,1,0,0:0:0:0:
329,192,101155,1,0,0:0:0:0:
256,192,101236,1,0,0:0:0:0:
109,192,101317,1,0,0:0:0:0:
402,192,101317,1,0,0:0:0:0:
36,192,101398,1,0,0:0:0:0:
475,192,101398,1,0,0:0:0:0:
109,192,101479,1,0,0:0:0:0:
402,192,101479,1,0,0:0:0:0:
182,192,101641,1,0,0:0:0:0:
329,192,101641,1,0,0:0:0:0:
36,192,101641,1,0,0:0:0:0:
256,192,101722,1,0,0:0:0:0:
402,192,101722,1,0,0:0:0:0:
329,192,101804,1,0,0:0:0:0:
475,192,101804,1,0,0:0:0:0:
36,192,101804,1,0,0:0:0:0:
402,192,101885,1,0,0:0:0:0:
256,192,101885,1,0,0:0:0:0:
329,192,101966,1,0,0:0:0:0:
182,192,101966,128,0,102128:0:0:0:0:
36,192,101966,1,0,0:0:0:0:
329,192,102128,1,0,0:0:0:0:
475,192,102128,1,0,0:0:0:0:
256,192,102209,1,0,0:0:0:0:
109,192,102209,1,0,0:0:0:0:
182,192,102290,1,0,0:0:0:0:
36,192,102290,1,0,0:0:0:0:
475,192,102290,1,0,0:0:0:0:
109,192,102371,1,0,0:0:0:0:
256,192,102371,1,0,0:0:0:0:
182,192,102452,1,0,0:0:0:0:
475,192,102452,1,0,0:0:0:0:
329,192,102452,128,0,102614:0:0:0:0:
182,192,102614,1,0,0:0:0:0:
109,192,102614,128,0,102939:0:0:0:0:
402,192,102777,128,0,103425:0:0:0:0:
182,192,102777,1,0,0:0:0:0:
256,192,102777,1,0,0:0:0:0:
182,192,102939,1,0,0:0:0:0:
329,192,102939,1,0,0:0:0:0:
109,192,103101,128,0,103425:0:0:0:0:
256,192,103101,1,0,0:0:0:0:
329,192,103101,1,0,0:0:0:0:
182,192,103263,1,0,0:0:0:0:
256,192,103263,1,0,0:0:0:0:
182,192,103425,1,0,0:0:0:0:
329,192,103425,1,0,0:0:0:0:
256,192,103466,1,0,0:0:0:0:
182,192,103506,1,0,0:0:0:0:
329,192,103506,1,0,0:0:0:0:
109,192,103547,1,0,0:0:0:0:
402,192,103547,1,0,0:0:0:0:
36,192,103587,1,0,0:0:0:0:
475,192,103587,1,0,0:0:0:0:
109,192,103628,1,0,0:0:0:0:
402,192,103628,1,0,0:0:0:0:
182,192,103668,1,0,0:0:0:0:
329,192,103668,1,0,0:0:0:0:
256,192,103668,128,0,103912:0:0:0:0:
182,192,103912,1,0,0:0:0:0:
329,192,103912,1,0,0:0:0:0:
109,192,103952,1,0,0:0:0:0:
402,192,103952,1,0,0:0:0:0:
36,192,103993,1,0,0:0:0:0:
475,192,103993,1,0,0:0:0:0:
109,192,104236,1,0,0:0:0:0:
182,192,104236,1,0,0:0:0:0:
256,192,104236,1,0,0:0:0:0:
36,192,104236,128,0,106182:0:0:0:0:
256,192,104885,1,0,0:0:0:0:
329,192,104885,1,0,0:0:0:0:
402,192,104885,1,0,0:0:0:0:
475,192,105047,128,0,106182:0:0:0:0:
182,192,105371,1,0,0:0:0:0:
256,192,105371,1,0,0:0:0:0:
329,192,105371,1,0,0:0:0:0:
109,192,105371,128,0,106182:0:0:0:0:
182,192,105695,1,0,0:0:0:0:
256,192,105695,1,0,0:0:0:0:
329,192,105695,1,0,0:0:0:0:
182,192,105858,1,0,0:0:0:0:
256,192,105858,1,0,0:0:0:0:
329,192,105858,1,0,0:0:0:0:
182,192,106020,1,0,0:0:0:0:
256,192,106020,1,0,0:0:0:0:
329,192,106020,1,0,0:0:0:0:
182,192,106182,1,0,0:0:0:0:
256,192,106182,1,0,0:0:0:0:
402,192,106182,128,0,106506:0:0:0:0:
329,192,106506,128,0,106831:0:0:0:0:
256,192,106506,1,0,0:0:0:0:
256,192,106831,128,0,107155:0:0:0:0:
182,192,106831,1,0,0:0:0:0:
182,192,107155,128,0,107479:0:0:0:0:
109,192,107155,1,0,0:0:0:0:
109,192,107479,128,0,107804:0:0:0:0:
36,192,107479,1,0,0:0:0:0:
182,192,107804,1,0,0:0:0:0:
329,192,107804,1,0,0:0:0:0:
475,192,107804,1,0,0:0:0:0:
256,192,107966,1,0,0:0:0:0:
402,192,107966,1,0,0:0:0:0:
109,192,107966,1,0,0:0:0:0:
36,192,108939,128,0,113317:0:0:0:0:
109,192,113317,1,0,0:0:0:0:
182,192,113317,1,0,0:0:0:0:
256,192,113317,1,0,0:0:0:0:
329,192,113317,1,0,0:0:0:0:
402,192,113317,1,0,0:0:0:0:
