osu file format v14

[General]
AudioFilename: audio.mp3
AudioLeadIn: 0
PreviewTime: 63765
Countdown: 1
SampleSet: Soft
StackLeniency: 0.7
Mode: 0
LetterboxInBreaks: 0
WidescreenStoryboard: 1

[Editor]
Bookmarks: 17765,33765,49765,65765,81765,97765,113765,121765,129765,145765,148140,161765,177765,193765
DistanceSpacing: 0.8
BeatDivisor: 8
GridSize: 4
TimelineZoom: 1.5

[Metadata]
Title:Senorita
TitleUnicode:Senorita
Artist:(G)I-DLE
ArtistUnicode:(여자)아이들
Creator:Seto Kousuke
Version:Insane
Source:
Tags:K-pop Kpop Mapping Contest V2 Senhorita Korean Pop 큐브엔터테인먼트 Cube Entertainment I Made 미연 Miyeon 민니 Minnie 수진 Soojin 소연 Soyeon 우기 Yuqi 슈화 Shuhua señorita
BeatmapID:2146095
BeatmapSetID:1026178

[Difficulty]
HPDrainRate:5
CircleSize:4
OverallDifficulty:7
ApproachRate:9
SliderMultiplier:1.6
SliderTickRate:1

[Events]
//Background and Video events
0,0,"background_2.jpg",0,0
//Break Periods
2,161979,169179
//Storyboard Layer 0 (Background)
//Storyboard Layer 1 (Fail)
//Storyboard Layer 2 (Pass)
//Storyboard Layer 3 (Foreground)
//Storyboard Layer 4 (Overlay)
//Storyboard Sound Samples

[TimingPoints]
1772,500,4,2,1,40,1,0
1772,-133.333333333333,4,2,1,40,0,0
10834,-133.333333333333,4,2,1,5,0,0
11022,-133.333333333333,4,2,1,40,0,0
14584,-133.333333333333,4,2,1,5,0,0
14647,-133.333333333333,4,2,1,40,0,0
15772,-100,4,2,1,50,0,0
17772,-100,4,2,1,60,0,0
18084,-100,4,2,1,5,0,0
18272,-100,4,2,1,60,0,0
18834,-100,4,2,1,5,0,0
19022,-100,4,2,1,60,0,0
22834,-100,4,2,1,5,0,0
23022,-100,4,2,1,60,0,0
26084,-100,4,2,1,5,0,0
26272,-100,4,2,1,60,0,0
26834,-100,4,2,1,5,0,0
27022,-100,4,2,1,60,0,0
30834,-100,4,2,1,5,0,0
31022,-100,4,2,1,60,0,0
33779,500,4,2,1,70,1,0
33779,-66.6666666666667,4,2,1,70,0,0
49779,-133.333333333333,4,2,1,50,0,0
63779,-100,4,2,1,70,0,0
65779,-66.6666666666667,4,2,1,80,0,1
78841,-66.6666666666667,4,2,1,5,0,1
79029,-66.6666666666667,4,2,1,80,0,1
81779,-52.6315789473684,4,2,1,85,0,1
82154,-52.6315789473684,4,2,1,5,0,1
82279,-52.6315789473684,4,2,1,85,0,1
82529,-100,4,2,1,85,0,1
85779,-52.6315789473684,4,2,1,85,0,1
86529,-100,4,2,1,85,0,1
89779,-52.6315789473684,4,2,1,85,0,1
90091,-52.6315789473684,4,2,1,5,0,1
90279,-52.6315789473684,4,2,1,85,0,1
90529,-100,4,2,1,85,0,1
93779,-52.6315789473684,4,2,1,85,0,1
94091,-52.6315789473684,4,2,1,5,0,1
94279,-52.6315789473684,4,2,1,85,0,1
94529,-100,4,2,1,85,0,1
97779,-100,4,2,1,60,0,0
98841,-100,4,2,1,5,0,0
99029,-100,4,2,1,60,0,0
102841,-100,4,2,1,5,0,0
103029,-100,4,2,1,60,0,0
113779,-66.6666666666667,4,2,1,70,0,0
121779,-66.6666666666667,4,2,1,75,0,0
129779,-66.6666666666667,4,2,1,80,0,1
140091,-66.6666666666667,4,2,1,5,0,1
140279,-66.6666666666667,4,2,1,80,0,1
142841,-66.6666666666667,4,2,1,5,0,1
143029,-66.6666666666667,4,2,1,80,0,1
145779,-52.6315789473684,4,2,1,85,0,1
146154,-52.6315789473684,4,2,1,5,0,1
146279,-52.6315789473684,4,2,1,85,0,1
146529,-100,4,2,1,85,0,1
149779,-52.6315789473684,4,2,1,85,0,1
150529,-100,4,2,1,85,0,1
153779,-52.6315789473684,4,2,1,85,0,1
154091,-52.6315789473684,4,2,1,5,0,1
154279,-52.6315789473684,4,2,1,85,0,1
154529,-100,4,2,1,85,0,1
157779,-52.6315789473684,4,2,1,85,0,1
158091,-52.6315789473684,4,2,1,5,0,1
158279,-52.6315789473684,4,2,1,85,0,1
158529,-100,4,2,1,85,0,1
161779,-133.333333333333,4,2,1,60,0,0
177779,-66.6666666666667,4,2,1,75,0,0

[Colours]
Combo1 : 219,148,142
Combo2 : 198,176,197
Combo3 : 170,109,81
Combo4 : 210,60,61

[HitObjects]
108,190,1272,5,0,0:0:0:0:
108,190,1772,1,0,3:0:0:0:
276,227,2522,1,0,3:0:0:0:
302,311,3022,2,0,L|304:332,4,15.0000005722046,2|2|2|2|8,0:3|0:3|0:3|0:3|0:3,0:0:0:0:
364,234,3522,1,0,0:0:0:0:
276,227,3772,5,0,3:0:0:0:
167,357,4522,1,0,3:0:0:0:
86,294,5022,2,0,L|87:234,2,60.0000022888184,0|8|0,0:0|0:3|3:0,0:0:0:0:
84,116,5772,5,0,3:0:0:0:
244,68,6522,1,0,3:0:0:0:
154,44,7022,2,0,L|129:43,4,15.0000005722046,2|2|2|2|8,0:3|0:3|0:3|0:3|0:3,0:0:0:0:
175,124,7522,1,0,0:0:0:0:
244,68,7772,5,0,3:0:0:0:
406,76,8522,1,0,3:0:0:0:
469,154,9022,1,0,0:0:0:0:
372,168,9272,1,8,0:3:0:0:
406,76,9522,1,0,3:0:0:0:
436,241,9772,5,0,3:0:0:0:
316,352,10522,2,0,B|300:352|300:352|293:347|293:347|287:353|287:353|252:338|221:346,1,90.0000034332277,0|0,3:0|0:0,0:0:0:0:
191,302,11022,2,0,L|192:281,4,15.0000005722046,2|2|2|2|8,0:3|0:3|0:3|0:3|0:3,0:0:0:0:
78,345,11522,1,0,0:0:0:0:
17,196,11772,5,0,3:0:0:0:
153,106,12522,1,0,3:0:0:0:
231,162,13022,1,0,0:0:0:0:
144,206,13272,1,8,0:3:0:0:
153,106,13522,1,0,3:0:0:0:
307,109,13772,5,0,3:0:0:0:
375,270,14522,1,0,3:0:0:0:
477,135,15022,2,0,L|478:109,4,15.0000005722046,2|2|2|2|8,0:3|0:3|0:3|0:3|0:3,0:0:0:0:
489,232,15522,1,0,0:0:0:0:
360,144,15772,6,0,L|267:144,2,80,2|2|2,3:2|0:2|0:0,0:0:0:0:
187,145,16522,1,0,3:0:0:0:
428,51,16772,1,2,0:0:0:0:
206,38,17022,5,2,0:0:0:0:
211,242,17272,1,8,0:3:0:0:
192,27,17522,1,0,3:0:0:0:
24,173,17772,6,0,P|22:210|22:334,1,160,0|8,3:0|0:2,0:0:0:0:
379,225,18522,1,8,3:2:0:0:
379,225,19022,2,0,L|380:253,4,20,2|2|2|2|8,0:3|0:3|0:3|0:3|0:2,0:0:0:0:
220,228,19522,1,0,0:0:0:0:
317,58,19772,6,0,P|362:52|486:64,1,160,0|8,3:0|0:2,0:0:0:0:
480,326,20522,1,8,3:2:0:0:
480,326,21022,1,0,0:0:0:0:
379,252,21272,1,8,0:2:0:0:
277,330,21522,1,0,3:0:0:0:
102,194,21772,6,0,P|100:160|122:24,1,160,0|8,3:0|0:2,0:0:0:0:
437,43,22522,1,8,3:2:0:0:
437,43,23022,2,0,L|438:9,4,20,2|2|2|2|8,0:3|0:3|0:3|0:3|0:2,0:0:0:0:
438,174,23522,1,0,0:0:0:0:
205,33,23772,6,0,P|188:111|188:191,1,160,0|8,3:0|0:2,0:0:0:0:
34,365,24522,1,8,3:2:0:0:
34,365,25022,1,0,0:0:0:0:
107,272,25272,1,8,0:2:0:0:
20,170,25522,1,0,3:0:0:0:
191,61,25772,6,0,P|264:52|354:61,1,160,0|8,3:0|0:2,0:0:0:0:
262,351,26522,1,8,3:2:0:0:
262,351,27022,2,0,L|288:351,4,20,2|2|2|2|8,0:3|0:3|0:3|0:3|0:2,0:0:0:0:
182,239,27522,1,0,0:0:0:0:
412,179,27772,6,0,P|417:250|409:355,1,160,0|8,3:0|0:2,0:0:0:0:
97,292,28522,1,8,3:2:0:0:
97,292,29022,1,0,0:0:0:0:
185,202,29272,1,8,0:2:0:0:
281,294,29522,1,0,3:0:0:0:
266,32,29772,6,0,P|173:17|95:28,1,160,0|8,3:0|0:2,0:0:0:0:
34,310,30522,1,8,3:2:0:0:
34,310,31022,2,0,L|34:282,4,20,2|2|2|2|8,0:3|0:3|0:3|0:3|0:2,0:0:0:0:
154,363,31522,1,0,0:0:0:0:
238,218,31772,1,0,3:0:0:0:
256,192,31897,12,0,33272,3:0:0:0:
454,298,33779,6,0,P|406:321|331:290,1,120.000004577637,4|2,3:2|0:3,0:0:0:0:
249,330,34154,1,2,0:3:0:0:
249,330,34279,2,0,L|255:269,1,60.0000022888184,8|0,0:1|0:0,0:0:0:0:
151,205,34529,2,0,L|155:336,2,120.000004577637,0|0|0,3:0|1:0|3:0,0:0:0:0:
53,371,35279,1,8,0:1:0:0:
43,168,35529,1,0,3:0:0:0:
250,272,35779,6,0,P|312:278|382:267,1,120.000004577637,0|0,3:0|1:0,0:0:0:0:
458,307,36154,1,0,1:0:0:0:
458,307,36279,2,0,L|446:219,1,60.0000022888184,8|0,0:1|0:0,0:0:0:0:
495,147,36529,2,0,L|370:165,2,120.000004577637,0|0|0,3:0|1:0|3:0,0:0:0:0:
296,121,37279,1,8,0:1:0:0:
475,39,37529,1,0,3:0:0:0:
259,27,37779,6,0,L|132:24,1,120.000004577637,0|2,3:0|0:3,0:0:0:0:
61,94,38154,1,2,0:3:0:0:
61,94,38279,2,0,P|52:134|69:170,1,60.0000022888184,8|0,0:1|0:0,0:0:0:0:
260,131,38529,2,0,L|140:128,2,120.000004577637,0|0|0,3:0|0:0|3:0,0:0:0:0:
188,253,39279,1,8,0:1:0:0:
371,103,39529,1,0,3:0:0:0:
439,289,39779,6,0,P|436:336|318:288,1,240.000009155274,0|8,3:0|0:1,0:0:0:0:
77,285,40529,2,0,P|80:332|198:284,1,240.000009155274,0|0,3:0|3:1,0:0:0:0:
264,78,41279,1,8,0:1:0:0:
262,204,41529,1,0,3:0:0:0:
157,26,41779,6,0,P|114:18|46:79,1,120.000004577637,4|2,3:2|0:3,0:0:0:0:
20,149,42154,1,2,0:3:0:0:
20,149,42279,2,0,L|29:235,1,60.0000022888184,8|0,0:1|0:0,0:0:0:0:
136,233,42529,2,0,L|122:100,2,120.000004577637,0|0|0,3:0|1:0|3:1,0:0:0:0:
251,78,43279,1,8,0:1:0:0:
242,271,43529,1,0,3:0:0:0:
446,177,43779,6,0,P|400:161|318:191,1,120.000004577637,0|0,3:0|1:0,0:0:0:0:
390,313,44154,1,0,1:0:0:0:
390,313,44279,2,0,L|392:233,1,60.0000022888184,8|0,0:1|0:0,0:0:0:0:
262,245,44529,2,0,L|265:383,2,120.000004577637,0|0|0,3:0|1:0|3:1,0:0:0:0:
139,356,45279,1,8,0:1:0:0:
170,181,45529,1,0,3:0:0:0:
376,310,45779,6,0,P|432:308|482:250,1,120.000004577637,0|0,3:0|1:3,0:0:0:0:
383,202,46154,1,0,1:3:0:0:
383,202,46279,2,0,L|315:203,1,60.0000022888184,8|0,0:1|0:0,0:0:0:0:
227,117,46529,2,0,L|228:236,2,120.000004577637,0|0|0,3:0|1:0|3:1,0:0:0:0:
128,258,47279,1,8,0:1:0:0:
314,334,47529,1,0,3:0:0:0:
465,137,47779,6,0,P|401:107|349:130,1,120.000004577637,0|0,3:0|0:0,0:0:0:0:
262,52,48154,1,0,1:0:0:0:
262,52,48279,2,0,P|250:93|256:128,1,60.0000022888184,8|0,0:1|0:0,0:0:0:0:
292,252,48529,2,0,P|304:211|298:176,1,60.0000022888184,0|0,3:0|0:0,0:0:0:0:
154,215,48779,2,0,L|153:349,1,120.000004577637,0|0,1:0|3:0,0:0:0:0:
23,170,49279,1,8,0:1:0:0:
173,87,49529,1,0,3:0:0:0:
21,18,49779,5,4,3:2:0:0:
23,170,50029,1,0,0:0:0:0:
23,170,50279,2,0,L|28:231,1,60.0000022888184,8|8,0:2|0:2,0:0:0:0:
172,345,51029,1,0,0:0:0:0:
172,345,51279,2,0,L|167:285,1,60.0000022888184,8|0,0:2|0:0,0:0:0:0:
290,179,51779,5,0,3:0:0:0:
416,301,52029,1,0,0:0:0:0:
416,301,52279,2,0,L|411:362,1,60.0000022888184,8|8,0:2|0:2,0:0:0:0:
495,189,53029,1,0,0:0:0:0:
495,189,53279,2,0,L|490:128,1,60.0000022888184,8|0,0:2|0:0,0:0:0:0:
372,27,53779,5,0,3:0:0:0:
248,144,54029,1,2,0:3:0:0:
248,144,54279,2,0,L|253:205,1,60.0000022888184,8|8,0:2|0:2,0:0:0:0:
98,99,55029,1,0,0:0:0:0:
98,99,55279,2,0,L|103:38,1,60.0000022888184,8|0,0:2|0:0,0:0:0:0:
20,276,55779,5,4,0:3:0:0:
160,189,56029,5,0,3:0:0:0:
154,218,56154,1,0,3:0:0:0:
148,247,56279,1,4,0:3:0:0:
298,161,56529,5,0,3:0:0:0:
303,190,56654,1,0,3:0:0:0:
309,219,56779,1,8,0:1:0:0:
228,45,57029,5,0,3:0:0:0:
222,74,57154,1,0,3:0:0:0:
216,103,57279,1,4,0:3:0:0:
363,19,57529,5,0,3:0:0:0:
368,48,57654,1,0,3:0:0:0:
374,77,57779,5,4,3:2:0:0:
489,29,58029,1,0,0:0:0:0:
494,192,58279,1,8,0:2:0:0:
494,192,58529,2,0,L|494:322,1,120.000004577637,8|2,0:2|0:3,0:0:0:0:
386,374,59279,2,0,L|386:303,1,60.0000022888184,8|0,0:2|0:0,0:0:0:0:
264,189,59779,5,0,3:0:0:0:
391,227,60029,1,0,0:0:0:0:
272,334,60279,1,8,0:2:0:0:
272,334,60529,2,0,P|213:335|147:322,1,120.000004577637,8|0,0:2|0:0,0:0:0:0:
12,265,61279,2,0,P|45:260|72:266,1,60.0000022888184,8|0,0:2|0:0,0:0:0:0:
248,172,61779,5,0,3:0:0:0:
96,111,62029,1,0,0:0:0:0:
218,33,62279,1,8,0:2:0:0:
218,33,62529,2,0,L|342:35,1,120.000004577637,8|2,0:2|0:3,0:0:0:0:
475,37,63279,1,8,0:2:0:0:
475,37,63779,6,0,L|471:128,1,80,4|0,0:3|3:0,0:0:0:0:
382,165,64154,1,0,3:0:0:0:
382,165,64279,2,0,L|400:256,1,80,4|0,0:3|3:0,0:0:0:0:
487,299,64654,1,0,3:0:0:0:
487,299,64779,2,0,L|420:365,1,80,8|0,0:1|3:0,0:0:0:0:
274,359,65154,1,0,3:0:0:0:
274,359,65279,2,0,L|220:343,1,40,4|0,0:3|0:0,0:0:0:0:
189,246,65529,2,0,L|135:262,1,40,0|0,3:0|0:0,0:0:0:0:
53,368,65779,6,0,L|46:227,2,120.000004577637,4|0|8,3:2|1:0|0:1,0:0:0:0:
14,166,66529,2,0,P|47:159|83:168,1,60.0000022888184,0|0,3:0|0:0,0:0:0:0:
150,257,66779,2,0,L|154:376,1,120.000004577637,0|0,1:0|3:0,0:0:0:0:
230,135,67279,1,8,0:1:0:0:
237,328,67529,1,0,3:0:0:0:
321,235,67779,6,0,B|384:255|380:212|451:236,1,120.000004577637,0|0,3:0|1:0,0:0:0:0:
494,129,68154,1,0,1:0:0:0:
494,129,68279,2,0,P|459:132|422:127,1,60.0000022888184,8|0,0:1|0:0,0:0:0:0:
433,27,68529,2,0,P|467:23|504:28,1,60.0000022888184,0|0,3:0|0:0,0:0:0:0:
359,81,68779,2,0,P|299:86|240:79,2,120.000004577637,0|0|8,1:0|3:0|0:1,0:0:0:0:
147,9,69529,1,0,3:0:0:0:
92,163,69779,6,0,L|97:292,1,120.000004577637,2|2,3:2|0:2,0:0:0:0:
233,347,70154,2,0,L|228:227,1,120.000004577637,2|0,0:2|0:2,0:0:0:0:
106,176,70529,2,0,L|111:305,1,120.000004577637,2|2,3:2|0:2,0:0:0:0:
247,360,70904,2,0,L|242:240,1,120.000004577637,2|0,0:2|0:1,0:0:0:0:
122,170,71279,1,8,0:1:0:0:
209,65,71529,1,0,3:0:0:0:
338,186,71779,6,0,P|421:192|499:112,2,180.000006866455,0|2|0,3:0|0:0|3:0,0:0:0:0:
210,54,72779,1,0,1:0:0:0:
338,47,73029,1,0,3:0:0:0:
85,63,73279,1,8,0:1:0:0:
218,275,73529,1,0,3:0:0:0:
218,275,73654,1,4,0:3:0:0:
218,275,73779,6,0,B|258:290|258:290|358:276,2,120.000004577637,4|0|8,3:2|1:0|0:1,0:0:0:0:
420,267,74529,2,0,P|422:299|405:331,1,60.0000022888184,0|0,3:0|0:0,0:0:0:0:
273,201,74779,2,0,L|410:179,1,120.000004577637,0|0,1:0|3:0,0:0:0:0:
252,375,75279,1,8,0:1:0:0:
189,149,75529,1,0,3:0:0:0:
30,271,75779,6,0,P|36:320|92:238,1,240.000009155274,0|8,3:0|1:0,0:0:0:0:
16,103,76529,1,0,3:0:0:0:
222,123,76779,2,0,B|277:122|277:122|350:94,2,120.000004577637,0|0|8,1:0|3:0|0:1,0:0:0:0:
401,25,77529,1,0,3:0:0:0:
408,252,77779,5,0,3:0:0:0:
408,252,78029,2,0,L|331:252,1,60.0000022888184,0|0,1:0|0:0,0:0:0:0:
355,357,78279,2,0,L|415:357,1,60.0000022888184,8|0,0:1|0:0,0:0:0:0:
274,311,78529,2,0,L|136:311,2,120.000004577637,0|0|0,3:0|0:0|3:0,0:0:0:0:
65,221,79279,1,8,0:1:0:0:
61,374,79529,1,0,3:0:0:0:
243,176,79779,5,4,0:3:0:0:
243,176,80029,5,0,3:0:0:0:
237,147,80154,1,0,3:0:0:0:
231,118,80279,1,4,0:3:0:0:
127,24,80529,5,0,3:0:0:0:
121,53,80654,1,0,3:0:0:0:
115,82,80779,1,8,0:1:0:0:
368,197,81029,5,0,3:0:0:0:
362,168,81154,1,0,3:0:0:0:
356,139,81279,2,0,P|349:106|341:63,1,60.0000022888184,4|0,0:3|3:0,0:0:0:0:
194,201,81529,5,0,3:0:0:0:
204,308,81654,1,0,3:0:0:0:
312,349,81779,2,0,B|373:376|470:342|470:342|435:322|397:349,1,227.999993911743,6|0,3:2|0:0,0:0:0:0:
408,359,82279,2,0,P|417:321|383:275,1,75.9999979705811,8|0,0:1|0:0,0:0:0:0:
278,143,82529,6,0,P|304:146|324:135,1,40,2|0,3:2|0:0,0:0:0:0:
435,209,82779,2,0,P|393:203|346:225,1,80,2|0,1:2|3:0,0:0:0:0:
200,89,83154,2,0,P|188:124|198:174,1,80,2|0,0:2|0:0,0:0:0:0:
268,270,83529,2,0,P|271:243|260:224,1,40,2|0,3:2|0:0,0:0:0:0:
102,352,83779,2,0,L|189:352,1,80,2|0,3:2|0:0,0:0:0:0:
194,166,84154,2,0,L|107:166,1,80,2|0,0:2|0:0,0:0:0:0:
0,324,84529,2,0,L|25:154,1,160,2|2,3:2|3:2,0:0:0:0:
155,26,85279,1,8,0:1:0:0:
267,192,85529,5,0,3:0:0:0:
339,119,85654,1,0,3:0:0:0:
421,191,85779,2,0,B|440:243|440:243|439:281|421:311|419:358|419:358|413:316|386:306,1,227.999993911743,6|2,3:2|0:3,0:0:0:0:
372,295,86279,2,0,P|327:284|295:303,1,75.9999979705811,8|0,0:1|0:0,0:0:0:0:
169,199,86529,6,0,P|163:222|163:247,1,40,2|0,3:2|0:0,0:0:0:0:
15,321,86779,2,0,P|29:291|28:237,1,80,2|0,1:2|3:0,0:0:0:0:
60,58,87154,2,0,P|46:88|47:142,1,80,2|0,0:2|0:0,0:0:0:0:
209,118,87529,2,0,P|186:112|161:112,1,40,2|0,3:2|0:0,0:0:0:0:
165,326,87779,2,0,L|260:323,1,80,2|0,3:2|0:0,0:0:0:0:
396,275,88154,2,0,L|303:253,1,80,2|0,0:2|0:0,0:0:0:0:
68,224,88529,2,0,L|234:207,1,160,2|2,3:2|3:2,0:0:0:0:
389,366,89279,1,8,0:1:0:0:
499,153,89529,5,0,3:0:0:0:
454,58,89654,1,0,3:0:0:0:
363,121,89779,2,0,B|335:145|304:146|304:146|270:120|212:121|212:121|240:101|278:106,1,227.999993911743,6|0,3:2|0:0,0:0:0:0:
286,119,90279,2,0,P|296:157|272:209,1,75.9999979705811,8|0,0:1|0:0,0:0:0:0:
118,195,90529,6,0,P|141:195|172:203,1,40,2|0,3:2|0:0,0:0:0:0:
211,342,90779,2,0,P|208:302|232:257,1,80,2|0,1:2|3:0,0:0:0:0:
399,299,91154,2,0,P|359:302|314:278,1,80,2|0,0:2|0:0,0:0:0:0:
373,127,91529,2,0,P|378:152|370:184,1,40,2|0,3:2|0:0,0:0:0:0:
189,174,91779,2,0,P|177:126|196:88,1,80,2|0,3:2|0:0,0:0:0:0:
32,93,92154,2,0,P|42:130|30:168,1,80,2|0,0:2|0:0,0:0:0:0:
30,337,92529,2,0,P|65:323|183:345,1,160,2|2,3:2|3:2,0:0:0:0:
450,381,93279,1,8,0:1:0:0:
476,139,93529,5,0,3:0:0:0:
414,220,93654,1,0,3:0:0:0:
335,160,93779,2,0,B|275:145|177:148|177:148|214:144|253:115,1,227.999993911743,6|0,3:2|0:0,0:0:0:0:
253,111,94279,2,0,P|267:70|247:30,1,75.9999979705811,8|0,0:1|0:0,0:0:0:0:
395,41,94529,6,0,P|387:63|397:96,1,40,2|0,3:2|0:0,0:0:0:0:
485,201,94779,2,0,P|494:162|482:125,1,80,2|0,1:2|3:0,0:0:0:0:
398,260,95154,2,0,P|385:297|395:335,1,80,2|0,0:2|0:0,0:0:0:0:
248,334,95529,2,0,P|239:316|211:299,1,40,2|0,3:2|0:0,0:0:0:0:
63,367,95779,2,0,L|153:369,1,80,2|0,3:2|0:0,0:0:0:0:
302,229,96154,2,0,L|222:227,1,80,2|0,0:2|0:0,0:0:0:0:
3,259,96529,2,0,L|40:98,1,160,2|2,3:2|3:2,0:0:0:0:
307,17,97279,1,8,0:1:0:0:
279,257,97529,5,0,3:0:0:0:
352,196,97654,1,0,3:0:0:0:
425,135,97779,5,0,3:0:0:0:
460,132,98279,1,0,0:0:0:0:
460,132,98529,2,0,L|461:228,1,80,0|0,3:0|0:0,0:0:0:0:
459,350,99029,2,0,L|460:374,4,20,2|2|2|2|8,0:3|0:3|0:3|0:3|0:3,0:0:0:0:
389,279,99529,1,0,0:0:0:0:
247,370,99779,5,0,3:0:0:0:
222,348,100279,1,0,0:0:0:0:
222,348,100529,2,0,L|127:338,1,80,0|0,3:0|0:0,0:0:0:0:
22,288,101029,1,0,0:0:0:0:
50,199,101279,1,8,0:3:0:0:
78,110,101529,1,0,3:0:0:0:
256,225,101779,5,0,3:0:0:0:
281,242,102279,1,0,0:0:0:0:
281,242,102529,2,0,L|286:154,1,80,0|0,3:0|0:0,0:0:0:0:
295,33,103029,2,0,L|295:13,4,20,2|2|2|2|8,0:3|0:3|0:3|0:3|0:3,0:0:0:0:
222,92,103529,1,0,0:0:0:0:
451,97,103779,5,0,3:0:0:0:
476,112,104279,1,0,0:0:0:0:
476,112,104529,2,0,L|476:205,1,80,0|0,3:0|0:0,0:0:0:0:
384,280,105029,1,0,0:0:0:0:
362,143,105279,1,8,0:3:0:0:
373,299,105529,1,0,3:0:0:0:
211,232,105779,5,0,3:0:0:0:
186,244,106529,1,0,3:0:0:0:
168,262,107029,2,0,L|167:281,4,20,2|2|2|2|8,0:3|0:3|0:3|0:3|0:3,0:0:0:0:
105,190,107529,1,0,0:0:0:0:
263,76,107779,5,0,3:0:0:0:
291,76,108279,1,0,0:0:0:0:
291,76,108529,2,0,L|391:77,1,80,0|0,3:0|0:0,0:0:0:0:
473,186,109029,1,0,0:0:0:0:
462,87,109279,1,8,0:3:0:0:
354,173,109529,1,0,3:0:0:0:
188,80,109779,5,0,3:0:0:0:
164,75,110529,1,0,3:0:0:0:
137,65,111029,2,0,L|137:45,4,20,2|2|2|2|8,0:3|0:3|0:3|0:3|0:3,0:0:0:0:
61,130,111529,1,0,0:0:0:0:
155,276,111779,5,2,3:2:0:0:
254,172,112029,1,0,0:2:0:0:
346,286,112279,2,0,L|346:370,2,80,2|0|2,0:2|3:0|0:2,0:0:0:0:
253,138,113029,2,0,L|253:118,4,20,2|2|2|2|8,0:3|0:3|0:3|0:3|0:3,0:0:0:0:
152,291,113529,1,0,3:0:0:0:
0,203,113779,6,0,P|27:146|73:152,1,60.0000022888184,4|0,3:2|0:0,0:0:0:0:
115,152,114029,2,0,P|133:175|133:204,1,60.0000022888184,2|0,0:3|0:0,0:0:0:0:
62,332,114279,2,0,L|62:272,1,60.0000022888184,2|0,0:3|0:0,0:0:0:0:
68,77,114529,2,0,L|67:36,2,30.0000011444092,2|2|2,3:0|0:3|0:3,0:0:0:0:
0,203,114779,5,8,0:2:0:0:
133,204,115029,1,2,0:3:0:0:
266,205,115279,1,0,1:3:0:0:
288,205,115404,1,0,1:3:0:0:
311,205,115529,1,0,1:3:0:0:
333,205,115654,6,0,B|427:201|427:201|387:187,1,120.000004577637,0|8,1:3|0:2,0:0:0:0:
357,288,116029,2,0,L|425:285,1,60.0000022888184,8|0,0:2|0:0,0:0:0:0:
349,120,116279,2,0,L|289:122,1,60.0000022888184,2|0,0:3|0:0,0:0:0:0:
180,291,116529,1,0,3:3:0:0:
59,44,116779,6,0,L|46:102,3,60.0000022888184,8|0|0|0,0:2|1:3|1:3|1:3,0:0:0:0:
170,67,117279,2,0,L|157:125,1,60.0000022888184,2|0,0:3|1:3,0:0:0:0:
84,209,117529,2,0,L|93:247,2,30.0000011444092,2|2|2,3:0|0:3|0:3,0:0:0:0:
198,218,117779,5,0,3:3:0:0:
310,139,118029,1,0,1:2:0:0:
410,236,118279,1,2,0:3:0:0:
314,42,118529,1,0,3:3:0:0:
178,230,118779,5,8,0:2:0:0:
446,250,119029,1,2,0:3:0:0:
291,43,119279,1,2,0:3:0:0:
268,43,119404,1,0,1:3:0:0:
246,43,119529,1,0,1:3:0:0:
223,43,119654,1,0,1:3:0:0:
84,302,120029,6,0,L|84:356,4,30.0000011444092,2|2|2|2|0,3:0|0:3|0:3|0:3|0:0,0:0:0:0:
39,113,120404,1,0,1:0:0:0:
39,113,120529,2,0,L|24:171,1,60.0000022888184,2|2,0:3|0:3,0:0:0:0:
153,170,120779,2,0,L|138:111,1,60.0000022888184,8|2,0:2|0:3,0:0:0:0:
86,239,121029,1,6,0:3:0:0:
85,258,121154,1,6,0:3:0:0:
85,278,121279,6,0,P|84:316|89:350,1,60.0000022888184,6|2,0:3|0:3,0:0:0:0:
245,339,121529,2,0,P|247:309|246:279,1,60.0000022888184,2|2,0:3|0:3,0:0:0:0:
410,211,121779,6,0,P|401:274|413:340,1,120.000004577637,4|2,3:2|0:3,0:0:0:0:
501,79,122279,1,2,0:3:0:0:
286,92,122529,2,0,L|246:101,2,30.0000011444092,2|2|2,3:0|0:3|0:3,0:0:0:0:
386,57,122779,5,8,0:2:0:0:
162,55,123029,1,2,0:3:0:0:
408,59,123279,1,0,1:3:0:0:
408,81,123404,1,0,1:3:0:0:
408,103,123529,1,0,1:3:0:0:
409,126,123654,1,0,1:3:0:0:
409,148,123779,5,0,0:0:0:0:
278,12,124029,1,2,0:3:0:0:
277,248,124279,1,0,1:3:0:0:
278,12,124529,1,0,3:3:0:0:
56,141,124779,2,0,L|22:141,2,30.0000011444092,8|0|0,0:2|0:0|1:3,0:0:0:0:
141,76,125029,1,0,1:3:0:0:
164,79,125154,1,0,1:3:0:0:
187,82,125279,1,2,0:3:0:0:
146,281,125529,6,0,L|140:310,4,30.0000011444092,2|2|2|2|0,3:0|0:3|0:3|0:3|3:3,0:0:0:0:
236,183,126029,1,0,1:2:0:0:
338,334,126279,1,2,0:3:0:0:
455,181,126529,1,0,3:3:0:0:
141,171,126779,5,8,0:2:0:0:
455,181,127029,1,2,0:3:0:0:
276,14,127279,1,2,0:3:0:0:
277,36,127404,1,0,1:3:0:0:
279,58,127529,1,0,1:3:0:0:
280,81,127654,1,0,1:3:0:0:
282,103,127779,1,0,3:0:0:0:
256,192,127904,12,4,129154,0:3:0:0:
488,110,129279,6,0,L|361:115,1,120.000004577637,4|4,0:3|0:3,0:0:0:0:
105,46,129779,6,0,P|134:92|108:177,2,120.000004577637,4|0|8,3:2|1:0|0:1,0:0:0:0:
83,236,130529,2,0,P|112:245|148:235,1,60.0000022888184,0|0,3:0|0:0,0:0:0:0:
225,341,130779,2,0,P|167:330|99:348,1,120.000004577637,0|0,1:0|3:0,0:0:0:0:
237,163,131279,1,8,0:1:0:0:
340,288,131529,1,0,3:0:0:0:
237,163,131779,6,0,L|97:165,2,120.000004577637,0|0|8,3:0|1:0|0:1,0:0:0:0:
43,130,132529,2,0,P|35:166|45:197,1,60.0000022888184,0|0,3:0|0:0,0:0:0:0:
232,75,132779,2,0,L|92:77,1,120.000004577637,0|0,1:0|3:0,0:0:0:0:
238,245,133279,1,8,0:1:0:0:
330,96,133529,1,0,3:0:0:0:
465,186,133779,6,0,L|460:315,1,120.000004577637,2|0,3:2|1:0,0:0:0:0:
324,370,134154,2,0,L|329:250,1,120.000004577637,2|0,0:2|0:0,0:0:0:0:
451,199,134529,2,0,L|446:328,1,120.000004577637,2|0,3:2|1:0,0:0:0:0:
310,383,134904,2,0,L|315:263,1,120.000004577637,2|0,0:2|0:0,0:0:0:0:
435,193,135279,1,8,0:1:0:0:
280,70,135529,1,0,3:0:0:0:
174,238,135779,6,0,P|128:256|55:231,1,120.000004577637,0|0,3:0|1:0,0:0:0:0:
54,98,136154,2,0,P|100:80|173:105,1,120.000004577637,2|0,1:2|0:0,0:0:0:0:
246,165,136529,1,0,3:0:0:0:
447,52,136779,1,0,1:0:0:0:
464,265,137029,1,0,3:0:0:0:
308,46,137279,1,8,0:1:0:0:
97,183,137529,1,0,3:0:0:0:
97,183,137654,1,4,0:3:0:0:
97,183,137779,6,0,P|99:254|147:283,2,120.000004577637,4|0|8,3:2|1:0|0:1,0:0:0:0:
223,298,138529,2,0,P|213:332|194:353,1,60.0000022888184,0|0,3:0|0:0,0:0:0:0:
209,194,138779,2,0,L|348:194,1,120.000004577637,0|0,1:0|3:0,0:0:0:0:
496,92,139279,1,8,0:1:0:0:
476,294,139529,1,0,3:0:0:0:
486,78,139779,6,0,B|468:82|444:71|444:71|415:82|415:82|372:67|306:78,1,180.000006866455,0|0,3:0|0:0,0:0:0:0:
287,96,140279,2,0,P|268:59|225:47,1,60.0000022888184,8|0,0:1|0:0,0:0:0:0:
94,50,140529,2,0,P|70:68|60:95,1,60.0000022888184,0|0,3:0|0:0,0:0:0:0:
177,235,140779,2,0,L|178:116,2,120.000004577637,0|0|8,1:0|3:0|0:1,0:0:0:0:
46,323,141529,1,0,3:0:0:0:
344,329,141779,5,0,3:0:0:0:
344,329,142029,2,0,L|344:244,1,60.0000022888184,0|0,1:0|0:0,0:0:0:0:
443,271,142279,2,0,L|443:331,1,60.0000022888184,8|0,0:1|0:0,0:0:0:0:
391,188,142529,2,0,B|373:125|413:130|395:65,2,120.000004577637,0|0|0,3:0|1:0|3:0,0:0:0:0:
492,17,143279,1,8,0:1:0:0:
288,11,143529,1,0,3:0:0:0:
237,250,143779,5,4,0:3:0:0:
237,250,144029,5,0,3:0:0:0:
243,279,144154,1,0,3:0:0:0:
249,308,144279,1,4,0:3:0:0:
41,305,144529,5,0,3:0:0:0:
47,276,144654,1,0,3:0:0:0:
53,247,144779,1,8,0:1:0:0:
422,255,145029,5,0,3:0:0:0:
416,284,145154,1,0,3:0:0:0:
410,313,145279,1,4,0:3:0:0:
171,134,145529,5,0,3:0:0:0:
249,68,145654,1,0,3:0:0:0:
325,138,145779,2,0,B|376:235|310:308|310:308|319:282|308:250,1,227.999993911743,6|0,3:2|0:0,0:0:0:0:
292,245,146279,2,0,P|256:235|210:253,1,75.9999979705811,8|0,0:1|0:0,0:0:0:0:
15,161,146529,6,0,P|44:170|69:168,1,40,2|0,3:2|0:0,0:0:0:0:
251,130,146779,2,0,P|221:144|166:133,1,80,2|0,1:2|3:0,0:0:0:0:
7,55,147154,2,0,P|32:76|88:79,1,80,2|0,0:2|0:0,0:0:0:0:
227,39,147529,2,0,P|201:55|176:59,1,40,2|0,3:2|0:0,0:0:0:0:
357,70,147779,2,0,P|391:79|430:121,1,80,2|0,3:2|0:0,0:0:0:0:
423,275,148154,2,0,P|395:302|357:314,1,80,2|0,0:2|0:0,0:0:0:0:
159,187,148529,2,0,L|333:191,1,160,2|2,3:2|3:2,0:0:0:0:
124,374,149279,1,8,0:1:0:0:
49,126,149529,5,0,3:0:0:0:
13,216,149654,1,0,3:0:0:0:
92,281,149779,2,0,B|148:306|263:327|276:247|254:235|210:230|194:285,1,227.999993911743,6|2,3:2|0:3,0:0:0:0:
211,284,150279,2,0,L|318:282,1,75.9999979705811,8|0,0:1|0:0,0:0:0:0:
481,205,150529,6,0,P|461:227|440:240,1,40,2|0,3:2|0:0,0:0:0:0:
436,79,150779,2,0,P|429:126|403:167,1,80,2|0,1:2|3:0,0:0:0:0:
296,37,151154,2,0,P|331:59|351:102,1,80,2|0,0:2|0:0,0:0:0:0:
216,113,151529,2,0,P|236:112|256:116,1,40,2|0,3:2|0:0,0:0:0:0:
242,271,151779,2,0,P|227:235|232:196,1,80,2|0,3:2|0:0,0:0:0:0:
88,202,152154,2,0,P|92:241|77:277,1,80,2|0,0:2|0:0,0:0:0:0:
298,367,152529,2,0,L|136:367,1,160,2|2,3:2|3:2,0:0:0:0:
163,112,153279,1,8,0:1:0:0:
362,233,153529,5,0,3:0:0:0:
418,154,153654,1,0,3:0:0:0:
365,73,153779,2,0,B|276:46|181:79|181:79|213:83|237:102,1,227.999993911743,6|0,3:2|0:0,0:0:0:0:
236,107,154279,2,0,P|246:139|231:179,1,75.9999979705811,8|0,0:1|0:0,0:0:0:0:
106,331,154529,6,0,P|103:309|112:280,1,40,2|0,3:2|0:0,0:0:0:0:
247,279,154779,2,0,P|258:312|243:362,1,80,2|0,1:2|3:0,0:0:0:0:
403,355,155154,2,0,P|392:316|403:278,1,80,2|0,0:2|0:0,0:0:0:0:
503,142,155529,2,0,P|506:164|497:193,1,40,2|0,3:2|0:0,0:0:0:0:
370,186,155779,2,0,P|359:147|370:109,1,80,2|0,3:2|0:0,0:0:0:0:
218,115,156154,2,0,P|229:152|218:190,1,80,2|0,0:2|0:0,0:0:0:0:
70,343,156529,2,0,L|80:175,1,160,2|2,3:2|3:2,0:0:0:0:
269,12,157279,1,8,0:1:0:0:
433,163,157529,5,0,3:0:0:0:
359,222,157654,1,0,3:0:0:0:
289,161,157779,2,0,B|270:147|236:145|236:145|167:191|104:163|104:163|151:154,1,227.999993911743,6|0,3:2|0:0,0:0:0:0:
151,173,158279,2,0,P|160:207|147:255,1,75.9999979705811,8|0,0:1|0:0,0:0:0:0:
42,347,158529,6,0,L|82:365,1,40,2|0,3:2|0:0,0:0:0:0:
0,229,158779,2,0,L|75:266,1,80,2|0,1:2|3:0,0:0:0:0:
0,115,159154,2,0,L|75:152,1,80,2|0,0:2|0:0,0:0:0:0:
18,12,159529,2,0,L|67:35,1,40,2|0,3:2|0:0,0:0:0:0:
237,49,159779,2,0,L|151:75,1,80,2|0,3:2|0:0,0:0:0:0:
274,151,160154,2,0,L|188:177,1,80,2|0,0:2|0:0,0:0:0:0:
181,382,160529,2,0,L|337:334,1,160,2|2,3:2|3:2,0:0:0:0:
466,147,161279,1,8,0:1:0:0:
251,59,161529,5,0,3:0:0:0:
253,169,161654,1,0,3:0:0:0:
255,279,161779,5,0,3:0:0:0:
80,65,169779,5,2,0:2:0:0:
80,65,170279,1,0,0:2:0:0:
81,161,170779,1,2,0:2:0:0:
148,229,171279,1,2,0:2:0:0:
148,229,171529,2,0,L|276:230,1,120.000004577637,2|2,0:2|0:2,0:2:0:0:
343,170,172529,1,2,0:2:0:0:
399,247,173029,1,0,0:2:0:0:
399,247,173279,1,2,0:2:0:0:
489,97,173779,5,2,0:2:0:0:
418,32,174279,1,0,0:2:0:0:
351,97,174779,1,2,0:2:0:0:
264,55,175279,1,2,0:2:0:0:
264,55,175529,2,0,L|194:56,1,60.0000022888184,2|0,0:2|0:2,0:2:0:0:
256,192,175904,12,0,177279,0:0:0:0:
130,136,177529,5,0,3:0:0:0:
107,29,177654,1,0,3:0:0:0:
154,154,177779,2,0,B|178:169|201:172|201:172|263:141|330:173,1,180.000006866455,6|0,3:2|0:3,0:0:0:0:
264,306,178279,6,0,P|254:271|275:235,1,60.0000022888184,8|0,0:1|0:0,0:0:0:0:
392,253,178529,2,0,P|399:281|389:309,1,60.0000022888184,2|0,3:2|0:0,0:0:0:0:
325,171,178779,2,0,L|325:35,1,120.000004577637,2|0,1:2|3:0,0:0:0:0:
429,99,179154,1,2,0:2:0:0:
429,99,179279,2,0,L|431:173,1,60.0000022888184,8|0,0:1|0:0,0:0:0:0:
479,226,179529,2,0,L|477:300,1,60.0000022888184,2|0,3:2|0:0,0:0:0:0:
343,367,179779,6,0,B|250:387|266:335|164:365,1,180.000006866455,2|0,3:2|1:0,0:0:0:0:
60,373,180279,2,0,P|80:351|83:318,1,60.0000022888184,8|0,0:1|0:0,0:0:0:0:
34,172,180529,2,0,P|13:193|11:227,1,60.0000022888184,2|0,3:2|0:0,0:0:0:0:
217,233,180779,2,0,L|89:234,2,120.000004577637,0|2|8,1:0|3:2|0:1,0:0:0:0:
405,118,181529,5,0,3:0:0:0:
470,190,181654,1,0,3:0:0:0:
369,110,181779,2,0,B|339:102|307:121|307:121|262:125|226:102|226:102|284:90,1,180.000006866455,4|0,3:2|0:3,0:0:0:0:
356,196,182279,6,0,P|363:225|356:262,1,60.0000022888184,8|0,0:1|0:0,0:0:0:0:
217,250,182529,2,0,P|212:220|219:191,1,60.0000022888184,2|0,3:2|0:0,0:0:0:0:
291,339,182779,2,0,L|151:339,1,120.000004577637,2|0,1:2|3:0,0:0:0:0:
58,374,183154,1,2,0:2:0:0:
58,374,183279,2,0,L|67:297,1,60.0000022888184,8|0,0:1|0:0,0:0:0:0:
12,232,183529,2,0,L|21:155,1,60.0000022888184,2|0,3:2|0:0,0:0:0:0:
115,43,183779,6,0,B|111:86|111:86|130:115|130:115|126:180,1,120.000004577637,2|2,3:2|0:2,0:0:0:0:
216,247,184154,1,0,1:0:0:0:
216,247,184279,2,0,L|225:170,1,60.0000022888184,8|0,0:1|0:0,0:0:0:0:
316,83,184529,2,0,L|309:142,1,60.0000022888184,2|0,3:2|0:0,0:0:0:0:
369,272,184779,1,0,1:0:0:0:
462,79,185029,1,2,3:2:0:0:
495,351,185279,1,8,0:1:0:0:
259,296,185529,5,0,3:0:0:0:
353,279,185654,1,0,3:0:0:0:
242,325,185779,2,0,B|109:325|109:325|145:281,1,180.000006866455,6|0,3:2|0:3,0:0:0:0:
174,199,186279,6,0,P|139:193|101:202,1,60.0000022888184,8|0,0:1|0:0,0:0:0:0:
0,118,186529,2,0,P|35:124|73:115,1,60.0000022888184,2|0,3:2|0:0,0:0:0:0:
236,42,186779,2,0,P|186:19|118:61,1,120.000004577637,2|0,1:2|3:0,0:0:0:0:
182,119,187154,1,2,0:2:0:0:
182,119,187279,2,0,L|258:119,1,60.0000022888184,8|0,0:1|0:0,0:0:0:0:
313,188,187529,2,0,L|389:188,1,60.0000022888184,2|0,3:2|0:0,0:0:0:0:
486,85,187779,6,0,L|478:219,1,120.000004577637,2|2,3:2|0:2,0:0:0:0:
497,314,188154,1,0,1:0:0:0:
497,314,188279,2,0,P|459:303|420:305,1,60.0000022888184,8|0,0:1|0:0,0:0:0:0:
272,313,188529,2,0,P|309:302|349:304,1,60.0000022888184,2|0,3:2|0:0,0:0:0:0:
385,97,188779,2,0,L|377:231,2,120.000004577637,0|2|8,1:0|3:2|0:1,0:0:0:0:
178,69,189529,5,0,3:0:0:0:
275,38,189654,1,0,3:0:0:0:
156,95,189779,2,0,B|136:139|119:229|182:239|192:222|196:187|152:175,1,180.000006866455,6|0,3:2|0:3,0:0:0:0:
66,130,190279,6,0,P|60:163|75:196,1,60.0000022888184,8|0,0:1|0:0,0:0:0:0:
260,247,190529,2,0,P|268:218|262:189,1,60.0000022888184,2|0,3:2|0:0,0:0:0:0:
156,354,190779,2,0,L|302:352,1,120.000004577637,2|0,1:2|3:3,0:0:0:0:
389,375,191154,1,0,1:3:0:0:
389,375,191279,2,0,L|386:307,1,60.0000022888184,8|0,0:1|0:0,0:0:0:0:
460,253,191529,2,0,L|457:185,1,60.0000022888184,2|0,3:2|0:0,0:0:0:0:
449,88,191779,1,2,3:2:0:0:
256,192,191904,12,2,193779,3:2:0:0:
