osu file format v14

[General]
AudioFilename: audio.mp3
AudioLeadIn: 0
PreviewTime: 63765
Countdown: 1
SampleSet: Soft
StackLeniency: 0.7
Mode: 0
LetterboxInBreaks: 0
WidescreenStoryboard: 1

[Editor]
Bookmarks: 17765,33765,49765,65765,81765,97765,113765,121765,129765,145765,148140,161765,177765,193765
DistanceSpacing: 1
BeatDivisor: 4
GridSize: 4
TimelineZoom: 1.5

[Metadata]
Title:Senorita
TitleUnicode:Senorita
Artist:(G)I-DLE
ArtistUnicode:(여자)아이들
Creator:Seto Kousuke
Version:Hard
Source:
Tags:K-pop Kpop Mapping Contest V2 Senhorita Korean Pop 큐브엔터테인먼트 Cube Entertainment I Made 미연 Miyeon 민니 Minnie 수진 Soojin 소연 Soyeon 우기 Yuqi 슈화 Shuhua señorita
BeatmapID:2146094
BeatmapSetID:1026178

[Difficulty]
HPDrainRate:4
CircleSize:4
OverallDifficulty:6
ApproachRate:7.8
SliderMultiplier:1.5
SliderTickRate:1

[Events]
//Background and Video events
0,0,"background_2.jpg",0,0
//Break Periods
2,49979,55000
2,161979,169000
2,169979,176750
//Storyboard Layer 0 (Background)
//Storyboard Layer 1 (Fail)
//Storyboard Layer 2 (Pass)
//Storyboard Layer 3 (Foreground)
//Storyboard Layer 4 (Overlay)
//Storyboard Sound Samples

[TimingPoints]
1772,500,4,2,1,40,1,0
10834,-100,4,2,1,5,0,0
11022,-100,4,2,1,40,0,0
14584,-100,4,2,1,5,0,0
14647,-100,4,2,1,40,0,0
15772,-100,4,2,1,50,0,0
17772,-100,4,2,1,60,0,0
18084,-100,4,2,1,5,0,0
18272,-100,4,2,1,60,0,0
18834,-100,4,2,1,5,0,0
19022,-100,4,2,1,60,0,0
22834,-100,4,2,1,5,0,0
23022,-100,4,2,1,60,0,0
26084,-100,4,2,1,5,0,0
26272,-100,4,2,1,60,0,0
26834,-100,4,2,1,5,0,0
27022,-100,4,2,1,60,0,0
30834,-100,4,2,1,5,0,0
31022,-100,4,2,1,60,0,0
33779,500,4,2,1,70,1,0
33779,-76.9230769230769,4,2,1,70,0,0
49779,-76.9230769230769,4,2,1,50,0,0
63779,-76.9230769230769,4,2,1,70,0,0
65779,-76.9230769230769,4,2,1,80,0,1
79029,-76.9230769230769,4,2,1,80,0,1
81779,-76.9230769230769,4,2,1,85,0,1
82279,-76.9230769230769,4,2,1,85,0,1
90279,-76.9230769230769,4,2,1,85,0,1
94279,-76.9230769230769,4,2,1,85,0,1
97779,-133.333333333333,4,2,1,60,0,0
98841,-133.333333333333,4,2,1,5,0,0
99029,-76.9230769230769,4,2,1,60,0,0
101779,-133.333333333333,4,2,1,60,0,0
102841,-133.333333333333,4,2,1,5,0,0
103029,-76.9230769230769,4,2,1,60,0,0
113779,-76.9230769230769,4,2,1,70,0,0
121779,-76.9230769230769,4,2,1,75,0,0
129779,-76.9230769230769,4,2,1,80,0,1
140091,-76.9230769230769,4,2,1,5,0,1
140279,-76.9230769230769,4,2,1,80,0,1
143029,-76.9230769230769,4,2,1,80,0,1
145779,-76.9230769230769,4,2,1,85,0,1
146279,-76.9230769230769,4,2,1,85,0,1
154279,-76.9230769230769,4,2,1,85,0,1
158279,-76.9230769230769,4,2,1,85,0,1
161779,-76.9230769230769,4,2,1,60,0,0
177779,-76.9230769230769,4,2,1,75,0,0

[Colours]
Combo1 : 219,148,142
Combo2 : 198,176,197
Combo3 : 170,109,81
Combo4 : 210,60,61

[HitObjects]
128,174,1272,5,0,0:0:0:0:
199,305,1772,1,0,3:0:0:0:
357,145,2522,1,0,3:0:0:0:
357,145,3022,2,0,L|399:145,2,37.5,2|2|8,0:3|0:3|0:3,0:0:0:0:
311,85,3522,1,0,0:0:0:0:
257,137,3772,5,0,3:0:0:0:
68,13,4522,1,0,3:0:0:0:
42,160,5022,2,0,L|43:247,2,75,0|8|0,0:0|0:3|3:0,0:0:0:0:
95,107,5772,5,0,3:0:0:0:
306,29,6522,1,0,3:0:0:0:
306,29,7022,2,0,L|255:28,2,37.5,2|2|8,0:3|0:3|0:3,0:0:0:0:
376,53,7522,1,0,0:0:0:0:
378,127,7772,5,0,3:0:0:0:
208,274,8522,1,0,3:0:0:0:
331,359,9022,2,0,L|414:351,1,75,0|8,0:0|0:3,0:0:0:0:
456,295,9522,1,0,3:0:0:0:
456,220,9772,5,0,3:0:0:0:
244,144,10522,2,0,P|165:125|91:143,2,150,0|2|0,3:0|0:3|0:0,0:0:0:0:
288,204,11772,5,0,3:0:0:0:
442,40,12522,1,0,3:0:0:0:
470,187,13022,2,0,L|473:270,2,75,0|8|0,0:0|0:3|3:0,0:0:0:0:
415,134,13772,5,0,3:0:0:0:
206,50,14522,1,0,3:0:0:0:
206,50,15022,2,0,L|243:50,2,37.5,2|2|8,0:3|0:3|0:3,0:0:0:0:
136,78,15522,1,0,0:0:0:0:
131,152,15772,6,0,L|139:238,1,75,2|2,3:2|0:2,0:0:0:0:
63,217,16272,2,0,L|71:303,1,75,2|0,0:0|3:0,0:0:0:0:
114,352,16772,2,0,B|150:370|150:370|277:356,1,150,2|8,0:0|0:3,0:0:0:0:
307,300,17522,1,0,3:0:0:0:
364,348,17772,5,0,3:0:0:0:
474,246,18272,1,8,0:2:0:0:
474,246,18522,2,0,B|502:178|439:165|474:95,1,150,8|2,3:2|0:3,0:0:0:0:
495,72,19147,1,2,0:3:0:0:
495,72,19272,2,0,L|390:57,1,75,8|0,0:2|0:0,0:0:0:0:
266,39,19772,5,0,3:0:0:0:
234,185,20272,1,8,0:2:0:0:
234,185,20522,2,0,P|162:213|91:182,1,150,8|0,3:2|0:0,0:0:0:0:
49,129,21272,1,8,0:2:0:0:
87,64,21522,1,0,3:0:0:0:
161,66,21772,5,0,3:0:0:0:
178,214,22272,1,8,0:2:0:0:
178,214,22522,2,0,L|184:377,1,150,8|2,3:2|0:3,0:0:0:0:
218,377,23147,1,2,0:3:0:0:
218,377,23272,2,0,L|300:367,1,75,8|0,0:2|0:0,0:0:0:0:
451,336,23772,5,0,3:0:0:0:
363,214,24272,1,8,0:2:0:0:
363,214,24522,2,0,B|350:174|350:174|367:134|367:134|358:66,1,150,8|0,3:2|0:0,0:0:0:0:
275,42,25272,2,0,L|284:128,1,75,8|0,0:2|3:0,0:0:0:0:
224,254,25772,5,0,3:0:0:0:
126,140,26272,1,8,0:2:0:0:
126,140,26522,2,0,B|202:166|200:127|280:147,1,150,8|2,3:2|0:3,0:0:0:0:
305,164,27147,1,2,0:3:0:0:
305,164,27272,2,0,L|306:250,1,75,8|0,0:2|0:0,0:0:0:0:
207,368,27772,5,0,3:0:0:0:
80,287,28272,1,8,0:2:0:0:
80,287,28522,2,0,L|91:122,1,150,8|0,3:2|0:0,0:0:0:0:
138,80,29272,1,8,0:2:0:0:
212,78,29522,1,0,3:0:0:0:
260,135,29772,5,0,3:0:0:0:
387,55,30272,1,8,0:2:0:0:
387,55,30522,2,0,P|428:81|408:174,1,150,8|2,3:2|0:3,0:0:0:0:
379,186,31147,1,2,0:3:0:0:
379,186,31272,2,0,L|380:271,1,75,8|0,0:2|0:0,0:0:0:0:
258,363,31772,5,0,3:0:0:0:
256,192,31897,12,0,33272,3:0:0:0:
423,120,33779,6,0,P|361:151|272:90,1,146.249993305207,4|2,3:2|0:3,0:0:0:0:
274,79,34279,1,8,0:1:0:0:
196,137,34529,2,0,L|197:352,1,194.999991073609,0|0,3:0|1:0,0:0:0:0:
100,346,35279,2,0,L|99:237,1,97.4999955368044,8|0,0:1|3:0,0:0:0:0:
3,107,35779,6,0,P|33:62|113:112,1,146.249993305207,0|0,3:0|0:0,0:0:0:0:
121,136,36279,1,8,0:1:0:0:
197,75,36529,2,0,B|264:67|264:67|316:94|316:94|408:80,1,194.999991073609,0|0,3:0|1:0,0:0:0:0:
479,107,37279,1,8,0:1:0:0:
485,204,37529,1,0,3:0:0:0:
415,272,37779,6,0,L|236:265,1,146.249993305207,0|2,3:0|0:3,0:0:0:0:
223,248,38279,1,8,0:1:0:0:
163,325,38529,2,0,P|87:365|78:290,1,146.249993305207,0|0,3:0|0:0,0:0:0:0:
33,293,39029,1,0,1:0:0:0:
104,226,39279,1,8,0:1:0:0:
170,297,39529,1,0,3:0:0:0:
242,232,39779,6,0,L|355:237,1,97.4999955368044,0|0,3:0|1:0,0:0:0:0:
418,178,40279,1,8,0:1:0:0:
340,118,40529,2,0,L|105:128,1,194.999991073609,0|0,3:0|3:0,0:0:0:0:
67,67,41279,1,8,0:1:0:0:
50,163,41529,1,0,3:0:0:0:
171,38,41779,5,4,3:2:0:0:
244,102,42029,1,2,0:3:0:0:
244,102,42154,1,2,0:3:0:0:
244,102,42279,1,8,0:1:0:0:
320,41,42529,2,0,P|409:39|408:129,1,194.999991073609,0|0,3:0|1:0,0:0:0:0:
347,199,43279,1,8,0:1:0:0:
414,269,43529,1,0,3:0:0:0:
343,336,43779,6,0,L|182:336,1,146.249993305207,0|0,3:0|0:0,0:0:0:0:
154,359,44279,1,8,0:1:0:0:
78,296,44529,2,0,B|44:242|102:219|74:145,1,146.249993305207,0|0,3:0|0:0,0:0:0:0:
41,120,45029,1,0,1:0:0:0:
100,42,45279,1,8,0:1:0:0:
165,114,45529,1,0,3:0:0:0:
231,43,45779,5,0,3:0:0:0:
302,109,46029,2,0,L|303:221,2,97.4999955368044,0|8|0,1:3|0:1|3:0,0:0:0:0:
366,35,46779,1,0,1:0:0:0:
434,104,47029,2,0,L|435:216,2,97.4999955368044,2|8|0,0:3|0:1|3:0,0:0:0:0:
366,35,47779,6,0,L|249:31,1,97.4999955368044,0|0,3:0|1:0,0:0:0:0:
222,118,48279,2,0,L|319:121,1,97.4999955368044,8|0,0:1|3:0,0:0:0:0:
379,199,48779,1,0,1:0:0:0:
305,263,49029,1,0,3:0:0:0:
365,339,49279,1,8,0:1:0:0:
441,278,49529,1,0,3:0:0:0:
441,278,49654,1,0,0:0:0:0:
441,278,49779,1,4,3:2:0:0:
113,87,55779,5,4,0:3:0:0:
174,162,56029,2,0,L|172:219,2,48.7499977684022,0|0|4,3:0|3:0|0:3,0:0:0:0:
246,95,56529,1,0,3:0:0:0:
246,95,56654,1,0,3:0:0:0:
246,95,56779,1,8,0:1:0:0:
312,167,57029,2,0,L|310:224,2,48.7499977684022,0|0|4,3:0|3:0|0:3,0:0:0:0:
389,106,57529,1,0,3:0:0:0:
389,106,57654,1,0,3:0:0:0:
389,106,57779,5,4,3:2:0:0:
471,158,58029,1,0,0:0:0:0:
464,255,58279,1,8,0:2:0:0:
464,255,58529,2,0,P|450:312|325:308,1,194.999991073609,8|2,0:2|0:3,0:0:0:0:
264,247,59279,2,0,P|191:244|159:268,1,97.4999955368044,8|0,0:2|0:0,0:0:0:0:
123,340,59779,5,0,3:0:0:0:
30,309,60029,1,0,0:0:0:0:
88,231,60279,1,8,0:2:0:0:
88,231,60529,2,0,L|138:20,1,194.999991073609,8|0,0:2|0:0,0:0:0:0:
229,25,61279,2,0,L|338:25,1,97.4999955368044,8|0,0:2|0:0,0:0:0:0:
423,27,61779,5,0,3:0:0:0:
473,110,62029,1,0,0:0:0:0:
419,191,62279,1,8,0:2:0:0:
419,191,62529,2,0,P|345:223|244:145,1,194.999991073609,8|2,0:2|0:3,0:0:0:0:
177,106,63279,2,0,P|129:101|74:150,1,97.4999955368044,8|0,0:2|0:0,0:0:0:0:
37,267,63779,6,0,L|162:317,1,97.4999955368044,4|0,0:3|3:0,0:0:0:0:
148,347,64154,1,0,3:0:0:0:
148,347,64279,2,0,L|267:338,1,97.4999955368044,4|0,0:3|3:0,0:0:0:0:
347,250,64779,1,8,0:1:0:0:
402,329,65029,1,0,3:0:0:0:
402,329,65154,1,0,3:0:0:0:
402,329,65279,1,4,0:3:0:0:
473,262,65529,1,0,3:0:0:0:
417,181,65779,6,0,B|366:153|366:153|211:181,1,194.999991073609,4|8,3:2|0:1,0:0:0:0:
158,112,66529,2,0,P|102:100|43:128,2,97.4999955368044,0|0|0,3:0|1:0|3:0,0:0:0:0:
222,184,67279,1,8,0:1:0:0:
153,252,67529,1,0,3:0:0:0:
201,336,67779,6,0,L|415:337,1,194.999991073609,0|8,3:0|0:1,0:0:0:0:
477,293,68529,2,0,P|492:344|471:393,2,97.4999955368044,0|0|0,3:0|1:0|3:0,0:0:0:0:
391,246,69279,1,8,0:1:0:0:
453,171,69529,1,0,3:0:0:0:
372,116,69779,6,0,P|304:92|208:116,1,146.249993305207,2|2,3:2|0:2,0:0:0:0:
109,23,70529,2,0,P|85:91|109:187,1,146.249993305207,2|2,3:2|0:2,0:0:0:0:
10,281,71279,2,0,P|78:305|137:295,1,97.4999955368044,8|0,0:1|3:0,0:0:0:0:
218,208,71779,5,0,3:0:0:0:
273,287,72029,1,0,1:0:0:0:
273,287,72154,1,0,1:0:0:0:
273,287,72279,1,8,0:1:0:0:
345,221,72529,1,0,3:0:0:0:
409,293,72779,2,0,P|458:312|513:297,1,97.4999955368044,0|0,1:0|3:0,0:0:0:0:
481,139,73279,1,8,0:1:0:0:
345,221,73529,1,0,3:0:0:0:
345,221,73654,1,4,0:3:0:0:
345,221,73779,6,0,P|280:214|261:97,1,194.999991073609,4|8,3:2|0:1,0:0:0:0:
199,23,74529,1,0,3:0:0:0:
137,98,74779,2,0,L|40:95,1,97.4999955368044,0|0,1:0|3:0,0:0:0:0:
150,208,75279,2,0,L|53:211,1,97.4999955368044,8|0,0:1|3:0,0:0:0:0:
27,334,75779,6,0,L|237:322,1,194.999991073609,0|8,3:0|0:1,0:0:0:0:
288,252,76529,1,0,3:0:0:0:
344,331,76779,2,0,P|390:342|450:314,1,97.4999955368044,0|0,1:0|3:0,0:0:0:0:
478,238,77279,2,0,L|460:128,1,97.4999955368044,8|0,0:1|3:0,0:0:0:0:
406,61,77779,5,0,3:0:0:0:
335,128,78029,1,0,1:0:0:0:
312,33,78279,1,8,0:1:0:0:
234,91,78529,6,0,L|233:258,1,146.249993305207,0|0,3:0|0:0,0:0:0:0:
211,280,79029,1,0,3:0:0:0:
127,229,79279,1,8,0:1:0:0:
89,318,79529,1,0,3:0:0:0:
173,366,79779,6,0,L|295:361,1,97.4999955368044,4|0,0:3|3:0,0:0:0:0:
312,336,80154,1,0,3:0:0:0:
312,336,80279,2,0,L|430:322,1,97.4999955368044,4|0,0:3|3:0,0:0:0:0:
482,174,80779,1,8,0:1:0:0:
402,230,81029,2,0,L|345:233,2,48.7499977684022,0|0|4,3:0|3:0|0:3,0:0:0:0:
480,76,81529,5,0,3:0:0:0:
480,76,81654,1,0,3:0:0:0:
480,76,81779,2,0,L|292:89,1,146.249993305207,6|0,3:2|0:0,0:0:0:0:
305,125,82279,1,8,0:1:0:0:
218,25,82529,1,2,3:2:0:0:
144,136,82779,6,0,L|136:290,2,146.249993305207,2|2|2,1:2|0:2|3:2,0:0:0:0:
47,150,83779,2,0,L|38:260,1,97.4999955368044,2|0,3:2|0:0,0:0:0:0:
60,342,84279,1,8,0:1:0:0:
136,282,84529,2,0,L|144:136,1,146.249993305207,2|0,3:2|0:0,0:0:0:0:
165,92,85029,1,2,3:2:0:0:
272,186,85279,1,8,0:1:0:0:
346,66,85529,5,0,3:0:0:0:
346,66,85654,1,0,3:0:0:0:
346,66,85779,2,0,P|399:69|442:158,1,146.249993305207,6|0,3:2|0:3,0:0:0:0:
437,194,86279,1,8,0:1:0:0:
463,287,86529,1,2,3:2:0:0:
367,308,86779,6,0,L|176:305,2,146.249993305207,2|2|2,1:2|0:2|3:2,0:0:0:0:
352,211,87779,2,0,L|239:209,1,97.4999955368044,2|0,3:2|0:0,0:0:0:0:
185,140,88279,1,8,0:1:0:0:
99,186,88529,2,0,L|71:350,1,146.249993305207,2|0,3:2|0:0,0:0:0:0:
43,368,89029,1,2,3:2:0:0:
180,373,89279,1,8,0:1:0:0:
222,236,89529,5,0,3:0:0:0:
222,236,89654,1,0,3:0:0:0:
222,236,89779,2,0,L|231:72,1,146.249993305207,6|0,3:2|0:0,0:0:0:0:
221,41,90279,1,8,0:1:0:0:
309,0,90529,1,2,3:2:0:0:
364,79,90779,6,0,L|358:238,2,146.249993305207,2|2|2,1:2|0:2|3:2,0:0:0:0:
453,117,91779,2,0,L|450:219,1,97.4999955368044,2|0,3:2|0:0,0:0:0:0:
511,290,92279,1,8,0:1:0:0:
440,357,92529,2,0,L|271:351,1,146.249993305207,2|0,3:2|0:0,0:0:0:0:
261,314,93029,1,2,3:2:0:0:
130,368,93279,1,8,0:1:0:0:
84,234,93529,5,0,3:0:0:0:
84,234,93654,1,0,3:0:0:0:
84,234,93779,2,0,P|111:156|172:166,1,146.249993305207,6|0,3:2|0:0,0:0:0:0:
204,184,94279,1,8,0:1:0:0:
257,102,94529,1,2,3:2:0:0:
325,170,94779,6,0,L|477:163,2,146.249993305207,2|2|2,1:2|0:2|3:2,0:0:0:0:
347,75,95779,2,0,L|452:69,2,97.4999955368044,2|0|8,3:2|0:0|0:1,0:0:0:0:
265,20,96529,2,0,L|133:94,1,146.249993305207,2|0,3:2|0:0,0:0:0:0:
88,93,97029,1,2,3:2:0:0:
74,226,97279,1,8,0:1:0:0:
215,193,97529,5,0,3:0:0:0:
215,193,97654,1,0,3:0:0:0:
215,193,97779,6,0,P|282:245|240:314,1,168.750006437302,0|0,3:0|3:0,0:0:0:0:
95,365,99029,6,0,L|44:365,2,48.7499977684022,2|2|8,0:3|0:3|0:3,0:0:0:0:
138,301,99529,1,0,0:0:0:0:
84,243,99779,1,0,3:0:0:0:
71,47,100529,1,0,3:0:0:0:
234,152,101029,1,0,0:0:0:0:
291,96,101279,1,8,0:3:0:0:
349,150,101529,1,0,3:0:0:0:
349,150,101779,6,0,L|362:335,1,168.750006437302,0|0,3:0|3:0,0:0:0:0:
192,369,103029,6,0,L|140:377,2,48.7499977684022,2|2|8,0:3|0:3|0:3,0:0:0:0:
233,303,103529,1,0,0:0:0:0:
295,351,103779,1,0,3:0:0:0:
503,251,104529,1,0,3:0:0:0:
358,154,105029,2,0,L|255:171,2,97.4999955368044,0|8|0,0:0|0:3|3:0,0:0:0:0:
463,36,105779,5,0,3:0:0:0:
463,36,106529,1,0,3:0:0:0:
463,36,107029,2,0,L|464:92,2,48.7499977684022,2|2|8,0:3|0:3|0:3,0:0:0:0:
391,3,107529,1,0,0:0:0:0:
322,38,107779,5,0,3:0:0:0:
251,226,108529,1,0,3:0:0:0:
107,93,109029,2,0,L|9:84,2,97.4999955368044,0|8|0,0:0|0:3|3:0,0:0:0:0:
259,35,109779,5,0,3:0:0:0:
259,35,110529,1,0,3:0:0:0:
259,35,111029,2,0,L|259:90,2,48.7499977684022,2|2|8,0:3|0:3|0:3,0:0:0:0:
336,12,111529,1,0,0:0:0:0:
398,63,111779,6,0,L|397:196,2,97.4999955368044,2|0|2,3:2|0:2|0:2,0:0:0:0:
476,112,112529,1,0,3:0:0:0:
478,257,112779,1,2,0:2:0:0:
411,327,113029,2,0,L|351:328,2,48.7499977684022,2|2|8,0:3|0:3|0:3,0:0:0:0:
479,257,113529,1,0,3:0:0:0:
308,260,113779,6,0,P|279:300|293:371,2,97.4999955368044,4|2|2,3:2|0:3|0:3,0:0:0:0:
435,155,114529,2,0,L|490:154,2,48.7499977684022,2|2|8,3:0|0:3|0:2,0:0:0:0:
362,90,115029,1,2,0:3:0:0:
287,153,115279,2,0,L|221:153,3,48.7499977684022,0|0|0|0,1:3|1:3|1:3|1:3,0:0:0:0:
89,20,116029,5,8,0:2:0:0:
32,99,116279,1,2,0:3:0:0:
65,190,116529,2,0,L|61:264,1,48.7499977684022,0|0,3:3|0:0,0:0:0:0:
61,287,116779,1,8,0:2:0:0:
150,248,117029,1,0,1:3:0:0:
211,324,117279,2,0,L|212:393,2,48.7499977684022,2|0|2,0:3|1:3|3:0,0:0:0:0:
213,161,117779,5,0,3:0:0:0:
308,166,118029,2,0,L|309:280,1,97.4999955368044,0|2,1:0|0:3,0:0:0:0:
304,360,118529,1,0,3:3:0:0:
439,359,118779,5,8,0:2:0:0:
452,262,119029,1,2,0:3:0:0:
465,165,119279,2,0,L|460:99,3,48.7499977684022,2|0|0|0,0:3|1:3|1:3|1:3,0:0:0:0:
363,7,120029,5,2,3:0:0:0:
338,99,120279,2,0,L|235:101,1,97.4999955368044,8|2,0:2|0:3,0:0:0:0:
85,44,120779,1,8,0:2:0:0:
140,124,121029,1,6,0:3:0:0:
140,124,121154,1,6,0:3:0:0:
140,124,121279,1,6,0:3:0:0:
65,187,121529,1,2,0:3:0:0:
190,266,121779,6,0,L|343:259,1,146.249993305207,4|0,3:2|0:0,0:0:0:0:
374,288,122279,1,2,0:3:0:0:
413,198,122529,1,2,3:0:0:0:
457,351,122779,1,8,0:2:0:0:
498,262,123029,1,2,0:3:0:0:
498,262,123154,1,0,0:0:0:0:
498,262,123279,2,0,L|498:135,1,97.4999955368044,0|0,1:3|1:3,0:0:0:0:
413,56,123779,5,0,0:0:0:0:
509,71,124029,1,2,0:3:0:0:
398,162,124279,1,0,1:3:0:0:
326,44,124529,1,0,3:3:0:0:
247,186,124779,1,8,0:2:0:0:
231,76,125029,1,0,1:3:0:0:
231,76,125154,1,0,1:3:0:0:
231,76,125279,2,0,P|178:66|119:77,1,97.4999955368044,2|2,0:3|3:0,0:0:0:0:
17,190,125779,5,0,3:3:0:0:
43,96,126029,1,0,1:2:0:0:
72,272,126279,1,2,0:3:0:0:
133,183,126529,1,0,3:3:0:0:
123,353,126779,1,8,0:2:0:0:
194,286,127029,1,2,0:3:0:0:
194,286,127154,1,0,0:0:0:0:
194,286,127279,2,0,P|240:279|296:290,1,97.4999955368044,2|0,0:3|1:3,0:0:0:0:
418,369,127779,1,0,3:0:0:0:
256,192,127904,12,4,129279,0:3:0:0:
190,36,129779,6,0,P|222:114|183:229,1,194.999991073609,4|8,3:2|0:1,0:0:0:0:
109,267,130529,2,0,P|56:256|3:270,2,97.4999955368044,0|0|0,3:0|1:0|3:0,0:0:0:0:
182,330,131279,1,8,0:1:0:0:
263,276,131529,1,0,3:0:0:0:
334,341,131779,6,0,P|418:361|459:264,1,194.999991073609,0|8,3:0|0:1,0:0:0:0:
368,252,132529,2,0,L|245:254,2,97.4999955368044,0|0|0,3:0|1:0|3:0,0:0:0:0:
444,191,133279,1,8,0:1:0:0:
444,93,133529,1,0,3:0:0:0:
357,138,133779,6,0,P|299:142|231:81,1,146.249993305207,2|2,3:2|0:2,0:0:0:0:
103,153,134529,2,0,P|121:207|80:289,1,146.249993305207,2|2,3:2|0:2,0:0:0:0:
209,364,135279,2,0,P|262:352|313:366,1,97.4999955368044,8|0,0:1|3:0,0:0:0:0:
382,221,135779,5,0,3:0:0:0:
457,283,136029,1,0,1:0:0:0:
457,283,136154,1,0,1:0:0:0:
457,283,136279,1,8,0:1:0:0:
509,200,136529,1,0,3:0:0:0:
435,136,136779,2,0,L|332:137,1,97.4999955368044,0|0,1:0|3:0,0:0:0:0:
220,17,137279,1,8,0:1:0:0:
114,143,137529,1,0,3:0:0:0:
114,143,137654,1,4,0:3:0:0:
114,143,137779,6,0,B|80:201|117:289|117:289|138:242,1,194.999991073609,4|8,3:2|0:1,0:0:0:0:
206,183,138529,1,0,3:0:0:0:
275,251,138779,2,0,P|322:265|370:248,1,97.4999955368044,0|0,1:0|3:0,0:0:0:0:
474,310,139279,2,0,P|488:263|471:215,1,97.4999955368044,8|0,0:1|3:0,0:0:0:0:
504,85,139779,6,0,P|433:54|309:104,1,194.999991073609,0|8,3:0|0:1,0:0:0:0:
241,36,140529,1,0,3:0:0:0:
170,103,140779,2,0,L|154:208,1,97.4999955368044,0|0,1:0|3:0,0:0:0:0:
57,192,141279,2,0,L|67:293,1,97.4999955368044,8|0,0:1|3:0,0:0:0:0:
136,358,141779,5,0,3:0:0:0:
212,297,142029,1,0,1:0:0:0:
282,364,142279,1,8,0:1:0:0:
361,307,142529,2,0,L|364:128,1,146.249993305207,0|0,3:0|0:0,0:0:0:0:
400,128,143029,1,0,3:0:0:0:
364,36,143279,1,8,0:1:0:0:
286,94,143529,1,0,3:0:0:0:
212,29,143779,6,0,P|144:24|89:48,1,97.4999955368044,4|0,0:3|3:0,0:0:0:0:
67,35,144154,1,0,3:0:0:0:
67,35,144279,2,0,L|58:136,1,97.4999955368044,4|0,0:3|3:0,0:0:0:0:
35,292,144779,1,8,0:1:0:0:
131,216,145029,2,0,L|187:213,2,48.7499977684022,0|0|4,3:0|3:0|0:3,0:0:0:0:
113,372,145529,5,0,3:0:0:0:
113,372,145654,1,0,3:0:0:0:
113,372,145779,2,0,L|287:355,1,146.249993305207,6|0,3:2|0:0,0:0:0:0:
301,380,146279,1,8,0:1:0:0:
312,247,146529,1,2,3:2:0:0:
393,319,146779,6,0,P|449:320|533:288,2,146.249993305207,2|2|2,1:2|0:2|3:2,0:0:0:0:
294,244,147779,2,0,L|300:120,1,97.4999955368044,2|0,3:2|0:0,0:0:0:0:
268,53,148279,1,8,0:1:0:0:
195,117,148529,2,0,L|186:281,1,146.249993305207,2|0,3:2|0:0,0:0:0:0:
206,307,149029,1,2,3:2:0:0:
60,351,149279,1,8,0:1:0:0:
30,186,149529,5,0,3:0:0:0:
30,186,149654,1,0,3:0:0:0:
30,186,149779,2,0,P|40:119|133:88,1,146.249993305207,6|2,3:2|0:3,0:0:0:0:
146,107,150279,1,8,0:1:0:0:
246,17,150529,1,2,3:2:0:0:
301,136,150779,6,0,L|286:301,2,146.249993305207,2|2|2,1:2|0:2|3:2,0:0:0:0:
390,173,151779,2,0,L|381:271,1,97.4999955368044,2|0,3:2|0:0,0:0:0:0:
431,353,152279,1,8,0:1:0:0:
499,283,152529,2,0,L|512:137,1,146.249993305207,2|0,3:2|0:0,0:0:0:0:
506,88,153029,1,2,3:2:0:0:
375,161,153279,1,8,0:1:0:0:
304,27,153529,5,0,3:0:0:0:
304,27,153654,1,0,3:0:0:0:
304,27,153779,2,0,P|250:12|147:61,1,146.249993305207,6|0,3:2|0:0,0:0:0:0:
140,81,154279,1,8,0:1:0:0:
7,63,154529,1,2,3:2:0:0:
47,188,154779,6,0,L|36:336,2,146.249993305207,2|2|2,1:2|0:2|3:2,0:0:0:0:
167,116,155779,2,0,P|217:110|267:127,1,97.4999955368044,2|0,3:2|0:0,0:0:0:0:
297,215,156279,1,8,0:1:0:0:
389,185,156529,2,0,L|392:33,1,146.249993305207,2|0,3:2|0:0,0:0:0:0:
430,8,157029,1,2,3:2:0:0:
510,121,157279,1,8,0:1:0:0:
462,272,157529,5,0,3:0:0:0:
462,272,157654,1,0,3:0:0:0:
462,272,157779,2,0,P|378:303|313:263,1,146.249993305207,6|0,3:2|0:0,0:0:0:0:
307,238,158279,1,8,0:1:0:0:
214,143,158529,1,2,3:2:0:0:
128,256,158779,6,0,P|122:323|187:384,2,146.249993305207,2|2|2,1:2|0:2|3:2,0:0:0:0:
212,143,159779,2,0,L|316:143,1,97.4999955368044,2|0,3:2|0:0,0:0:0:0:
386,83,160279,1,8,0:1:0:0:
306,26,160529,2,0,L|139:26,1,146.249993305207,2|0,3:2|0:0,0:0:0:0:
114,8,161029,1,2,3:2:0:0:
36,157,161279,1,8,0:1:0:0:
13,46,161529,1,0,3:0:0:0:
13,46,161654,1,0,3:0:0:0:
13,46,161779,1,0,3:0:0:0:
259,201,169779,5,2,0:2:0:0:
108,112,177529,5,0,3:0:0:0:
108,112,177654,1,0,3:0:0:0:
108,112,177779,2,0,P|166:154|139:228,1,146.249993305207,6|0,3:2|0:3,0:0:0:0:
106,239,178279,1,8,0:1:0:0:
62,326,178529,1,2,3:2:0:0:
150,365,178779,2,0,L|283:359,1,97.4999955368044,2|0,1:2|3:0,0:0:0:0:
306,282,179279,1,8,0:1:0:0:
366,358,179529,1,2,3:2:0:0:
366,358,179654,1,0,1:0:0:0:
366,358,179779,6,0,L|491:364,1,97.4999955368044,2|2,3:2|0:2,0:0:0:0:
512,284,180279,1,8,0:1:0:0:
454,205,180529,2,0,L|356:200,1,97.4999955368044,2|0,3:2|1:0,0:0:0:0:
290,272,181029,1,2,3:2:0:0:
282,117,181279,1,8,0:1:0:0:
204,195,181529,5,0,3:0:0:0:
204,195,181654,1,0,3:0:0:0:
204,195,181779,2,0,P|135:223|69:187,1,146.249993305207,4|0,3:2|0:3,0:0:0:0:
47,152,182279,2,0,L|75:38,1,97.4999955368044,8|2,0:1|3:2,0:0:0:0:
153,6,182779,1,2,1:2:0:0:
220,76,183029,1,0,3:0:0:0:
297,17,183279,1,8,0:1:0:0:
372,78,183529,1,2,3:2:0:0:
372,78,183654,1,0,1:0:0:0:
372,78,183779,6,0,L|374:186,1,97.4999955368044,2|2,3:2|0:2,0:0:0:0:
466,144,184279,2,0,L|468:252,1,97.4999955368044,8|2,0:1|3:2,0:0:0:0:
467,371,184779,1,0,1:0:0:0:
395,304,185029,1,2,3:2:0:0:
272,381,185279,1,8,0:1:0:0:
296,282,185529,5,0,3:0:0:0:
296,282,185654,1,0,3:0:0:0:
296,282,185779,2,0,P|276:223|180:214,1,146.249993305207,6|0,3:2|0:3,0:0:0:0:
159,229,186279,1,8,0:1:0:0:
87,162,186529,1,2,3:2:0:0:
141,81,186779,2,0,L|248:79,1,97.4999955368044,2|0,1:2|3:0,0:0:0:0:
306,9,187279,1,8,0:1:0:0:
377,74,187529,1,2,3:2:0:0:
377,74,187654,1,0,1:0:0:0:
377,74,187779,6,0,L|377:189,1,97.4999955368044,2|2,3:2|0:2,0:0:0:0:
434,250,188279,1,8,0:1:0:0:
358,312,188529,2,0,L|250:293,1,97.4999955368044,2|0,3:2|1:0,0:0:0:0:
187,231,189029,1,2,3:2:0:0:
118,383,189279,1,8,0:1:0:0:
62,273,189529,5,0,3:0:0:0:
62,273,189654,1,0,3:0:0:0:
62,273,189779,2,0,L|71:102,1,146.249993305207,6|0,3:2|0:3,0:0:0:0:
42,86,190279,1,8,0:1:0:0:
111,17,190529,1,2,3:2:0:0:
172,92,190779,2,0,L|293:93,1,97.4999955368044,2|0,1:2|3:3,0:0:0:0:
337,22,191279,1,8,0:1:0:0:
407,89,191529,1,2,3:2:0:0:
341,161,191779,1,2,3:2:0:0:
256,192,191904,12,2,193779,3:2:0:0:
