osu file format v14

[General]
AudioFilename: audio.mp3
AudioLeadIn: 0
PreviewTime: 63765
Countdown: 1
SampleSet: Soft
StackLeniency: 0.7
Mode: 0
LetterboxInBreaks: 0
WidescreenStoryboard: 1

[Editor]
Bookmarks: 17765,33765,49765,65765,81765,97765,113765,121765,129765,145765,161765,177765,193765
DistanceSpacing: 0.2
BeatDivisor: 8
GridSize: 4
TimelineZoom: 2

[Metadata]
Title:Senorita
TitleUnicode:Senorita
Artist:(G)I-DLE
ArtistUnicode:(여자)아이들
Creator:Seto Kousuke
Version:Expert
Source:
Tags:K-pop Kpop Mapping Contest V2 Senhorita Korean Pop 큐브엔터테인먼트 Cube Entertainment I Made 미연 Miyeon 민니 Minnie 수진 Soojin 소연 Soyeon 우기 Yuqi 슈화 Shuhua señorita
BeatmapID:2146093
BeatmapSetID:1026178

[Difficulty]
HPDrainRate:6
CircleSize:4.3
OverallDifficulty:8
ApproachRate:9.3
SliderMultiplier:2
SliderTickRate:1

[Events]
//Background and Video events
0,0,"background_2.jpg",0,0
//Break Periods
//Storyboard Layer 0 (Background)
//Storyboard Layer 1 (Fail)
//Storyboard Layer 2 (Pass)
//Storyboard Layer 3 (Foreground)
//Storyboard Layer 4 (Overlay)
//Storyboard Sound Samples

[TimingPoints]
1772,500,4,2,1,40,1,0
1772,-133.333333333333,4,2,1,40,0,0
10834,-133.333333333333,4,2,1,5,0,0
11022,-133.333333333333,4,2,1,40,0,0
14584,-133.333333333333,4,2,1,5,0,0
14647,-133.333333333333,4,2,1,40,0,0
15772,-133.333333333333,4,2,1,50,0,0
16272,-58.8235294117647,4,2,1,50,0,0
17022,-100,4,2,1,50,0,0
17272,-66.6666666666667,4,2,1,50,0,0
17522,-55.5555555555556,4,2,1,50,0,0
17772,-111.111111111111,4,2,1,60,0,0
18084,-111.111111111111,4,2,1,5,0,0
18272,-111.111111111111,4,2,1,60,0,0
18522,-222.222222222221,4,2,1,60,0,0
18834,-222.222222222221,4,2,1,5,0,0
19022,-222.222222222221,4,2,1,60,0,0
22834,-222.222222222221,4,2,1,5,0,0
23022,-222.222222222221,4,2,1,60,0,0
25772,-111.111111111111,4,2,1,60,0,0
26084,-111.111111111111,4,2,1,5,0,0
26272,-111.111111111111,4,2,1,60,0,0
26522,-222.222222222222,4,2,1,60,0,0
26834,-222.222222222222,4,2,1,5,0,0
27022,-222.222222222222,4,2,1,60,0,0
30834,-222.222222222222,4,2,1,5,0,0
31022,-222.222222222222,4,2,1,60,0,0
33779,500,4,2,1,70,1,0
33779,-58.8235294117647,4,2,1,70,0,0
34529,-76.9230769230769,4,2,1,70,0,0
41779,-58.8235294117647,4,2,1,70,0,0
42529,-76.9230769230769,4,2,1,70,0,0
49779,-133.333333333333,4,2,1,50,0,0
57779,-100,4,2,1,50,0,0
58279,-133.333333333333,4,2,1,50,0,0
63779,-100,4,2,1,70,0,0
64779,-71.4285714285714,4,2,1,70,0,0
65279,-100,4,2,1,70,0,0
65779,-71.4285714285714,4,2,1,80,0,1
78529,-181.818181818181,4,2,1,80,0,1
78841,-181.818181818181,4,2,1,5,0,1
79029,-71.4285714285714,4,2,1,80,0,1
81279,-100,4,2,1,80,0,1
81779,-52.6315789473684,4,2,1,85,0,1
82154,-52.6315789473684,4,2,1,5,0,1
82279,-52.6315789473684,4,2,1,85,0,1
82529,-100,4,2,1,85,0,1
84529,-153.846153846153,4,2,1,85,0,1
85779,-52.6315789473684,4,2,1,85,0,1
86529,-100,4,2,1,85,0,1
88529,-153.846153846153,4,2,1,85,0,1
89779,-52.6315789473684,4,2,1,85,0,1
90091,-52.6315789473684,4,2,1,5,0,1
90279,-52.6315789473684,4,2,1,85,0,1
90529,-100,4,2,1,85,0,1
92529,-153.846153846153,4,2,1,85,0,1
93779,-52.6315789473684,4,2,1,85,0,1
94091,-52.6315789473684,4,2,1,5,0,1
94279,-52.6315789473684,4,2,1,85,0,1
94529,-100,4,2,1,85,0,1
96529,-153.846153846153,4,2,1,85,0,1
97779,-133.333333333333,4,2,1,60,0,0
98841,-133.333333333333,4,2,1,5,0,0
99029,-133.333333333333,4,2,1,60,0,0
102841,-133.333333333333,4,2,1,5,0,0
103029,-133.333333333333,4,2,1,60,0,0
112279,-58.8235294117647,4,2,1,60,0,0
113029,-133.333333333333,4,2,1,60,0,0
113779,-66.6666666666667,4,2,1,70,0,0
117279,-100,4,2,1,70,0,0
121779,-66.6666666666667,4,2,1,75,0,0
122154,-100,4,2,1,75,0,0
129779,-66.6666666666667,4,2,1,80,0,1
140091,-66.6666666666667,4,2,1,5,0,1
140279,-66.6666666666667,4,2,1,80,0,1
142529,-181.818181818181,4,2,1,80,0,1
142841,-181.818181818181,4,2,1,5,0,1
143029,-66.6666666666667,4,2,1,80,0,1
145279,-100,4,2,1,80,0,1
145779,-52.6315789473684,4,2,1,85,0,1
146154,-52.6315789473684,4,2,1,5,0,1
146279,-52.6315789473684,4,2,1,85,0,1
146529,-100,4,2,1,85,0,1
148529,-153.846153846153,4,2,1,85,0,1
149779,-52.6315789473684,4,2,1,85,0,1
150529,-100,4,2,1,85,0,1
152529,-153.846153846153,4,2,1,85,0,1
153779,-52.6315789473684,4,2,1,85,0,1
154091,-52.6315789473684,4,2,1,5,0,1
154279,-52.6315789473684,4,2,1,85,0,1
154529,-100,4,2,1,85,0,1
156529,-153.846153846153,4,2,1,85,0,1
157779,-52.6315789473684,4,2,1,85,0,1
158091,-52.6315789473684,4,2,1,5,0,1
158279,-52.6315789473684,4,2,1,85,0,1
158529,-100,4,2,1,85,0,1
160529,-153.846153846153,4,2,1,85,0,1
161779,-133.333333333333,4,2,1,60,0,0
177779,-66.6666666666667,4,2,1,75,0,0

[Colours]
Combo1 : 219,148,142
Combo2 : 198,176,197
Combo3 : 170,109,81
Combo4 : 210,60,61

[HitObjects]
442,192,1272,5,0,0:0:0:0:
77,256,1772,5,0,3:0:0:0:
60,280,2522,1,0,3:0:0:0:
46,306,3022,2,0,L|46:324,4,18.7500007152558,2|2|2|2|8,0:3|0:3|0:3|0:3|0:3,0:0:0:0:
178,253,3522,1,0,0:0:0:0:
257,355,3772,1,0,3:0:0:0:
278,339,4522,1,0,3:0:0:0:
299,323,5022,5,0,0:0:0:0:
439,279,5272,1,8,0:3:0:0:
398,133,5522,1,0,3:0:0:0:
251,193,5772,5,0,3:0:0:0:
275,185,6522,1,0,3:0:0:0:
307,178,7022,2,0,L|341:179,4,18.7500007152558,2|2|2|2|8,0:3|0:3|0:3|0:3|0:3,0:0:0:0:
151,168,7522,1,0,0:0:0:0:
67,304,7772,1,0,3:0:0:0:
82,325,8522,1,0,3:0:0:0:
99,349,9022,5,0,0:0:0:0:
250,305,9272,1,8,0:3:0:0:
300,152,9522,1,0,3:0:0:0:
206,8,9772,5,0,3:0:0:0:
193,30,10522,2,0,B|187:48|187:48|191:57|191:57|182:63|182:63|188:73|188:73|180:85|180:85|173:108|190:139,1,112.500004291535,0|0,3:0|0:0,0:0:0:0:
220,156,11022,2,0,L|254:157,4,18.7500007152558,2|2|2|2|8,0:3|0:3|0:3|0:3|0:3,0:0:0:0:
145,309,11522,1,0,0:0:0:0:
292,365,11772,1,0,3:0:0:0:
270,350,12522,1,0,3:0:0:0:
241,328,13022,5,0,0:0:0:0:
325,196,13272,1,8,0:3:0:0:
209,94,13522,1,0,3:0:0:0:
76,194,13772,5,0,3:0:0:0:
100,198,14522,2,0,L|135:196,1,18.7500007152558,0|0,3:0|0:0,0:0:0:0:
104,202,15022,2,0,L|139:200,4,18.7500007152558,2|2|2|2|8,0:3|0:3|0:3|0:3|0:3,0:0:0:0:
178,60,15522,1,0,0:0:0:0:
312,244,15772,5,2,3:2:0:0:
193,79,16022,1,2,0:2:0:0:
477,133,16272,2,0,B|356:132|356:132|313:170,2,170.000003242493,2|0|2,0:0|3:0|0:0,0:0:0:0:
20,125,17022,6,0,P|35:145|41:184,1,50,2|0,0:0|0:0,0:0:0:0:
210,123,17272,2,0,P|192:140|173:199,1,75.0000028610231,8|0,0:3|0:0,0:0:0:0:
61,16,17522,2,0,P|82:28|110:93,1,89.9999972534181,0|0,3:0|0:0,0:0:0:0:
100,344,17772,6,0,P|75:297|125:214,1,134.999995880127,0|0,3:0|0:0,0:0:0:0:
173,186,18272,1,8,0:2:0:0:
444,293,18522,6,0,L|365:289,1,67.4999979400635,8|0,3:2|0:0,0:0:0:0:
296,284,19022,6,0,L|284:284,3,11.2499996566773,2|2|2|2,0:3|0:3|0:3|0:3,0:0:0:0:
332,358,19272,1,8,0:2:0:0:
337,123,19522,1,0,0:0:0:0:
141,240,19772,5,0,3:0:0:0:
161,252,20272,1,8,0:2:0:0:
246,24,20522,6,0,L|245:119,1,89.9999972534181,8|0,3:2|0:0,0:0:0:0:
497,19,21272,5,8,0:2:0:0:
327,183,21522,1,0,3:0:0:0:
475,312,21772,5,0,3:0:0:0:
472,341,22272,1,8,0:2:0:0:
184,259,22522,6,0,L|255:259,1,67.4999979400635,8|0,3:2|0:0,0:0:0:0:
337,258,23022,6,0,L|350:257,3,11.2499996566773,2|2|2|2,0:3|0:3|0:3|0:3,0:0:0:0:
295,322,23272,1,8,0:2:0:0:
270,87,23522,1,0,0:0:0:0:
102,263,23772,5,0,3:0:0:0:
106,296,24272,1,8,0:2:0:0:
14,65,24522,6,0,L|103:60,1,89.9999972534181,8|0,3:2|0:0,0:0:0:0:
22,232,25272,5,8,0:2:0:0:
215,57,25522,1,0,3:0:0:0:
381,224,25772,6,0,P|394:279|345:339,1,134.999995880127,0|0,3:0|0:0,0:0:0:0:
272,345,26272,1,8,0:2:0:0:
72,126,26522,6,0,L|143:130,1,67.4999979400635,8|0,3:2|0:0,0:0:0:0:
228,135,27022,6,0,L|244:135,3,11.2499996566773,2|2|2|2,0:3|0:3|0:3|0:3,0:0:0:0:
187,64,27272,1,8,0:2:0:0:
142,262,27522,1,0,0:0:0:0:
384,163,27772,5,0,3:0:0:0:
402,143,28272,1,8,0:2:0:0:
242,372,28522,6,0,L|246:282,1,89.9999972534181,8|0,3:2|0:0,0:0:0:0:
24,368,29272,5,8,0:2:0:0:
190,207,29522,1,0,3:0:0:0:
43,50,29772,5,0,3:0:0:0:
18,54,30272,1,8,0:2:0:0:
333,27,30522,6,0,L|330:103,1,67.4999979400635,8|0,3:2|0:0,0:0:0:0:
327,174,31022,2,0,L|327:192,3,11.2499996566773,2|2|2|2,0:3|0:3|0:3|0:3,0:0:0:0:
260,137,31272,1,8,0:2:0:0:
464,256,31522,1,0,0:0:0:0:
169,363,31772,1,0,3:0:0:0:
256,192,31897,12,0,33272,3:0:0:0:
80,77,33779,6,0,B|50:88|50:88|124:131|126:79|193:97,1,170.000003242493,4|2,3:2|0:3,0:0:0:0:
189,100,34091,1,2,0:3:0:0:
195,105,34154,1,2,0:3:0:0:
201,110,34216,1,2,0:3:0:0:
207,115,34279,2,0,P|216:164|187:226,1,85.0000016212464,8|0,0:1|0:0,0:0:0:0:
25,368,34529,6,0,P|18:316|48:223,2,129.999994049073,0|0|0,3:0|1:0|1:0,0:0:0:0:
139,156,35279,1,8,0:1:0:0:
264,337,35529,1,0,3:0:0:0:
392,92,35779,6,0,P|410:156|379:215,1,129.999994049073,0|0,3:0|1:0,0:0:0:0:
303,255,36154,1,0,1:0:0:0:
303,255,36279,2,0,P|289:217|308:173,1,64.9999970245363,8|0,0:1|0:0,0:0:0:0:
512,296,36529,6,0,L|371:300,2,129.999994049073,0|0|0,3:0|1:0|1:0,0:0:0:0:
368,47,37279,1,8,0:1:0:0:
192,196,37529,1,0,3:0:0:0:
47,46,37779,6,0,P|20:114|49:191,1,129.999994049073,0|2,3:0|0:3,0:0:0:0:
36,172,38091,1,2,0:3:0:0:
40,176,38154,1,2,0:3:0:0:
44,180,38216,1,2,0:3:0:0:
48,184,38279,2,0,P|84:186|136:175,1,64.9999970245363,8|0,0:1|0:0,0:0:0:0:
307,283,38529,6,0,P|225:260|103:294,1,194.999991073609,0|0,3:0|0:0,0:0:0:0:
212,384,39029,1,0,1:0:0:0:
416,307,39279,1,8,0:1:0:0:
314,118,39529,1,0,3:0:0:0:
119,283,39779,6,0,P|201:306|323:272,1,194.999991073609,0|0,3:0|0:0,0:0:0:0:
207,177,40279,1,8,0:1:0:0:
492,103,40529,6,0,P|512:165|443:96,1,259.999988098145,0|0,3:0|3:0,0:0:0:0:
457,340,41279,1,8,0:1:0:0:
320,106,41529,1,0,3:0:0:0:
167,324,41779,6,0,B|149:340|150:362|150:362|110:299|142:240,1,170.000003242493,4|2,3:2|0:3,0:0:0:0:
147,236,42091,1,2,0:3:0:0:
153,230,42154,1,2,0:3:0:0:
159,224,42216,1,2,0:3:0:0:
165,218,42279,2,0,P|209:210|260:221,1,85.0000016212464,8|0,0:1|0:0,0:0:0:0:
476,65,42529,6,0,P|491:120|467:205,2,129.999994049073,0|0|0,3:0|1:0|1:0,0:0:0:0:
219,105,43279,1,8,0:1:0:0:
365,259,43529,1,0,3:0:0:0:
75,308,43779,6,0,P|51:256|86:195,1,129.999994049073,0|0,3:0|1:0,0:0:0:0:
215,258,44154,1,0,1:0:0:0:
215,258,44279,2,0,L|121:261,1,64.9999970245363,8|0,0:1|0:0,0:0:0:0:
40,118,44529,2,0,L|192:115,2,129.999994049073,0|0|0,3:0|1:0|1:0,0:0:0:0:
253,26,45279,1,8,0:1:0:0:
328,219,45529,1,0,3:0:0:0:
466,31,45779,6,0,L|471:189,1,129.999994049073,0|0,3:0|1:3,0:0:0:0:
413,286,46154,1,0,1:3:0:0:
413,286,46279,2,0,L|410:196,1,64.9999970245363,8|0,0:1|0:0,0:0:0:0:
497,360,46529,2,0,L|342:361,1,129.999994049073,0|0,3:0|1:0,0:0:0:0:
226,221,47029,2,0,L|226:274,3,32.4999985122681,2|2|2|2,0:3|0:3|0:3|0:3,0:0:0:0:
290,179,47279,1,8,0:1:0:0:
99,101,47529,1,0,3:0:0:0:
111,312,47779,5,0,3:0:0:0:
209,87,48029,2,0,L|284:87,1,64.9999970245363,0|0,1:0|0:0,0:0:0:0:
482,92,48279,1,8,0:1:0:0:
374,297,48529,2,0,P|335:245|398:121,1,194.999991073609,0|0,3:0|0:0,0:0:0:0:
182,43,49029,1,0,3:0:0:0:
182,43,49279,2,0,P|189:74|172:119,1,64.9999970245363,8|0,0:1|0:0,0:0:0:0:
22,178,49529,2,0,P|45:156|92:148,1,64.9999970245363,0|0,3:0|0:0,0:0:0:0:
268,325,49779,5,4,3:2:0:0:
268,325,50029,2,0,L|193:325,1,75.0000028610231,0|8,0:0|0:2,0:0:0:0:
95,380,50529,2,0,L|112:218,1,150.000005722046,8|0,0:2|0:0,0:0:0:0:
122,35,51279,1,8,0:2:0:0:
122,35,51779,6,0,L|117:121,1,75.0000028610231,0|0,3:0|0:0,0:0:0:0:
32,189,52279,1,8,0:2:0:0:
32,189,52529,2,0,L|186:189,1,150.000005722046,8|0,0:2|0:0,0:0:0:0:
281,340,53279,1,8,0:2:0:0:
375,173,53529,1,0,0:0:0:0:
448,347,53779,5,0,3:0:0:0:
480,248,54029,2,0,L|479:221,4,18.7500007152558,2|2|2|2|8,0:3|0:3|0:3|0:3|0:2,0:0:0:0:
424,360,54529,2,0,L|258:358,1,150.000005722046,8|0,0:2|0:0,0:0:0:0:
81,328,55279,1,8,0:2:0:0:
108,321,55779,5,4,0:3:0:0:
98,196,56029,5,0,3:0:0:0:
156,252,56154,1,0,3:0:0:0:
108,321,56279,1,4,0:3:0:0:
104,178,56529,5,0,3:0:0:0:
179,251,56654,1,0,3:0:0:0:
117,341,56779,1,8,0:1:0:0:
119,150,57029,5,0,3:0:0:0:
216,244,57154,1,0,3:0:0:0:
135,361,57279,1,4,0:3:0:0:
148,378,57529,5,0,3:0:0:0:
243,241,57654,1,0,3:0:0:0:
130,132,57779,6,0,L|58:134,1,50,4|0,3:2|0:0,0:0:0:0:
289,29,58029,2,0,L|290:96,1,50,0|0,0:0|0:0,0:0:0:0:
243,241,58279,1,8,0:2:0:0:
247,245,58529,6,0,B|326:225|315:268|402:243,1,150.000005722046,8|2,0:2|0:3,0:0:0:0:
510,150,59279,2,0,P|489:108|446:172,1,150.000005722046,8|0,0:2|3:0,0:0:0:0:
481,315,60029,5,0,0:0:0:0:
358,359,60279,1,8,0:2:0:0:
358,359,60529,2,0,L|204:356,1,150.000005722046,8|0,0:2|0:0,0:0:0:0:
60,252,61279,2,0,L|136:256,1,75.0000028610231,8|0,0:2|0:0,0:0:0:0:
285,125,61779,6,0,L|199:135,1,75.0000028610231,0|0,3:0|0:0,0:0:0:0:
131,47,62279,1,8,0:2:0:0:
131,47,62529,2,0,L|221:36,1,75.0000028610231,8|0,0:2|0:0,0:0:0:0:
380,67,63029,2,0,L|412:70,4,18.7500007152558,2|2|2|2|8,0:3|0:3|0:3|0:3|0:2,0:0:0:0:
484,15,63529,5,0,0:0:0:0:
401,234,63779,2,0,P|349:245|300:221,1,100,4|0,0:3|3:0,0:0:0:0:
184,366,64154,1,0,3:0:0:0:
184,366,64279,2,0,P|173:314|196:265,1,100,4|0,0:3|3:0,0:0:0:0:
8,143,64654,1,0,3:0:0:0:
8,143,64779,6,0,P|60:132|153:175,1,139.999995727539,8|0,0:1|3:0,0:0:0:0:
272,58,65154,1,0,3:0:0:0:
272,67,65216,1,0,0:0:0:0:
272,77,65279,2,0,P|242:79|214:67,1,50,4|0,0:3|0:0,0:0:0:0:
381,47,65529,2,0,P|383:76|371:105,1,50,0|0,3:0|0:0,0:0:0:0:
455,279,65779,6,0,P|436:233|470:128,1,139.999995727539,4|0,3:2|1:0,0:0:0:0:
320,153,66154,1,0,1:0:0:0:
320,153,66279,2,0,P|322:184|315:223,1,69.9999978637696,8|0,0:1|0:0,0:0:0:0:
146,339,66529,2,0,P|196:307|279:343,2,139.999995727539,0|0|0,3:0|1:0|3:0,0:0:0:0:
9,263,67154,1,0,1:0:0:0:
9,263,67279,2,0,P|45:275|87:262,1,69.9999978637696,8|0,0:1|0:0,0:0:0:0:
79,107,67529,2,0,P|42:94|0:107,1,69.9999978637696,0|0,3:0|0:0,0:0:0:0:
156,187,67779,6,0,B|220:205|224:156|311:196,1,139.999995727539,0|0,3:0|1:0,0:0:0:0:
409,275,68154,1,0,1:0:0:0:
409,275,68279,2,0,P|395:242|405:205,1,69.9999978637696,8|0,0:1|0:0,0:0:0:0:
481,25,68529,2,0,P|501:73|470:166,2,139.999995727539,0|0|0,3:0|1:0|3:0,0:0:0:0:
323,84,69154,1,0,1:0:0:0:
323,84,69279,2,0,L|402:86,1,69.9999978637696,8|0,0:1|0:0,0:0:0:0:
211,28,69529,2,0,L|132:30,1,69.9999978637696,0|0,3:0|0:0,0:0:0:0:
1,203,69779,6,0,L|42:57,1,139.999995727539,2|0,3:2|1:0,0:0:0:0:
90,265,70154,2,0,L|131:119,1,139.999995727539,2|0,0:2|0:0,0:0:0:0:
176,328,70529,2,0,L|217:182,1,139.999995727539,2|0,3:2|1:0,0:0:0:0:
266,384,70904,2,0,L|307:238,1,139.999995727539,2|0,0:2|0:0,0:0:0:0:
419,133,71279,6,0,L|400:200,1,69.9999978637696,8|0,0:1|0:0,0:0:0:0:
381,369,71529,2,0,L|399:301,1,69.9999978637696,0|0,3:0|0:0,0:0:0:0:
307,130,71779,2,0,P|230:105|101:143,1,209.999993591309,0|0,3:0|0:0,0:0:0:0:
17,291,72279,2,0,P|26:241|10:207,1,69.9999978637696,8|0,0:1|0:0,0:0:0:0:
13,31,72529,2,0,P|3:80|19:114,1,69.9999978637696,0|0,3:0|0:0,0:0:0:0:
212,213,72779,5,0,1:0:0:0:
350,41,73029,1,0,3:0:0:0:
474,334,73279,2,0,L|481:193,1,139.999995727539,8|0,0:1|3:0,0:0:0:0:
438,93,73654,1,4,0:3:0:0:
348,202,73779,6,0,P|269:214|207:169,1,139.999995727539,4|0,3:2|1:0,0:0:0:0:
142,49,74154,1,0,1:0:0:0:
142,49,74279,2,0,P|150:84|133:134,1,69.9999978637696,8|0,0:1|0:0,0:0:0:0:
26,268,74529,2,0,P|12:200|59:136,2,139.999995727539,0|0|0,3:0|1:0|3:0,0:0:0:0:
98,377,75154,1,0,1:0:0:0:
98,377,75279,2,0,L|178:374,1,69.9999978637696,8|0,0:1|0:0,0:0:0:0:
182,218,75529,2,0,L|112:220,1,69.9999978637696,0|0,3:0|0:0,0:0:0:0:
256,317,75779,6,0,B|283:327|311:318|311:318|330:326|330:326|361:315|410:326,1,139.999995727539,0|0,3:0|1:0,0:0:0:0:
452,173,76154,1,0,1:0:0:0:
452,173,76279,2,0,P|460:207|438:256,1,69.9999978637696,8|0,0:1|0:0,0:0:0:0:
387,96,76529,2,0,P|440:70|521:105,2,139.999995727539,0|0|0,3:0|1:0|3:0,0:0:0:0:
288,220,77154,1,0,1:0:0:0:
288,220,77279,2,0,P|299:184|286:140,1,69.9999978637696,8|0,0:1|0:0,0:0:0:0:
105,150,77529,2,0,P|99:184|110:217,1,69.9999978637696,0|0,3:0|0:0,0:0:0:0:
199,179,77779,5,0,3:0:0:0:
199,179,78029,2,0,L|199:109,1,69.9999978637696,0|0,1:0|0:0,0:0:0:0:
199,280,78279,2,0,L|199:350,1,69.9999978637696,8|0,0:1|0:0,0:0:0:0:
401,226,78529,6,0,L|312:228,1,82.5000025177003,0|0,3:0|0:0,0:0:0:0:
317,253,79029,6,0,L|407:252,1,69.9999978637696,0|0,3:0|0:0,0:0:0:0:
385,86,79279,2,0,L|315:86,1,69.9999978637696,8|0,0:1|0:0,0:0:0:0:
132,176,79529,2,0,L|201:176,1,69.9999978637696,0|0,3:0|0:0,0:0:0:0:
36,37,79779,5,4,0:3:0:0:
10,21,80029,5,0,3:0:0:0:
14,117,80154,1,0,3:0:0:0:
18,213,80279,1,4,0:3:0:0:
42,247,80529,5,0,3:0:0:0:
37,132,80654,1,0,3:0:0:0:
33,18,80779,1,8,0:1:0:0:
63,13,81029,5,0,3:0:0:0:
67,151,81154,1,0,3:0:0:0:
73,291,81279,2,0,L|76:345,1,50,4|0,0:3|3:0,0:0:0:0:
99,141,81529,5,0,3:0:0:0:
252,250,81654,1,0,3:0:0:0:
364,110,81779,2,0,B|363:21|513:98|440:204|307:187|352:100|286:83|216:104,1,332.499991121292,6|0,3:2|0:0,0:0:0:0:
202,108,82279,2,0,P|175:146|199:212,1,94.9999974632264,8|0,0:1|0:0,0:0:0:0:
338,282,82529,6,0,P|343:249|324:220,1,50,2|0,3:2|0:0,0:0:0:0:
160,320,82779,2,0,P|197:315|252:357,1,100,2|0,1:2|3:0,0:0:0:0:
485,237,83154,2,0,P|460:280|472:346,1,100,2|0,0:2|0:0,0:0:0:0:
330,154,83529,2,0,P|306:159|285:172,1,50,2|0,3:2|0:0,0:0:0:0:
28,263,83779,2,0,P|61:246|83:180,1,100,2|0,3:2|0:0,0:0:0:0:
242,68,84154,1,2,0:2:0:0:
152,100,84279,2,0,P|165:133|193:155,1,50,8|0,0:1|0:0,0:0:0:0:
291,285,84529,6,0,L|435:277,1,129.999994049073,2|2,3:2|3:2,0:0:0:0:
490,27,85279,1,8,0:1:0:0:
147,94,85529,5,0,3:0:0:0:
347,181,85654,1,0,3:0:0:0:
241,343,85779,2,0,B|167:348|131:276|131:276|114:314|100:316,1,189.999994926453,6|2,3:2|0:3,0:0:0:0:
91,321,86091,1,2,0:3:0:0:
82,324,86154,1,2,0:3:0:0:
73,328,86216,1,2,0:3:0:0:
64,331,86279,2,0,P|33:296|67:241,1,94.9999974632264,8|0,0:1|0:0,0:0:0:0:
150,41,86529,6,0,P|168:62|179:101,1,50,2|0,3:2|0:0,0:0:0:0:
421,25,86779,2,0,P|397:40|382:124,1,100,2|0,1:2|3:0,0:0:0:0:
143,189,87154,2,0,P|191:186|231:215,1,100,2|0,0:2|0:0,0:0:0:0:
449,213,87529,2,0,P|420:214|385:234,1,50,2|0,3:2|0:0,0:0:0:0:
151,361,87779,2,0,P|195:339|252:352,1,100,2|0,3:2|0:0,0:0:0:0:
383,381,88154,1,2,0:2:0:0:
460,332,88279,2,0,P|446:313|410:303,1,50,8|0,0:1|0:0,0:0:0:0:
310,92,88529,6,0,L|314:236,1,129.999994049073,2|2,3:2|3:2,0:0:0:0:
97,25,89279,1,8,0:1:0:0:
25,260,89529,5,0,3:0:0:0:
228,135,89654,1,0,3:0:0:0:
374,319,89779,6,0,B|321:323|293:344|293:344|248:313|193:310|193:310|214:257|214:257|221:279|244:287,1,284.999992389679,6|0,3:2|0:0,0:0:0:0:
248,291,90279,2,0,P|197:299|151:279,1,94.9999974632264,8|0,0:1|0:0,0:0:0:0:
33,81,90529,6,0,L|58:146,1,50,2|0,3:2|0:0,0:0:0:0:
286,166,90779,2,0,L|348:87,1,100,2|0,0:2|0:0,0:0:0:0:
182,17,91154,2,0,L|174:116,1,100,2|0,1:2|0:0,0:0:0:0:
366,252,91529,2,0,L|416:243,1,50,2|0,3:2|0:0,0:0:0:0:
438,379,91779,2,0,L|329:358,1,100,2|0,3:2|0:0,0:0:0:0:
227,220,92154,1,2,0:2:0:0:
308,173,92279,2,0,L|336:131,1,50,8|0,0:1|0:0,0:0:0:0:
129,8,92529,6,0,L|124:153,1,129.999994049073,2|2,3:2|3:2,0:0:0:0:
16,376,93279,1,8,0:1:0:0:
267,192,93529,5,0,3:0:0:0:
218,379,93654,1,0,3:0:0:0:
462,345,93779,2,0,B|502:325|500:295|500:295|405:250|380:325|278:285,1,284.999992389679,6|0,3:2|0:0,0:0:0:0:
261,281,94279,2,0,P|249:241|298:172,1,94.9999974632264,8|0,0:1|0:0,0:0:0:0:
38,198,94529,6,0,P|47:231|41:264,1,50,2|0,3:2|0:0,0:0:0:0:
175,65,94779,2,0,P|173:111|139:153,1,100,2|0,1:2|3:0,0:0:0:0:
373,87,95154,2,0,P|331:108|278:100,1,100,2|0,0:2|0:0,0:0:0:0:
436,219,95529,2,0,P|409:201|396:167,1,50,2|0,3:2|0:0,0:0:0:0:
344,372,95779,2,0,P|345:325|379:283,1,100,2|0,3:2|0:0,0:0:0:0:
170,354,96154,1,2,0:2:0:0:
243,311,96279,2,0,P|233:288|211:276,1,50,8|0,0:1|0:0,0:0:0:0:
18,185,96529,6,0,L|160:185,1,129.999994049073,2|2,3:2|3:2,0:0:0:0:
348,21,97279,1,8,0:1:0:0:
314,317,97529,1,0,3:0:0:0:
384,223,97654,1,0,3:0:0:0:
454,129,97779,5,0,3:0:0:0:
473,116,98279,1,0,0:0:0:0:
473,116,98529,2,0,P|438:124|353:114,1,112.500004291535,0|0,3:0|0:0,0:0:0:0:
337,105,99029,2,0,L|338:79,4,18.7500007152558,2|2|2|2|8,0:3|0:3|0:3|0:3|0:3,0:0:0:0:
261,176,99529,1,0,0:0:0:0:
136,80,99779,5,0,3:0:0:0:
114,70,100279,1,0,0:0:0:0:
114,70,100529,2,0,L|104:222,1,150.000005722046,0|0,3:0|0:0,0:0:0:0:
71,308,101279,1,8,0:3:0:0:
131,382,101529,1,0,3:0:0:0:
329,293,101779,5,0,3:0:0:0:
349,317,102279,1,0,0:0:0:0:
349,317,102529,2,0,L|349:194,1,112.500004291535,0|0,3:0|0:0,0:0:0:0:
364,179,103029,2,0,L|400:178,4,18.7500007152558,2|2|2|2|8,0:3|0:3|0:3|0:3|0:3,0:0:0:0:
307,101,103529,1,0,0:0:0:0:
451,24,103779,5,0,3:0:0:0:
475,35,104279,1,0,0:0:0:0:
475,35,104529,2,0,L|479:191,1,150.000005722046,0|0,3:0|0:0,0:0:0:0:
482,280,105279,1,8,0:3:0:0:
400,325,105529,1,0,3:0:0:0:
231,173,105779,5,0,3:0:0:0:
201,168,106529,1,0,3:0:0:0:
165,152,107029,2,0,L|168:130,4,18.7500007152558,2|2|2|2|8,0:3|0:3|0:3|0:3|0:3,0:0:0:0:
69,260,107529,1,0,0:0:0:0:
43,52,107779,5,0,3:0:0:0:
66,32,108279,1,0,0:0:0:0:
66,32,108529,2,0,P|141:19|220:36,1,150.000005722046,0|0,3:0|0:0,0:0:0:0:
273,104,109279,1,8,0:3:0:0:
353,45,109529,1,0,3:0:0:0:
438,243,109779,5,0,3:0:0:0:
453,276,110529,1,0,3:0:0:0:
473,307,111029,2,0,L|494:309,4,18.7500007152558,2|2|2|2|8,0:3|0:3|0:3|0:3|0:3,0:0:0:0:
349,361,111529,1,0,0:0:0:0:
219,211,111779,5,2,3:2:0:0:
401,176,112029,1,0,0:2:0:0:
136,148,112279,2,0,P|164:122|291:129,2,170.000003242493,2|0|2,0:2|3:0|0:2,0:0:0:0:
132,352,113029,6,0,L|129:386,4,18.7500007152558,2|2|2|2|8,0:3|0:3|0:3|0:3|0:3,0:0:0:0:
24,209,113529,1,0,3:0:0:0:
253,321,113779,6,0,B|278:320|311:324|311:324|329:316|329:316|364:323|364:323|405:321,1,150.000005722046,4|2,3:2|0:3,0:0:0:0:
485,236,114154,1,0,0:0:0:0:
478,323,114279,2,0,L|479:365,2,37.5000014305115,2|0|0,0:3|0:0|0:0,0:0:0:0:
278,237,114529,2,0,L|240:236,2,37.5000014305115,2|2|2,3:0|0:3|0:3,0:0:0:0:
406,159,114779,5,8,0:2:0:0:
359,236,114904,1,0,1:0:0:0:
310,154,115029,2,0,L|313:70,1,75.0000028610231,2|0,0:3|0:0,0:0:0:0:
171,18,115279,5,0,1:3:0:0:
168,46,115404,1,0,1:3:0:0:
165,74,115529,1,0,1:3:0:0:
162,102,115654,2,0,B|164:221|164:221|185:185,1,150.000005722046,0|0,1:3|0:0,0:0:0:0:
82,123,116029,2,0,L|82:211,1,75.0000028610231,8|0,0:2|0:0,0:0:0:0:
80,33,116279,5,2,0:3:0:0:
83,349,116529,1,0,3:3:0:0:
438,191,116779,5,8,0:2:0:0:
410,188,116904,1,0,1:3:0:0:
382,185,117029,1,0,1:3:0:0:
354,182,117154,1,0,1:3:0:0:
326,179,117279,2,0,B|266:194,1,50,2|0,0:3|1:3,0:0:0:0:
389,49,117529,2,0,L|418:44,3,25,2|2|2|2,3:0|0:3|0:3|0:3,0:0:0:0:
225,47,117779,5,0,3:3:0:0:
200,63,118029,1,0,1:2:0:0:
169,339,118279,1,2,0:3:0:0:
181,80,118529,1,0,3:3:0:0:
397,282,118779,1,8,0:2:0:0:
54,221,119029,1,2,0:3:0:0:
322,29,119279,5,2,0:3:0:0:
325,57,119404,1,0,1:3:0:0:
328,85,119529,1,0,1:3:0:0:
331,113,119654,1,0,1:3:0:0:
347,128,120029,5,2,3:0:0:0:
347,128,120091,1,2,0:3:0:0:
347,128,120154,1,2,0:3:0:0:
347,128,120216,1,2,0:3:0:0:
347,128,120279,2,0,L|357:196,1,50,8|0,0:2|0:0,0:0:0:0:
382,317,120529,5,2,0:3:0:0:
402,243,120654,1,2,0:3:0:0:
329,261,120779,2,0,L|291:261,2,25,8|0|2,0:2|0:0|0:3,0:0:0:0:
245,201,121029,5,6,0:3:0:0:
223,273,121154,1,6,0:3:0:0:
199,347,121279,5,6,0:3:0:0:
176,366,121404,1,2,0:3:0:0:
113,310,121529,1,2,0:3:0:0:
90,329,121654,1,2,0:3:0:0:
38,244,121779,6,0,B|40:224|31:198|31:198|43:184|43:184|26:139|40:100,1,150.000005722046,4|2,3:2|0:3,0:0:0:0:
92,24,122154,1,0,0:0:0:0:
150,100,122279,2,0,P|179:106|212:98,1,50,2|0,0:3|0:0,0:0:0:0:
326,32,122529,1,2,3:0:0:0:
326,32,122591,1,2,0:3:0:0:
326,32,122654,1,2,0:3:0:0:
326,32,122716,1,2,0:3:0:0:
326,32,122779,5,8,0:2:0:0:
439,21,123029,1,2,0:3:0:0:
380,94,123279,5,0,1:3:0:0:
379,112,123404,1,0,1:3:0:0:
378,131,123529,1,0,1:3:0:0:
377,150,123654,1,0,1:3:0:0:
376,168,123779,5,0,0:0:0:0:
264,245,124029,1,2,0:3:0:0:
496,252,124279,1,0,1:3:0:0:
380,26,124529,1,0,3:3:0:0:
378,302,124779,6,0,L|378:334,2,25,8|0|0,0:2|0:0|1:3,0:0:0:0:
325,253,125029,1,0,1:3:0:0:
294,250,125154,1,0,1:3:0:0:
264,245,125279,2,0,L|211:239,1,50,2|0,0:3|1:3,0:0:0:0:
75,129,125529,5,2,3:0:0:0:
75,129,125591,1,2,0:3:0:0:
75,129,125654,1,2,0:3:0:0:
75,129,125716,1,2,0:3:0:0:
75,129,125779,5,0,3:3:0:0:
271,22,126029,1,0,1:2:0:0:
164,236,126279,1,2,0:3:0:0:
300,37,126529,1,0,3:3:0:0:
265,344,126779,5,8,0:2:0:0:
167,64,127029,1,2,0:3:0:0:
456,155,127279,1,2,0:3:0:0:
457,173,127404,1,0,1:3:0:0:
459,192,127529,1,0,1:3:0:0:
461,210,127654,1,0,1:3:0:0:
463,229,127779,1,0,3:0:0:0:
256,192,127904,12,4,129154,0:3:0:0:
81,182,129279,5,4,0:3:0:0:
249,34,129529,1,4,0:3:0:0:
468,208,129779,6,0,B|428:224|428:224|306:199,1,150.000005722046,4|0,3:2|1:0,0:0:0:0:
345,75,130154,1,0,1:0:0:0:
345,75,130279,2,0,L|438:96,1,75.0000028610231,8|0,0:1|0:0,0:0:0:0:
259,283,130529,2,0,P|220:217|249:136,2,150.000005722046,0|0|0,3:0|1:0|3:0,0:0:0:0:
75,259,131154,1,0,1:0:0:0:
75,259,131279,2,0,P|89:216|80:169,1,75.0000028610231,8|0,0:1|0:0,0:0:0:0:
52,19,131529,2,0,P|38:62|53:108,1,75.0000028610231,0|0,3:0|0:0,0:0:0:0:
278,67,131779,6,0,L|101:63,1,150.000005722046,0|0,3:0|1:0,0:0:0:0:
87,191,132154,1,0,1:0:0:0:
87,191,132279,2,0,L|163:193,1,75.0000028610231,8|0,0:1|0:0,0:0:0:0:
279,316,132529,2,0,L|102:312,2,150.000005722046,0|0|0,3:0|1:0|3:0,0:0:0:0:
344,172,133154,1,0,1:0:0:0:
344,172,133279,2,0,P|351:205|331:259,1,75.0000028610231,8|0,0:1|0:0,0:0:0:0:
511,247,133529,2,0,P|501:211|508:174,1,75.0000028610231,0|0,3:0|0:0,0:0:0:0:
478,10,133779,6,0,L|307:14,1,150.000005722046,2|0,3:2|1:0,0:0:0:0:
422,117,134154,2,0,L|251:121,1,150.000005722046,2|0,0:2|0:0,0:0:0:0:
366,224,134529,2,0,L|195:228,1,150.000005722046,2|0,3:2|1:0,0:0:0:0:
310,331,134904,2,0,L|139:335,1,150.000005722046,2|0,0:2|0:0,0:0:0:0:
0,251,135279,2,0,P|-7:214|6:174,1,75.0000028610231,8|0,0:1|0:0,0:0:0:0:
130,182,135529,2,0,P|137:218|123:258,1,75.0000028610231,0|0,3:0|0:0,0:0:0:0:
63,82,135779,6,0,L|233:82,1,150.000005722046,0|0,3:0|1:0,0:0:0:0:
327,145,136154,1,0,1:0:0:0:
327,145,136279,2,0,L|323:234,1,75.0000028610231,8|0,0:1|0:0,0:0:0:0:
447,56,136529,2,0,L|443:145,1,75.0000028610231,0|0,3:0|0:0,0:0:0:0:
430,325,136779,1,0,1:0:0:0:
241,175,137029,1,0,3:0:0:0:
11,362,137279,2,0,L|51:189,1,150.000005722046,8|0,0:1|3:0,0:0:0:0:
104,140,137654,1,4,0:3:0:0:
172,297,137779,6,0,P|215:329|310:285,1,150.000005722046,4|0,3:2|1:0,0:0:0:0:
464,249,138154,1,0,1:0:0:0:
464,249,138279,2,0,P|428:240|378:262,1,75.0000028610231,8|0,0:1|0:0,0:0:0:0:
305,85,138529,2,0,P|274:167|329:220,2,150.000005722046,0|0|0,3:0|1:0|3:0,0:0:0:0:
473,152,139154,1,0,1:0:0:0:
473,152,139279,2,0,L|386:152,1,75.0000028610231,8|0,0:1|0:0,0:0:0:0:
393,0,139529,2,0,L|480:0,1,75.0000028610231,0|0,3:0|0:0,0:0:0:0:
284,95,139779,6,0,B|253:98|222:89|222:89|153:105|153:105|107:79|58:103,1,225.000008583069,0|0,3:0|0:0,0:0:0:0:
37,118,140279,2,0,P|24:154|46:198,1,75.0000028610231,8|0,0:1|0:0,0:0:0:0:
151,359,140529,2,0,P|175:302|142:214,2,150.000005722046,0|0|0,3:0|1:0|3:0,0:0:0:0:
277,305,141154,1,0,1:0:0:0:
277,305,141279,2,0,P|271:269|284:234,1,75.0000028610231,8|0,0:1|0:0,0:0:0:0:
442,232,141529,2,0,P|454:267|449:304,1,75.0000028610231,0|0,3:0|0:0,0:0:0:0:
363,277,141779,5,0,3:0:0:0:
363,277,142029,2,0,L|363:197,1,75.0000028610231,0|0,1:0|0:0,0:0:0:0:
260,58,142279,2,0,L|260:133,1,75.0000028610231,8|0,0:1|0:0,0:0:0:0:
162,280,142529,6,0,L|162:196,1,82.5000025177003,0|0,3:0|0:0,0:0:0:0:
132,205,143029,6,0,L|132:280,1,75.0000028610231,0|0,3:0|0:0,0:0:0:0:
235,136,143279,2,0,L|235:61,1,75.0000028610231,8|0,0:1|0:0,0:0:0:0:
32,55,143529,2,0,L|32:130,1,75.0000028610231,0|0,3:0|0:0,0:0:0:0:
54,344,143779,5,4,0:3:0:0:
39,358,144029,5,0,3:0:0:0:
144,294,144154,1,0,3:0:0:0:
242,364,144279,1,4,0:3:0:0:
273,353,144529,5,0,3:0:0:0:
156,269,144654,1,0,3:0:0:0:
25,341,144779,1,8,0:1:0:0:
3,331,145029,5,0,3:0:0:0:
157,247,145154,1,0,3:0:0:0:
290,348,145279,2,0,L|360:347,1,50,4|0,0:3|3:0,0:0:0:0:
152,216,145529,5,0,3:0:0:0:
315,135,145654,1,0,3:0:0:0:
477,260,145779,2,0,B|561:269|489:409|383:336|400:203|487:248|504:182|483:107,1,332.499991121292,6|0,3:2|0:0,0:0:0:0:
475,93,146279,2,0,P|432:73|372:108,1,94.9999974632264,8|0,0:1|0:0,0:0:0:0:
221,20,146529,6,0,P|217:61|227:85,1,50,2|0,3:2|0:0,0:0:0:0:
51,157,146779,2,0,P|89:171|150:153,1,100,2|0,1:2|3:0,0:0:0:0:
209,339,147154,2,0,P|233:305|231:242,1,100,2|0,0:2|0:0,0:0:0:0:
387,243,147529,2,0,P|360:211|336:196,1,50,2|0,3:2|0:0,0:0:0:0:
402,22,147779,2,0,P|364:39|335:93,1,100,2|0,3:2|0:0,0:0:0:0:
512,116,148154,1,2,0:2:0:0:
424,152,148279,2,0,P|450:183|475:193,1,50,8|0,0:1|0:0,0:0:0:0:
490,365,148529,6,0,P|424:354|358:368,1,129.999994049073,2|2,3:2|3:2,0:0:0:0:
74,348,149279,1,8,0:1:0:0:
234,210,149529,5,0,3:0:0:0:
14,191,149654,1,0,3:0:0:0:
168,80,149779,2,0,B|133:39|133:39|129:204,1,189.999994926453,6|2,3:2|0:3,0:0:0:0:
132,184,150091,1,2,0:3:0:0:
134,193,150154,1,2,0:3:0:0:
136,201,150216,1,2,0:3:0:0:
139,210,150279,2,0,L|246:209,1,94.9999974632264,8|0,0:1|0:0,0:0:0:0:
453,109,150529,6,0,L|387:114,1,50,2|0,3:2|0:0,0:0:0:0:
469,237,150779,2,0,L|354:198,1,100,2|0,1:2|3:0,0:0:0:0:
389,0,151154,2,0,L|308:78,1,100,2|0,0:2|0:0,0:0:0:0:
360,316,151529,2,0,L|304:282,1,50,2|0,3:2|0:0,0:0:0:0:
158,185,151779,2,0,L|271:164,1,100,2|0,3:2|0:0,0:0:0:0:
196,348,152154,1,2,0:2:0:0:
93,318,152279,2,0,L|81:250,1,50,8|0,0:1|0:0,0:0:0:0:
44,43,152529,6,0,L|40:179,1,129.999994049073,2|2,3:2|3:2,0:0:0:0:
242,25,153279,1,8,0:1:0:0:
379,294,153529,5,0,3:0:0:0:
342,102,153654,1,0,3:0:0:0:
236,323,153779,2,0,B|188:345|140:351|37:325|20:258|109:216|109:328,1,284.999992389679,6|0,3:2|0:0,0:0:0:0:
111,344,154279,2,0,L|118:245,1,94.9999974632264,8|0,0:1|0:0,0:0:0:0:
192,66,154529,6,0,P|220:74|241:105,1,50,2|0,3:2|0:0,0:0:0:0:
440,74,154779,2,0,P|433:124|384:168,1,100,2|0,1:2|3:0,0:0:0:0:
278,1,155154,2,0,P|317:32|331:96,1,100,2|0,0:2|0:0,0:0:0:0:
466,240,155529,2,0,P|446:256|418:257,1,50,2|0,3:2|0:0,0:0:0:0:
172,218,155779,2,0,P|222:209|266:238,1,100,2|0,3:2|0:0,0:0:0:0:
104,361,156154,1,2,0:2:0:0:
22,319,156279,2,0,P|13:290|18:262,1,50,8|0,0:1|0:0,0:0:0:0:
173,102,156529,6,0,L|37:105,1,129.999994049073,2|2,3:2|3:2,0:0:0:0:
247,336,157279,1,8,0:1:0:0:
405,111,157529,5,0,3:0:0:0:
255,225,157654,1,0,3:0:0:0:
469,295,157779,2,0,B|448:319|440:348|440:348|414:257|490:202|429:128,1,284.999992389679,6|0,3:2|0:0,0:0:0:0:
405,111,158279,2,0,P|357:98|311:128,1,94.9999974632264,8|0,0:1|0:0,0:0:0:0:
67,207,158529,6,0,P|91:223|102:261,1,50,2|0,3:2|0:0,0:0:0:0:
243,318,158779,2,0,P|235:270|255:225,1,100,2|0,1:2|3:0,0:0:0:0:
155,40,159154,2,0,P|175:85|157:140,1,100,2|0,0:2|0:0,0:0:0:0:
318,117,159529,2,0,P|330:95|351:82,1,50,2|0,3:2|0:0,0:0:0:0:
482,240,159779,2,0,P|425:246|375:207,1,100,2|0,3:2|0:0,0:0:0:0:
228,305,160154,1,2,0:2:0:0:
319,335,160279,2,0,P|324:359|317:383,1,50,8|0,0:1|0:0,0:0:0:0:
65,369,160529,6,0,L|79:239,1,129.999994049073,2|2,3:2|3:2,0:0:0:0:
324,45,161279,1,8,0:1:0:0:
36,98,161529,1,0,3:0:0:0:
165,148,161654,1,0,3:0:0:0:
294,198,161779,5,0,3:0:0:0:
294,198,162279,5,2,0:2:0:0:
333,196,162779,1,0,0:2:0:0:
372,194,163279,1,2,0:2:0:0:
502,299,163529,5,2,0:2:0:0:
474,328,164029,1,2,0:2:0:0:
443,353,164529,1,2,0:2:0:0:
415,381,165029,1,0,0:2:0:0:
347,298,165279,2,0,L|268:298,1,75.0000028610231,2|0,0:2|0:2,0:2:0:0:
123,309,165779,5,2,0:2:0:0:
123,309,166279,5,0,0:2:0:0:
122,280,166779,1,2,0:2:0:0:
121,250,167279,1,2,0:2:0:0:
168,121,167529,5,2,0:2:0:0:
197,116,168029,1,2,0:2:0:0:
227,111,168529,1,2,0:2:0:0:
259,106,169029,1,0,0:2:0:0:
293,194,169279,2,0,L|293:277,1,75.0000028610231,2|0,0:2|0:2,0:2:0:0:
477,27,169779,5,2,0:2:0:0:
477,27,170279,5,0,0:2:0:0:
473,56,170779,1,2,0:2:0:0:
470,84,171279,1,2,0:2:0:0:
323,43,171529,5,2,0:2:0:0:
293,47,172029,1,2,0:2:0:0:
266,51,172529,1,2,0:2:0:0:
236,58,173029,1,0,0:2:0:0:
183,149,173279,2,0,L|187:229,1,75.0000028610231,2|0,0:2|0:2,0:2:0:0:
248,339,173779,5,2,0:2:0:0:
248,339,174279,5,0,0:2:0:0:
278,338,174779,1,2,0:2:0:0:
309,338,175279,1,2,0:2:0:0:
390,250,175529,1,2,0:2:0:0:
256,189,175779,1,2,0:2:0:0:
256,192,175841,12,0,177279,0:0:0:0:
178,121,177529,5,0,3:0:0:0:
318,34,177654,1,0,3:0:0:0:
170,143,177779,2,0,B|155:194|170:260|170:260|182:207,1,150.000005722046,6|2,3:2|0:3,0:0:0:0:
171,224,178091,1,2,0:3:0:0:
164,219,178154,1,2,0:3:0:0:
158,214,178216,1,2,0:3:0:0:
152,209,178279,6,0,P|113:199|72:210,1,75.0000028610231,8|0,0:1|0:0,0:0:0:0:
85,315,178529,2,0,P|124:325|165:314,1,75.0000028610231,2|0,3:2|0:0,0:0:0:0:
388,294,178779,2,0,B|375:271|352:262|352:262|303:272|239:261,1,150.000005722046,2|0,1:2|3:0,0:0:0:0:
294,117,179154,1,2,0:2:0:0:
294,117,179279,2,0,P|307:153|287:191,1,75.0000028610231,8|0,0:1|0:0,0:0:0:0:
124,78,179529,2,0,L|214:75,1,75.0000028610231,2|0,3:2|0:0,0:0:0:0:
52,146,179779,6,0,P|23:86|60:4,1,150.000005722046,2|2,3:2|0:2,0:0:0:0:
147,171,180154,1,0,1:0:0:0:
147,171,180279,2,0,L|149:254,1,75.0000028610231,8|0,0:1|0:0,0:0:0:0:
28,342,180529,2,0,L|103:332,1,75.0000028610231,2|0,3:2|0:0,0:0:0:0:
303,299,180779,1,0,1:0:0:0:
57,223,181029,1,2,3:2:0:0:
303,57,181279,1,8,0:1:0:0:
424,285,181529,5,0,3:0:0:0:
447,129,181654,1,0,3:0:0:0:
403,313,181779,2,0,B|280:313|280:313|310:294,1,150.000005722046,4|2,3:2|0:3,0:0:0:0:
309,296,182091,1,2,0:3:0:0:
316,294,182154,1,2,0:3:0:0:
323,292,182216,1,2,0:3:0:0:
330,290,182279,6,0,P|338:252|316:212,1,75.0000028610231,8|0,0:1|0:0,0:0:0:0:
187,219,182529,2,0,P|173:253|182:290,1,75.0000028610231,2|0,3:2|0:0,0:0:0:0:
262,162,182779,2,0,B|290:94|233:72|270:15,1,150.000005722046,2|0,1:2|3:0,0:0:0:0:
413,64,183154,1,2,0:2:0:0:
413,64,183279,2,0,P|373:73|337:61,1,75.0000028610231,8|0,0:1|0:0,0:0:0:0:
113,117,183529,2,0,P|153:108|189:120,1,75.0000028610231,2|0,3:2|0:0,0:0:0:0:
236,300,183779,6,0,L|58:301,1,150.000005722046,2|2,3:2|0:2,0:0:0:0:
15,208,184154,1,0,1:0:0:0:
15,208,184279,2,0,L|120:206,1,75.0000028610231,8|0,0:1|0:0,0:0:0:0:
81,37,184529,2,0,L|7:39,1,75.0000028610231,2|0,3:2|0:0,0:0:0:0:
225,127,184779,1,0,1:0:0:0:
459,42,185029,1,2,3:2:0:0:
442,316,185279,1,8,0:1:0:0:
204,123,185529,5,0,3:0:0:0:
219,322,185654,1,0,3:0:0:0:
181,111,185779,2,0,B|158:85|158:85|159:202,1,150.000005722046,6|2,3:2|0:3,0:0:0:0:
158,207,186091,1,2,0:3:0:0:
157,214,186154,1,2,0:3:0:0:
156,221,186216,1,2,0:3:0:0:
155,228,186279,6,0,L|56:234,1,75.0000028610231,8|0,0:1|0:0,0:0:0:0:
9,135,186529,2,0,L|83:130,1,75.0000028610231,2|0,3:2|0:0,0:0:0:0:
242,316,186779,2,0,L|83:325,1,150.000005722046,2|0,1:2|3:0,0:0:0:0:
254,220,187154,1,2,0:2:0:0:
254,220,187279,2,0,L|339:216,1,75.0000028610231,8|0,0:1|0:0,0:0:0:0:
427,347,187529,2,0,L|426:272,1,75.0000028610231,2|0,3:2|0:0,0:0:0:0:
406,25,187779,6,0,L|414:181,1,150.000005722046,2|2,3:2|0:2,0:0:0:0:
304,136,188154,1,0,1:0:0:0:
304,136,188279,2,0,L|300:49,1,75.0000028610231,8|0,0:1|0:0,0:0:0:0:
503,58,188529,2,0,L|506:132,1,75.0000028610231,2|0,3:2|0:0,0:0:0:0:
422,305,188779,1,0,1:0:0:0:
406,25,189029,1,2,3:2:0:0:
204,252,189279,1,8,0:1:0:0:
66,43,189529,5,0,3:0:0:0:
228,74,189654,1,0,3:0:0:0:
38,34,189779,2,0,B|17:58|6:86|5:151|42:172|81:126|14:108,1,150.000005722046,6|2,3:2|0:3,0:0:0:0:
33,124,190091,1,2,0:3:0:0:
27,129,190154,1,2,0:3:0:0:
21,134,190216,1,2,0:3:0:0:
15,139,190279,6,0,P|10:179|49:214,1,75.0000028610231,8|0,0:1|0:0,0:0:0:0:
138,201,190529,2,0,P|158:170|152:134,1,75.0000028610231,2|0,3:2|0:0,0:0:0:0:
77,276,190779,2,0,L|78:362,1,75.0000028610231,2|0,1:2|0:0,0:0:0:0:
295,372,191029,2,0,L|295:316,4,37.5000014305115,2|2|2|2|8,3:3|0:3|0:3|0:3|0:1,0:3:0:0:
512,188,191529,1,2,3:2:0:0:
256,190,191779,1,2,3:2:0:0:
256,192,191841,12,2,193779,3:2:0:0:
