osu file format v14

[General]
AudioFilename: audio.mp3
AudioLeadIn: 0
PreviewTime: 102915
Countdown: 0
SampleSet: Normal
StackLeniency: 0.7
Mode: 1
LetterboxInBreaks: 0
WidescreenStoryboard: 1

[Editor]
DistanceSpacing: 0.9
BeatDivisor: 3
GridSize: 32
TimelineZoom: 1.6

[Metadata]
Title:Put It Straight (Nightmare Version)
TitleUnicode:싫다고 말해 (Nightmare Version)
Artist:(G)I-DLE
ArtistUnicode:(여자)아이들
Creator:clockbite
Version:Muzukashii
Source:퀸덤
Tags:blackener lexa14 korean pop kpop k-pop hip-hop hiphop hip hop trap orchestral drums gidle (g)idle gi-dle 여자아이들 여자 아이들 i made queendom <팬도라의 상자> part. 1 mnet soyeon 소연 miyeon 미연 minnie 민니 yuqi 우기 shuhua 슈화 soojin 수진 ver.
BeatmapID:3386665
BeatmapSetID:1650475

[Difficulty]
HPDrainRate:6
CircleSize:5
OverallDifficulty:5
ApproachRate:5
SliderMultiplier:1.4
SliderTickRate:1

[Events]
//Background and Video events
0,0,"1.jpg",0,-50
//Break Periods
2,18514,20694
2,22094,27455
2,138017,143728
//Storyboard Layer 0 (Background)
//Storyboard Layer 1 (Fail)
//Storyboard Layer 2 (Pass)
//Storyboard Layer 3 (Foreground)
//Storyboard Layer 4 (Overlay)
//Storyboard Sound Samples

[TimingPoints]
1613,422.535211267606,4,1,0,20,1,8
1613,-200,4,1,0,20,0,0
30345,-200,4,1,0,5,0,0
32034,-200,4,1,0,5,0,0
32139,-33.3333333333333,4,1,0,5,0,0
32456,-200,4,1,0,5,0,0
32562,-200,4,1,0,5,0,0
34993,-200,4,1,0,20,0,0
45556,-200,4,1,0,5,0,0
47245,-200,4,1,0,5,0,0
47351,-33.3333333333333,4,1,0,5,0,0
47668,-200,4,1,0,5,0,0
47773,-200,4,1,0,5,0,0
48830,-166.666666666667,4,1,0,30,0,0
60793,-33.3333333333333,4,1,0,30,0,0
60819,-200,4,1,0,30,0,0
61664,-33.3333333333333,4,1,0,30,0,0
61690,-166.666666666667,4,1,0,30,0,0
74289,-100,4,1,0,30,0,0
75979,-111.111111111111,4,1,0,50,0,0
89500,-100,4,1,0,50,0,0
99641,-90.9090909090909,4,1,0,50,0,0
102122,-90.9090909090909,4,1,0,65,0,0
102280,-90.9090909090909,4,1,0,60,0,0
102386,-90.9090909090909,4,1,0,55,0,0
102492,-90.9090909090909,4,1,0,50,0,0
102914,-100,4,1,0,40,0,0
103336,-105.263157894737,4,1,0,35,0,0
103758,-111.111111111111,4,1,0,30,0,0
104180,-117.647058823529,4,1,0,25,0,0
104711,-125,4,1,0,25,0,0
106401,-83.3333333333333,4,1,0,100,0,1
119922,-83.3333333333333,4,1,0,100,0,0
120767,-83.3333333333333,4,1,0,100,0,1
131648,-62.5,4,1,0,30,0,1
131753,-62.5,4,1,0,30,0,0
132598,-33.3333333333333,4,1,0,30,0,0
133442,500,4,1,0,30,1,0
133442,-100,4,1,0,30,0,0
135442,-111.111111111111,4,1,0,30,0,0
137442,-125,4,1,0,30,0,0
139442,-142.857142857143,4,1,0,30,0,0
141442,-166.666666666667,4,1,0,30,0,0
143344,422.535211267606,4,1,0,30,1,8
144822,-33.3333333333333,4,1,0,30,0,8
145034,-100,4,1,0,30,0,8
146618,-100,4,1,0,100,0,8
160034,-76.9230769230769,4,1,0,100,0,8
161829,-33.3333333333333,4,1,0,50,0,8
163520,-76.9230769230769,4,1,0,100,0,8
180527,-100,4,1,0,50,0,8
195632,-90.9090909090909,4,1,0,50,0,8
205667,-86.9565217391304,4,1,0,50,0,8
207569,422.535211267606,8,1,0,50,1,0
207569,-86.9565217391304,8,1,0,50,0,0
210949,422.535211267606,4,1,0,100,1,1
210949,-80,4,1,0,100,0,1
224470,-80,4,1,0,100,0,0
225315,-80,4,1,0,100,0,1
236195,-80,4,1,0,5,0,1
236301,-33.3333333333333,4,1,0,5,0,0
236406,-100,4,1,0,5,0,0

[HitObjects]
125,156,10063,5,0,0:0:0:0:
294,176,13443,1,0,0:0:0:0:
173,153,16824,1,0,0:0:0:0:
404,252,21894,5,8,0:0:0:0:
132,118,28655,5,0,0:0:0:0:
256,192,32193,8,0,32458,0:0:0:0:
124,109,35415,5,0,0:0:0:0:
179,138,36260,1,8,0:0:0:0:
168,114,39218,1,0,0:0:0:0:
223,131,40063,1,8,0:0:0:0:
69,108,42317,1,0,0:0:0:0:
127,132,43021,1,8,0:0:0:0:
256,192,47405,8,0,47669,0:0:0:0:
85,125,48936,5,4,0:0:0:0:
201,162,49922,1,8,0:0:0:0:
199,209,52317,1,0,0:0:0:0:
261,213,52739,1,8,0:0:0:0:
376,161,53584,1,8,0:0:0:0:
334,179,55697,1,12,0:0:0:0:
349,183,55908,1,4,0:0:0:0:
255,167,56542,1,0,0:0:0:0:
116,227,59077,1,12,0:0:0:0:
131,224,59289,1,4,0:0:0:0:
221,197,59922,1,8,0:0:0:0:
256,192,60794,8,0,61190,0:0:0:0:
256,192,61665,8,0,62035,0:0:0:0:
179,151,62458,5,0,0:0:0:0:
298,167,63303,1,8,0:0:0:0:
232,200,65838,1,0,0:0:0:0:
290,198,66260,1,8,0:0:0:0:
398,148,67105,1,0,0:0:0:0:
341,229,69218,1,8,0:0:0:0:
332,224,69359,1,8,0:0:0:0:
332,224,69500,1,0,0:0:0:0:
332,224,69641,1,0,0:0:0:0:
283,185,70063,1,8,0:0:0:0:
428,194,72598,1,12,0:0:0:0:
428,194,72810,1,4,0:0:0:0:
341,164,73443,1,8,0:0:0:0:
256,192,74289,8,0,75767,0:0:0:0:
247,159,75979,5,4,0:0:0:0:
350,235,76401,1,0,0:0:0:0:
292,208,76613,1,0,0:0:0:0:
248,159,76824,1,8,0:0:0:0:
347,234,77246,1,0,0:0:0:0:
244,156,77669,1,0,0:0:0:0:
342,230,78091,1,8,0:0:0:0:
303,180,78303,1,0,0:0:0:0:
242,154,78514,1,8,0:0:0:0:
341,230,78936,1,0,0:0:0:0:
303,180,79148,1,8,0:0:0:0:
247,159,79359,1,0,0:0:0:0:
350,235,79782,1,0,0:0:0:0:
292,208,79993,1,0,0:0:0:0:
248,159,80204,1,8,0:0:0:0:
191,134,80415,1,8,0:0:0:0:
347,234,80627,1,0,0:0:0:0:
244,156,81049,1,0,0:0:0:0:
342,230,81472,1,8,0:0:0:0:
303,180,81613,1,0,0:0:0:0:
263,165,81753,1,0,0:0:0:0:
242,154,81894,1,8,0:0:0:0:
365,174,82739,1,0,0:0:0:0:
254,140,83162,1,0,0:0:0:0:
137,106,83584,1,8,0:0:0:0:
253,140,84007,1,0,0:0:0:0:
136,152,84429,1,0,0:0:0:0:
262,155,84852,1,8,0:0:0:0:
138,177,85274,1,0,0:0:0:0:
250,139,85697,1,8,0:0:0:0:
250,139,86120,1,0,0:0:0:0:
262,262,86542,1,8,0:0:0:0:
250,144,86965,1,8,0:0:0:0:
373,170,87387,1,0,0:0:0:0:
249,192,87810,1,8,0:0:0:0:
370,158,88232,1,8,0:0:0:0:
256,160,88655,1,0,0:0:0:0:
247,159,89500,1,0,0:0:0:0:
299,176,89711,1,8,0:0:0:0:
350,235,89922,1,0,0:0:0:0:
292,208,90134,1,0,0:0:0:0:
248,159,90345,1,8,0:0:0:0:
347,234,90767,1,0,0:0:0:0:
244,156,91190,1,0,0:0:0:0:
213,101,91401,1,0,0:0:0:0:
342,230,91613,1,8,0:0:0:0:
242,154,92035,1,8,0:0:0:0:
342,230,92246,1,8,0:0:0:0:
341,230,92458,1,0,0:0:0:0:
247,159,92880,1,0,0:0:0:0:
309,162,93091,1,8,0:0:0:0:
350,235,93303,1,0,0:0:0:0:
292,208,93514,1,0,0:0:0:0:
248,159,93725,1,8,0:0:0:0:
347,234,94148,1,0,0:0:0:0:
244,156,94570,1,0,0:0:0:0:
342,230,94993,1,8,0:0:0:0:
303,180,95134,1,0,0:0:0:0:
263,165,95274,1,0,0:0:0:0:
242,154,95415,1,8,0:0:0:0:
365,174,96260,1,0,0:0:0:0:
254,140,96683,1,0,0:0:0:0:
137,106,97105,1,8,0:0:0:0:
253,140,97528,1,0,0:0:0:0:
136,152,97951,1,0,0:0:0:0:
262,155,98373,1,8,0:0:0:0:
138,177,98796,1,0,0:0:0:0:
250,139,99218,1,8,0:0:0:0:
288,179,99641,1,8,0:0:0:0:
288,179,99782,1,0,0:0:0:0:
288,179,99922,1,0,0:0:0:0:
262,262,100063,1,8,0:0:0:0:
250,144,100486,1,8,0:0:0:0:
256,159,100908,1,8,0:0:0:0:
166,161,101120,1,0,0:0:0:0:
237,191,101331,1,0,0:0:0:0:
237,191,101542,1,8,0:0:0:0:
237,191,101753,1,0,0:0:0:0:
237,191,101965,1,8,0:0:0:0:
226,202,102176,1,8,0:0:0:0:
226,202,102317,1,8,0:0:0:0:
226,202,102458,1,0,0:0:0:0:
226,202,102598,1,0,0:0:0:0:
257,201,103021,1,8,0:0:0:0:
287,200,103443,1,8,0:0:0:0:
287,200,103866,1,8,0:0:0:0:
287,200,104289,1,8,0:0:0:0:
343,178,106401,1,12,0:0:0:0:
332,189,106613,1,8,0:0:0:0:
394,188,106824,1,0,0:0:0:0:
394,188,107035,1,0,0:0:0:0:
317,208,107246,1,8,0:0:0:0:
189,207,107669,1,0,0:0:0:0:
189,207,107880,1,0,0:0:0:0:
362,217,108091,1,8,0:0:0:0:
246,180,108197,1,8,0:0:0:0:
370,221,108303,1,8,0:0:0:0:
276,180,108514,1,8,0:0:0:0:
265,197,108725,1,0,0:0:0:0:
276,180,108936,1,8,0:0:0:0:
164,175,109359,1,8,0:0:0:0:
317,194,109465,1,8,0:0:0:0:
190,176,109570,1,8,0:0:0:0:
203,169,109782,1,8,0:0:0:0:
228,160,109993,1,0,0:0:0:0:
186,186,110204,1,8,0:0:0:0:
186,186,110415,1,0,0:0:0:0:
219,109,110627,1,8,0:0:0:0:
228,138,111049,1,0,0:0:0:0:
226,193,111472,1,8,0:0:0:0:
232,164,111577,1,8,0:0:0:0:
268,178,111683,1,8,0:0:0:0:
209,142,111894,1,0,0:0:0:0:
209,142,112105,1,0,0:0:0:0:
196,164,112317,1,8,0:0:0:0:
25,145,112422,1,8,0:0:0:0:
25,145,112528,1,8,0:0:0:0:
218,193,112739,1,0,0:0:0:0:
276,160,112845,1,0,0:0:0:0:
194,200,112951,1,0,0:0:0:0:
343,178,113162,1,8,0:0:0:0:
332,189,113796,1,0,0:0:0:0:
317,208,114007,1,8,0:0:0:0:
189,207,114429,1,0,0:0:0:0:
189,207,114641,1,0,0:0:0:0:
362,217,114852,1,8,0:0:0:0:
304,138,114958,1,8,0:0:0:0:
370,221,115063,1,8,0:0:0:0:
276,180,115274,1,8,0:0:0:0:
265,197,115486,1,0,0:0:0:0:
276,180,115697,1,8,0:0:0:0:
164,175,116120,1,0,0:0:0:0:
248,120,116225,1,0,0:0:0:0:
190,176,116331,1,0,0:0:0:0:
203,169,116542,1,8,0:0:0:0:
228,160,116753,1,8,0:0:0:0:
186,186,116965,1,0,0:0:0:0:
186,186,117176,1,0,0:0:0:0:
219,109,117387,1,8,0:0:0:0:
228,138,117810,1,0,0:0:0:0:
226,193,118232,1,8,0:0:0:0:
268,178,118443,1,8,0:0:0:0:
209,142,118655,1,0,0:0:0:0:
209,142,118866,1,0,0:0:0:0:
196,164,119077,1,8,0:0:0:0:
141,162,119922,1,8,0:0:0:0:
139,202,120063,1,8,0:0:0:0:
208,206,120204,1,0,0:0:0:0:
206,209,120345,1,0,0:0:0:0:
317,208,120767,1,12,0:0:0:0:
189,207,121190,1,0,0:0:0:0:
189,207,121401,1,0,0:0:0:0:
362,217,121613,1,8,0:0:0:0:
246,180,121718,1,8,0:0:0:0:
370,221,121824,1,8,0:0:0:0:
276,180,122035,1,8,0:0:0:0:
265,197,122246,1,0,0:0:0:0:
276,180,122458,1,8,0:0:0:0:
164,175,122880,1,0,0:0:0:0:
317,194,122986,1,0,0:0:0:0:
190,176,123091,1,0,0:0:0:0:
203,169,123303,1,8,0:0:0:0:
228,160,123514,1,0,0:0:0:0:
186,186,123725,1,8,0:0:0:0:
186,186,123936,1,0,0:0:0:0:
219,109,124148,1,8,0:0:0:0:
228,138,124570,1,0,0:0:0:0:
226,193,124993,1,8,0:0:0:0:
232,164,125098,1,8,0:0:0:0:
268,178,125204,1,8,0:0:0:0:
209,142,125415,1,0,0:0:0:0:
209,142,125627,1,0,0:0:0:0:
196,164,125838,1,8,0:0:0:0:
25,145,125943,1,8,0:0:0:0:
25,145,126049,1,8,0:0:0:0:
218,193,126260,1,0,0:0:0:0:
276,160,126366,1,0,0:0:0:0:
194,200,126472,1,0,0:0:0:0:
343,178,126683,1,8,0:0:0:0:
394,188,127317,1,0,0:0:0:0:
317,208,127528,1,8,0:0:0:0:
189,207,127951,1,0,0:0:0:0:
189,207,128162,1,0,0:0:0:0:
362,217,128373,1,8,0:0:0:0:
304,138,128479,1,8,0:0:0:0:
370,221,128584,1,8,0:0:0:0:
276,180,128796,1,8,0:0:0:0:
265,197,129007,1,0,0:0:0:0:
276,180,129218,1,8,0:0:0:0:
298,169,129429,1,8,0:0:0:0:
164,175,129641,1,0,0:0:0:0:
248,120,129746,1,0,0:0:0:0:
190,176,129852,1,0,0:0:0:0:
203,169,130063,1,8,0:0:0:0:
228,160,130274,1,8,0:0:0:0:
186,186,130486,1,0,0:0:0:0:
186,186,130697,1,0,0:0:0:0:
219,109,130908,1,8,0:0:0:0:
59,206,131331,1,8,0:0:0:0:
135,139,131753,2,0,L|439:95,1,280
256,192,132598,8,0,133232,0:0:0:0:
226,106,133442,5,0,0:0:0:0:
226,106,133817,1,0,0:0:0:0:
154,110,135442,1,0,0:0:0:0:
154,110,135817,1,0,0:0:0:0:
332,192,137442,1,8,0:0:0:0:
332,192,137817,1,8,0:0:0:0:
256,192,144928,12,0,146513,0:0:0:0:
66,188,146724,5,4,0:0:0:0:
198,193,147146,1,0,0:0:0:0:
323,207,147569,1,8,0:0:0:0:
205,191,147991,1,0,0:0:0:0:
264,211,148203,1,8,0:0:0:0:
234,199,148308,1,8,0:0:0:0:
211,190,148414,1,8,0:0:0:0:
249,83,148836,1,0,0:0:0:0:
337,172,149259,1,8,0:0:0:0:
274,163,149470,1,0,0:0:0:0:
317,184,149682,1,0,0:0:0:0:
286,177,149787,1,0,0:0:0:0:
337,172,149893,1,0,0:0:0:0:
313,230,150104,1,0,0:0:0:0:
341,174,150738,1,0,0:0:0:0:
278,168,150949,1,8,0:0:0:0:
155,138,151372,1,0,0:0:0:0:
206,178,151583,1,8,0:0:0:0:
227,195,151689,1,8,0:0:0:0:
258,200,151794,1,8,0:0:0:0:
211,156,152005,1,0,0:0:0:0:
187,97,152217,1,0,0:0:0:0:
187,97,152428,1,8,0:0:0:0:
161,115,152639,1,0,0:0:0:0:
188,131,152745,1,0,0:0:0:0:
153,177,152851,1,0,0:0:0:0:
214,189,153062,1,8,0:0:0:0:
276,199,153273,1,0,0:0:0:0:
244,200,153379,1,0,0:0:0:0:
276,199,153484,1,0,0:0:0:0:
217,173,153907,1,0,0:0:0:0:
159,147,154329,1,8,0:0:0:0:
157,148,154752,1,0,0:0:0:0:
214,173,154963,1,8,0:0:0:0:
240,186,155069,1,8,0:0:0:0:
240,186,155174,1,8,0:0:0:0:
292,186,155386,1,8,0:0:0:0:
354,182,155597,1,0,0:0:0:0:
274,184,155808,1,8,0:0:0:0:
228,180,156020,1,8,0:0:0:0:
240,186,156125,1,8,0:0:0:0:
240,186,156231,1,8,0:0:0:0:
274,184,156442,1,0,0:0:0:0:
319,189,156548,1,0,0:0:0:0:
318,143,156653,1,0,0:0:0:0:
319,189,156865,1,0,0:0:0:0:
259,168,157498,1,0,0:0:0:0:
317,190,157710,1,8,0:0:0:0:
187,196,158132,1,0,0:0:0:0:
172,132,158344,1,8,0:0:0:0:
179,164,158449,1,8,0:0:0:0:
177,115,160245,1,12,0:0:0:0:
192,303,160879,1,12,0:0:0:0:
272,140,161513,1,4,0:0:0:0:
256,192,161935,8,0,163414,0:0:0:0:
226,172,163625,5,12,0:0:0:0:
56,255,164259,1,12,0:0:0:0:
230,194,164893,1,4,0:0:0:0:
290,188,166583,1,0,0:0:0:0:
290,188,166794,1,0,0:0:0:0:
290,188,167005,1,0,0:0:0:0:
261,214,167217,1,8,0:0:0:0:
386,229,167639,1,0,0:0:0:0:
261,214,167851,1,8,0:0:0:0:
321,233,168062,1,8,0:0:0:0:
265,220,168273,1,0,0:0:0:0:
142,189,168696,1,0,0:0:0:0:
197,195,168907,1,0,0:0:0:0:
260,194,169329,1,0,0:0:0:0:
322,191,169541,1,8,0:0:0:0:
322,191,169752,1,8,0:0:0:0:
384,197,169963,1,0,0:0:0:0:
326,185,170174,1,0,0:0:0:0:
278,175,170386,1,0,0:0:0:0:
240,169,170597,1,8,0:0:0:0:
240,169,171020,1,0,0:0:0:0:
301,184,171231,1,8,0:0:0:0:
251,214,171442,1,8,0:0:0:0:
307,187,171653,1,0,0:0:0:0:
248,75,172076,1,0,0:0:0:0:
277,131,172287,1,0,0:0:0:0:
224,180,173766,1,4,0:0:0:0:
259,234,173977,1,0,0:0:0:0:
259,234,174189,1,8,0:0:0:0:
304,189,174400,1,8,0:0:0:0:
271,121,174505,1,8,0:0:0:0:
333,200,174611,1,8,0:0:0:0:
333,200,174822,1,0,0:0:0:0:
273,220,175034,1,0,0:0:0:0:
273,220,175139,1,0,0:0:0:0:
304,220,175245,1,0,0:0:0:0:
249,202,175456,1,8,0:0:0:0:
249,202,175667,1,8,0:0:0:0:
212,150,175879,1,0,0:0:0:0:
170,102,176090,1,0,0:0:0:0:
146,109,176196,1,0,0:0:0:0:
249,202,176301,1,0,0:0:0:0:
217,200,176513,1,8,0:0:0:0:
209,164,176724,1,8,0:0:0:0:
271,172,176829,1,8,0:0:0:0:
100,227,176935,1,8,0:0:0:0:
217,200,177146,1,0,0:0:0:0:
209,164,177358,1,0,0:0:0:0:
155,198,177569,1,8,0:0:0:0:
211,170,177780,1,0,0:0:0:0:
217,163,177886,1,0,0:0:0:0:
234,174,177991,1,0,0:0:0:0:
194,148,178203,1,8,0:0:0:0:
209,164,178414,1,0,0:0:0:0:
269,173,178625,1,8,0:0:0:0:
210,87,178731,1,8,0:0:0:0:
320,279,178836,1,8,0:0:0:0:
317,231,179048,1,4,0:0:0:0:
247,159,182217,1,0,0:0:0:0:
350,235,182639,1,0,0:0:0:0:
292,208,182851,1,0,0:0:0:0:
248,159,183062,1,8,0:0:0:0:
347,234,183484,1,0,0:0:0:0:
244,156,183907,1,0,0:0:0:0:
342,230,184329,1,8,0:0:0:0:
303,180,184541,1,0,0:0:0:0:
242,154,184752,1,8,0:0:0:0:
341,230,185174,1,0,0:0:0:0:
303,180,185386,1,8,0:0:0:0:
247,159,185597,1,0,0:0:0:0:
350,235,186020,1,0,0:0:0:0:
292,208,186231,1,0,0:0:0:0:
248,159,186442,1,8,0:0:0:0:
191,134,186653,1,8,0:0:0:0:
347,234,186865,1,0,0:0:0:0:
244,156,187287,1,0,0:0:0:0:
342,230,187710,1,8,0:0:0:0:
303,180,187851,1,0,0:0:0:0:
263,165,187991,1,0,0:0:0:0:
242,154,188132,1,8,0:0:0:0:
365,174,188977,1,0,0:0:0:0:
254,140,189400,1,0,0:0:0:0:
137,106,189822,1,8,0:0:0:0:
253,140,190245,1,0,0:0:0:0:
136,152,190667,1,0,0:0:0:0:
262,155,191090,1,8,0:0:0:0:
138,177,191513,1,0,0:0:0:0:
250,139,191935,1,8,0:0:0:0:
250,139,192358,1,0,0:0:0:0:
262,262,192780,1,8,0:0:0:0:
250,144,193203,1,8,0:0:0:0:
373,170,193625,1,0,0:0:0:0:
249,192,194048,1,8,0:0:0:0:
370,158,194470,1,8,0:0:0:0:
256,160,194893,1,0,0:0:0:0:
247,159,195738,1,0,0:0:0:0:
299,176,195949,1,8,0:0:0:0:
350,235,196160,1,0,0:0:0:0:
292,208,196372,1,0,0:0:0:0:
248,159,196583,1,8,0:0:0:0:
347,234,197005,1,0,0:0:0:0:
244,156,197428,1,0,0:0:0:0:
213,101,197639,1,0,0:0:0:0:
342,230,197851,1,8,0:0:0:0:
242,154,198273,1,8,0:0:0:0:
342,230,198484,1,8,0:0:0:0:
341,230,198696,1,0,0:0:0:0:
247,159,199118,1,0,0:0:0:0:
309,162,199329,1,8,0:0:0:0:
350,235,199541,1,0,0:0:0:0:
292,208,199752,1,0,0:0:0:0:
248,159,199963,1,8,0:0:0:0:
347,234,200386,1,0,0:0:0:0:
244,156,200808,1,0,0:0:0:0:
342,230,201231,1,8,0:0:0:0:
303,180,201372,1,0,0:0:0:0:
263,165,201513,1,0,0:0:0:0:
242,154,201653,1,8,0:0:0:0:
365,174,202498,1,0,0:0:0:0:
217,173,202710,1,8,0:0:0:0:
254,140,202921,1,0,0:0:0:0:
253,164,203132,1,0,0:0:0:0:
137,106,203344,1,8,0:0:0:0:
253,140,203766,1,0,0:0:0:0:
136,152,204189,1,0,0:0:0:0:
263,141,204400,1,0,0:0:0:0:
262,155,204611,1,8,0:0:0:0:
138,177,205034,1,8,0:0:0:0:
263,141,205245,1,8,0:0:0:0:
250,139,205456,1,0,0:0:0:0:
356,181,205879,1,8,0:0:0:0:
213,182,206020,1,0,0:0:0:0:
213,182,206160,1,0,0:0:0:0:
158,244,206301,1,8,0:0:0:0:
317,204,206513,1,0,0:0:0:0:
215,177,206724,1,8,0:0:0:0:
230,157,206935,1,0,0:0:0:0:
230,157,207146,1,0,0:0:0:0:
222,191,207358,1,8,0:0:0:0:
343,178,210949,1,12,0:0:0:0:
332,189,211160,1,8,0:0:0:0:
394,188,211371,1,0,0:0:0:0:
394,188,211582,1,0,0:0:0:0:
317,208,211794,1,8,0:0:0:0:
189,207,212216,1,0,0:0:0:0:
189,207,212427,1,0,0:0:0:0:
362,217,212639,1,8,0:0:0:0:
246,180,212744,1,8,0:0:0:0:
370,221,212850,1,8,0:0:0:0:
276,180,213061,1,8,0:0:0:0:
265,197,213272,1,0,0:0:0:0:
276,180,213484,1,8,0:0:0:0:
164,175,213906,1,8,0:0:0:0:
317,194,214012,1,8,0:0:0:0:
190,176,214118,1,8,0:0:0:0:
203,169,214329,1,8,0:0:0:0:
228,160,214540,1,0,0:0:0:0:
186,186,214751,1,8,0:0:0:0:
186,186,214963,1,0,0:0:0:0:
219,109,215174,1,8,0:0:0:0:
228,138,215596,1,0,0:0:0:0:
226,193,216019,1,8,0:0:0:0:
232,164,216125,1,8,0:0:0:0:
268,178,216230,1,8,0:0:0:0:
209,142,216441,1,0,0:0:0:0:
209,142,216653,1,0,0:0:0:0:
196,164,216864,1,8,0:0:0:0:
25,145,216970,1,8,0:0:0:0:
25,145,217075,1,8,0:0:0:0:
218,193,217287,1,0,0:0:0:0:
276,160,217392,1,0,0:0:0:0:
194,200,217498,1,0,0:0:0:0:
343,178,217709,1,8,0:0:0:0:
394,188,218343,1,0,0:0:0:0:
317,208,218554,1,8,0:0:0:0:
189,207,218977,1,0,0:0:0:0:
189,207,219188,1,0,0:0:0:0:
362,217,219399,1,8,0:0:0:0:
304,138,219505,1,8,0:0:0:0:
370,221,219610,1,8,0:0:0:0:
276,180,219822,1,8,0:0:0:0:
265,197,220033,1,0,0:0:0:0:
276,180,220244,1,8,0:0:0:0:
164,175,220667,1,0,0:0:0:0:
248,120,220772,1,0,0:0:0:0:
190,176,220878,1,0,0:0:0:0:
203,169,221089,1,8,0:0:0:0:
228,160,221301,1,8,0:0:0:0:
186,186,221512,1,0,0:0:0:0:
186,186,221723,1,0,0:0:0:0:
219,109,221934,1,8,0:0:0:0:
228,138,222357,1,0,0:0:0:0:
226,193,222779,1,8,0:0:0:0:
268,178,222991,1,8,0:0:0:0:
209,142,223202,1,0,0:0:0:0:
209,142,223413,1,0,0:0:0:0:
196,164,223625,1,8,0:0:0:0:
141,162,224470,1,8,0:0:0:0:
139,202,224610,1,8,0:0:0:0:
208,206,224751,1,0,0:0:0:0:
206,209,224892,1,0,0:0:0:0:
317,208,225315,1,12,0:0:0:0:
189,207,225737,1,0,0:0:0:0:
189,207,225949,1,0,0:0:0:0:
362,217,226160,1,8,0:0:0:0:
246,180,226265,1,8,0:0:0:0:
370,221,226371,1,8,0:0:0:0:
276,180,226582,1,8,0:0:0:0:
265,197,226794,1,0,0:0:0:0:
276,180,227005,1,8,0:0:0:0:
164,175,227427,1,0,0:0:0:0:
317,194,227533,1,0,0:0:0:0:
190,176,227639,1,0,0:0:0:0:
203,169,227850,1,8,0:0:0:0:
228,160,228061,1,0,0:0:0:0:
186,186,228272,1,8,0:0:0:0:
186,186,228484,1,0,0:0:0:0:
219,109,228695,1,8,0:0:0:0:
228,138,229118,1,0,0:0:0:0:
226,193,229540,1,8,0:0:0:0:
232,164,229646,1,8,0:0:0:0:
268,178,229751,1,8,0:0:0:0:
209,142,229963,1,0,0:0:0:0:
209,142,230174,1,0,0:0:0:0:
196,164,230385,1,8,0:0:0:0:
25,145,230491,1,8,0:0:0:0:
25,145,230596,1,8,0:0:0:0:
218,193,230808,1,0,0:0:0:0:
276,160,230913,1,0,0:0:0:0:
194,200,231019,1,0,0:0:0:0:
343,178,231230,1,8,0:0:0:0:
394,188,231864,1,0,0:0:0:0:
317,208,232075,1,8,0:0:0:0:
189,207,232498,1,0,0:0:0:0:
189,207,232709,1,0,0:0:0:0:
362,217,232920,1,8,0:0:0:0:
304,138,233026,1,8,0:0:0:0:
370,221,233132,1,8,0:0:0:0:
276,180,233343,1,8,0:0:0:0:
265,197,233555,1,0,0:0:0:0:
276,180,233765,1,8,0:0:0:0:
261,190,233871,1,8,0:0:0:0:
298,169,233977,1,8,0:0:0:0:
164,175,234188,1,0,0:0:0:0:
248,120,234294,1,0,0:0:0:0:
190,176,234399,1,0,0:0:0:0:
203,169,234610,1,8,0:0:0:0:
228,160,234822,1,8,0:0:0:0:
186,186,235033,1,0,0:0:0:0:
186,186,235244,1,0,0:0:0:0:
219,109,235456,1,8,0:0:0:0:
59,206,235878,1,8,0:0:0:0:
256,192,236301,8,0,237991,0:0:0:0:
