osu file format v14

[General]
AudioFilename: audio.mp3
AudioLeadIn: 0
PreviewTime: 102915
Countdown: 0
SampleSet: Normal
StackLeniency: 0.7
Mode: 1
LetterboxInBreaks: 0
WidescreenStoryboard: 1

[Editor]
DistanceSpacing: 0.9
BeatDivisor: 4
GridSize: 32
TimelineZoom: 1.2

[Metadata]
Title:Put It Straight (Nightmare Version)
TitleUnicode:싫다고 말해 (Nightmare Version)
Artist:(G)I-DLE
ArtistUnicode:(여자)아이들
Creator:clockbite
Version:Kantan
Source:퀸덤
Tags:blackener lexa14 korean pop kpop k-pop hip-hop hiphop hip hop trap orchestral drums gidle (g)idle gi-dle 여자아이들 여자 아이들 i made queendom <팬도라의 상자> part. 1 mnet soyeon 소연 miyeon 미연 minnie 민니 yuqi 우기 shuhua 슈화 soojin 수진 ver.
BeatmapID:3386722
BeatmapSetID:1650475

[Difficulty]
HPDrainRate:8
CircleSize:5
OverallDifficulty:3
ApproachRate:10
SliderMultiplier:1.4
SliderTickRate:1

[Events]
//Background and Video events
0,0,"1.jpg",0,-50
//Break Periods
2,18514,21444
2,22094,28205
2,32035,34215
2,47246,48486
2,137642,144478
//Storyboard Layer 0 (Background)
//Storyboard Layer 1 (Fail)
//Storyboard Layer 2 (Pass)
//Storyboard Layer 3 (Foreground)
//Storyboard Layer 4 (Overlay)
//Storyboard Sound Samples

[TimingPoints]
1613,422.535211267606,4,1,0,20,1,8
1613,-111.111111111111,4,1,0,20,0,0
30345,-111.111111111111,4,1,0,5,0,0
32034,-111.111111111111,4,1,0,5,0,0
32139,-111.111111111111,4,1,0,5,0,0
32456,-111.111111111111,4,1,0,5,0,0
32562,-111.111111111111,4,1,0,5,0,0
34993,-111.111111111111,4,1,0,20,0,0
48830,-111.111111111111,4,1,0,30,0,0
60793,-111.111111111111,4,1,0,30,0,0
60819,-111.111111111111,4,1,0,30,0,0
61664,-111.111111111111,4,1,0,30,0,0
61690,-111.111111111111,4,1,0,30,0,0
74289,-111.111111111111,4,1,0,30,0,0
75979,-111.111111111111,4,1,0,50,0,0
89500,-111.111111111111,4,1,0,50,0,0
99641,-111.111111111111,4,1,0,50,0,0
102915,-111.111111111111,4,1,0,50,0,0
106401,-111.111111111111,4,1,0,100,0,1
119922,-111.111111111111,4,1,0,100,0,0
120767,-111.111111111111,4,1,0,100,0,1
131648,-111.111111111111,4,1,0,30,0,1
131753,-111.111111111111,4,1,0,30,0,0
132598,-111.111111111111,4,1,0,30,0,0
133442,500,4,1,0,30,1,0
133442,-111.111111111111,4,1,0,30,0,0
135442,-111.111111111111,4,1,0,30,0,0
137442,-111.111111111111,4,1,0,30,0,0
139442,-111.111111111111,4,1,0,30,0,0
141442,-111.111111111111,4,1,0,30,0,0
143344,422.535211267606,4,1,0,30,1,8
144822,-111.111111111111,4,1,0,30,0,8
145034,-111.111111111111,4,1,0,30,0,8
146618,-111.111111111111,4,1,0,100,0,8
160034,-111.111111111111,4,1,0,100,0,8
161829,-111.111111111111,4,1,0,50,0,8
163520,-111.111111111111,4,1,0,100,0,8
180527,-111.111111111111,4,1,0,50,0,8
195632,-111.111111111111,4,1,0,50,0,8
205667,-111.111111111111,4,1,0,50,0,8
207569,422.535211267606,8,1,0,50,1,0
207569,-111.111111111111,8,1,0,50,0,0
210949,422.535211267606,4,1,0,100,1,1
210949,-111.111111111111,4,1,0,100,0,1
224470,-111.111111111111,4,1,0,100,0,0
225315,-111.111111111111,4,1,0,100,0,1
236195,-111.111111111111,4,1,0,5,0,1
236301,-111.111111111111,4,1,0,5,0,0
236406,-111.111111111111,4,1,0,5,0,0

[HitObjects]
125,156,10063,5,0,0:0:0:0:
294,176,13443,1,0,0:0:0:0:
173,153,16824,1,0,0:0:0:0:
404,252,21894,5,8,0:0:0:0:
132,118,28655,5,0,0:0:0:0:
124,109,35415,5,0,0:0:0:0:
179,138,36260,1,8,0:0:0:0:
168,114,39218,1,0,0:0:0:0:
223,131,40063,1,8,0:0:0:0:
69,108,42317,1,0,0:0:0:0:
127,132,43021,1,8,0:0:0:0:
61,149,48936,5,0,0:0:0:0:
201,162,49922,5,8,0:0:0:0:
199,209,52317,1,0,0:0:0:0:
261,213,52739,1,8,0:0:0:0:
376,161,53584,1,8,0:0:0:0:
334,179,55697,1,8,0:0:0:0:
255,167,56542,1,0,0:0:0:0:
116,227,59077,1,8,0:0:0:0:
221,197,59922,1,8,0:0:0:0:
179,151,62458,1,0,0:0:0:0:
298,167,63303,1,8,0:0:0:0:
232,200,65838,1,0,0:0:0:0:
290,198,66260,1,8,0:0:0:0:
398,148,67105,1,0,0:0:0:0:
341,229,69218,1,8,0:0:0:0:
215,94,69641,1,0,0:0:0:0:
283,185,70063,1,8,0:0:0:0:
428,194,72598,1,8,0:0:0:0:
341,164,73443,1,8,0:0:0:0:
256,192,74289,8,0,75767,0:0:0:0:
247,159,75979,5,4,0:0:0:0:
248,159,76824,1,8,0:0:0:0:
244,156,77669,1,8,0:0:0:0:
342,230,78091,1,8,0:0:0:0:
242,154,78514,1,0,0:0:0:0:
247,159,79359,1,8,0:0:0:0:
248,159,80204,1,8,0:0:0:0:
347,234,80627,1,0,0:0:0:0:
244,156,81049,1,0,0:0:0:0:
342,230,81472,1,12,0:0:0:0:
365,174,82739,1,0,0:0:0:0:
137,106,83584,1,8,0:0:0:0:
136,152,84429,1,8,0:0:0:0:
138,177,85274,1,0,0:0:0:0:
250,139,86120,1,0,0:0:0:0:
250,144,86965,1,8,0:0:0:0:
249,192,87810,1,8,0:0:0:0:
247,159,89500,1,0,0:0:0:0:
350,235,89922,1,0,0:0:0:0:
248,159,90345,1,8,0:0:0:0:
244,156,91190,1,0,0:0:0:0:
242,154,92035,1,8,0:0:0:0:
341,230,92458,1,0,0:0:0:0:
247,159,92880,1,8,0:0:0:0:
248,159,93725,1,8,0:0:0:0:
347,234,94148,1,0,0:0:0:0:
244,156,94570,1,0,0:0:0:0:
342,230,94993,1,12,0:0:0:0:
365,174,96260,1,0,0:0:0:0:
137,106,97105,1,8,0:0:0:0:
136,152,97951,1,8,0:0:0:0:
138,177,98796,1,0,0:0:0:0:
288,179,99641,1,12,0:0:0:0:
250,144,100486,1,8,0:0:0:0:
256,159,100908,1,8,0:0:0:0:
237,191,101331,1,0,0:0:0:0:
237,191,101753,1,0,0:0:0:0:
226,202,102176,1,8,0:0:0:0:
257,201,103021,1,8,0:0:0:0:
343,178,106401,1,12,0:0:0:0:
317,208,107246,1,8,0:0:0:0:
189,207,107669,1,8,0:0:0:0:
362,217,108091,1,0,0:0:0:0:
276,180,108936,1,0,0:0:0:0:
164,175,109359,1,0,0:0:0:0:
203,169,109782,1,8,0:0:0:0:
249,57,110204,1,0,0:0:0:0:
219,109,110627,1,8,0:0:0:0:
193,76,111472,1,0,0:0:0:0:
196,164,112317,1,8,0:0:0:0:
218,193,112739,1,0,0:0:0:0:
343,178,113162,1,8,0:0:0:0:
317,208,114007,1,8,0:0:0:0:
362,217,114852,1,0,0:0:0:0:
276,180,115697,1,8,0:0:0:0:
164,175,116120,1,8,0:0:0:0:
203,169,116542,1,0,0:0:0:0:
219,109,117387,1,8,0:0:0:0:
259,74,117810,1,0,0:0:0:0:
196,164,119077,1,8,0:0:0:0:
141,162,119922,1,8,0:0:0:0:
232,62,120345,1,0,0:0:0:0:
317,208,120767,1,8,0:0:0:0:
189,207,121190,1,8,0:0:0:0:
362,217,121612,1,0,0:0:0:0:
276,180,122457,1,8,0:0:0:0:
164,175,122880,1,8,0:0:0:0:
203,169,123303,1,0,0:0:0:0:
249,57,123725,1,0,0:0:0:0:
219,109,124148,1,8,0:0:0:0:
193,76,124993,1,0,0:0:0:0:
196,164,125838,1,0,0:0:0:0:
218,193,126260,1,0,0:0:0:0:
343,178,126683,1,8,0:0:0:0:
317,208,127528,1,8,0:0:0:0:
362,217,128373,1,0,0:0:0:0:
276,180,129218,1,8,0:0:0:0:
203,169,129641,1,0,0:0:0:0:
164,175,130063,1,8,0:0:0:0:
219,109,130908,1,8,0:0:0:0:
259,74,131331,1,0,0:0:0:0:
361,102,131753,6,0,L|506:26,1,157.499995193482
256,192,132598,12,0,133232,0:0:0:0:
226,106,133442,5,0,0:0:0:0:
154,110,135442,1,0,0:0:0:0:
332,192,137442,1,8,0:0:0:0:
256,192,144928,12,0,146513,0:0:0:0:
66,188,146724,5,4,0:0:0:0:
198,193,147146,1,0,0:0:0:0:
323,207,147569,1,8,0:0:0:0:
205,191,147991,1,0,0:0:0:0:
249,83,148836,1,0,0:0:0:0:
337,172,149259,1,8,0:0:0:0:
313,230,150104,1,0,0:0:0:0:
278,168,150949,1,8,0:0:0:0:
155,138,151372,1,0,0:0:0:0:
258,200,151794,1,8,0:0:0:0:
161,115,152639,1,8,0:0:0:0:
66,188,153484,1,0,0:0:0:0:
198,193,153907,1,0,0:0:0:0:
323,207,154329,1,8,0:0:0:0:
205,191,154752,1,0,0:0:0:0:
249,83,155597,1,0,0:0:0:0:
337,172,156020,1,8,0:0:0:0:
313,230,156865,1,0,0:0:0:0:
278,168,157710,1,8,0:0:0:0:
155,138,158132,1,0,0:0:0:0:
276,199,160245,1,12,0:0:0:0:
192,303,160879,1,12,0:0:0:0:
272,140,161513,1,4,0:0:0:0:
256,192,161935,8,0,163414,0:0:0:0:
226,172,163625,5,12,0:0:0:0:
56,255,164259,1,12,0:0:0:0:
230,194,164893,1,4,0:0:0:0:
290,188,166583,1,0,0:0:0:0:
261,214,167217,1,8,0:0:0:0:
261,214,167851,1,8,0:0:0:0:
265,220,168273,1,0,0:0:0:0:
142,189,168907,1,0,0:0:0:0:
322,191,169541,1,8,0:0:0:0:
384,197,169963,1,0,0:0:0:0:
240,169,170597,1,8,0:0:0:0:
301,184,171231,1,8,0:0:0:0:
307,187,171653,1,0,0:0:0:0:
277,131,172287,1,0,0:0:0:0:
224,180,173766,1,4,0:0:0:0:
259,234,174189,1,8,0:0:0:0:
333,200,174611,1,8,0:0:0:0:
273,220,175034,1,0,0:0:0:0:
249,202,175456,1,8,0:0:0:0:
197,80,176301,1,8,0:0:0:0:
249,202,176724,1,0,0:0:0:0:
217,200,177146,1,0,0:0:0:0:
155,198,177569,1,8,0:0:0:0:
234,174,177991,1,8,0:0:0:0:
209,164,178414,1,0,0:0:0:0:
317,231,178836,1,12,0:0:0:0:
248,159,182217,1,8,0:0:0:0:
247,159,183062,1,0,0:0:0:0:
244,156,183907,1,8,0:0:0:0:
242,154,184329,1,0,0:0:0:0:
342,230,184752,1,8,0:0:0:0:
247,159,185597,1,8,0:0:0:0:
248,159,186442,1,8,0:0:0:0:
347,234,186865,1,0,0:0:0:0:
244,156,187287,1,0,0:0:0:0:
342,230,187710,1,12,0:0:0:0:
365,174,188977,1,0,0:0:0:0:
137,106,189822,1,8,0:0:0:0:
136,152,190667,1,8,0:0:0:0:
138,177,191513,1,0,0:0:0:0:
250,139,192358,1,0,0:0:0:0:
250,144,193203,1,8,0:0:0:0:
249,192,194048,1,8,0:0:0:0:
247,159,195738,1,0,0:0:0:0:
350,235,196160,1,0,0:0:0:0:
248,159,196583,1,8,0:0:0:0:
244,156,197428,1,0,0:0:0:0:
242,154,198273,1,8,0:0:0:0:
341,230,198696,1,0,0:0:0:0:
247,159,199118,1,8,0:0:0:0:
248,159,199963,1,8,0:0:0:0:
347,234,200386,1,0,0:0:0:0:
244,156,200808,1,0,0:0:0:0:
342,230,201231,1,12,0:0:0:0:
365,174,202498,1,0,0:0:0:0:
137,106,203344,1,8,0:0:0:0:
136,152,204189,1,8,0:0:0:0:
138,177,205034,1,0,0:0:0:0:
288,179,205879,1,12,0:0:0:0:
189,119,206301,1,0,0:0:0:0:
237,191,206724,1,0,0:0:0:0:
250,144,207146,1,8,0:0:0:0:
343,178,210949,1,12,0:0:0:0:
317,208,211794,1,8,0:0:0:0:
189,207,212217,1,8,0:0:0:0:
362,217,212639,1,0,0:0:0:0:
276,180,213484,1,0,0:0:0:0:
164,175,213907,1,0,0:0:0:0:
203,169,214330,1,8,0:0:0:0:
249,57,214752,1,0,0:0:0:0:
219,109,215175,1,8,0:0:0:0:
193,76,216020,1,0,0:0:0:0:
196,164,216865,1,8,0:0:0:0:
218,193,217287,1,0,0:0:0:0:
343,178,217710,1,8,0:0:0:0:
317,208,218555,1,8,0:0:0:0:
362,217,219400,1,0,0:0:0:0:
276,180,220245,1,8,0:0:0:0:
164,175,220668,1,8,0:0:0:0:
203,169,221090,1,0,0:0:0:0:
219,109,221935,1,8,0:0:0:0:
259,74,222358,1,0,0:0:0:0:
196,164,223625,1,8,0:0:0:0:
141,162,224470,1,8,0:0:0:0:
232,62,224893,1,0,0:0:0:0:
317,208,225315,1,8,0:0:0:0:
189,207,225738,1,8,0:0:0:0:
362,217,226160,1,0,0:0:0:0:
276,180,227005,1,8,0:0:0:0:
164,175,227428,1,8,0:0:0:0:
203,169,227851,1,0,0:0:0:0:
249,57,228273,1,0,0:0:0:0:
219,109,228696,1,8,0:0:0:0:
193,76,229541,1,0,0:0:0:0:
196,164,230386,1,0,0:0:0:0:
218,193,230808,1,0,0:0:0:0:
343,178,231231,1,8,0:0:0:0:
317,208,232076,1,8,0:0:0:0:
362,217,232921,1,0,0:0:0:0:
276,180,233766,1,8,0:0:0:0:
203,169,234189,1,0,0:0:0:0:
164,175,234611,1,8,0:0:0:0:
290,166,235033,1,8,0:0:0:0:
219,109,235456,1,0,0:0:0:0:
259,74,235879,1,8,0:0:0:0:
256,192,236301,12,0,237991,0:0:0:0:
