osu file format v14

[General]
AudioFilename: audio.mp3
AudioLeadIn: 0
PreviewTime: 102915
Countdown: 0
SampleSet: Normal
StackLeniency: 0.7
Mode: 1
LetterboxInBreaks: 0
WidescreenStoryboard: 0

[Editor]
DistanceSpacing: 0.9
BeatDivisor: 4
GridSize: 32
TimelineZoom: 2.3

[Metadata]
Title:Put It Straight (Nightmare Version)
TitleUnicode:싫다고 말해 (Nightmare Version)
Artist:(G)I-DLE
ArtistUnicode:(여자)아이들
Creator:clockbite
Version:It Hurts
Source:퀸덤
Tags:blackener lexa14 korean pop kpop k-pop hip-hop hiphop hip hop trap orchestral drums gidle (g)idle gi-dle 여자아이들 여자 아이들 i made queendom <팬도라의 상자> part. 1 mnet soyeon 소연 miyeon 미연 minnie 민니 yuqi 우기 shuhua 슈화 soojin 수진 ver.
BeatmapID:3369378
BeatmapSetID:1650475

[Difficulty]
HPDrainRate:5
CircleSize:5
OverallDifficulty:6
ApproachRate:5
SliderMultiplier:1.4
SliderTickRate:1

[Events]
//Background and Video events
0,0,"1.jpg",0,-50
//Break Periods
2,18514,20694
2,22317,27455
2,138017,143834
//Storyboard Layer 0 (Background)
//Storyboard Layer 1 (Fail)
//Storyboard Layer 2 (Pass)
//Storyboard Layer 3 (Foreground)
//Storyboard Layer 4 (Overlay)
//Storyboard Sound Samples

[TimingPoints]
1613,422.535211267606,4,1,0,20,1,8
1613,-666.666666666667,4,1,0,20,0,0
10063,-666.666666666667,4,1,0,20,0,0
13443,-666.666666666667,4,1,0,20,0,0
16823,-666.666666666667,4,1,0,20,0,0
30344,-571.428571428571,4,1,0,5,0,0
32034,-500,4,1,0,5,0,0
32139,-10,4,1,0,5,0,0
32456,-666.666666666667,4,1,0,5,0,0
32562,-666.666666666667,4,1,0,5,0,0
33724,-444.444444444444,4,1,0,5,0,0
35308,-400,4,1,0,20,0,0
43865,-357.142857142857,4,1,0,20,0,0
45555,-322.58064516129,4,1,0,5,0,0
47245,-294.117647058824,4,1,0,5,0,0
47351,-10,4,1,0,5,0,0
47668,-270.27027027027,4,1,0,5,0,0
47773,-270.27027027027,4,1,0,5,0,0
48830,-212.765957446809,4,1,0,30,0,0
49041,-270.27027027027,4,1,0,30,0,0
55590,-212.765957446809,4,1,0,30,0,0
55801,-200,4,1,0,30,0,0
56013,-270.27027027027,4,1,0,30,0,0
58970,-212.765957446809,4,1,0,30,0,0
59182,-200,4,1,0,30,0,0
59393,-270.27027027027,4,1,0,30,0,0
60793,-10,4,1,0,30,0,0
60819,-270.27027027027,4,1,0,30,0,0
61664,-10,4,1,0,30,0,0
61690,-270.27027027027,4,1,0,30,0,0
69111,-212.765957446809,4,1,0,65,0,0
69322,-200,4,1,0,60,0,0
69428,-188.679245283019,4,1,0,55,0,0
69534,-178.571428571429,4,1,0,50,0,0
69745,-270.27027027027,4,1,0,50,0,0
72492,-212.765957446809,4,1,0,30,0,0
72703,-200,4,1,0,30,0,0
72915,-270.27027027027,4,1,0,30,0,0
74267,-71.4285714285714,4,1,0,30,0,0
74408,-72.8476965922576,4,1,0,30,0,0
74548,-74.3242992147638,4,1,0,30,0,0
74689,-75.862058501785,4,1,0,30,0,0
74830,-77.4647941876616,4,1,0,30,0,0
74971,-79.136713420637,4,1,0,30,0,0
75041,-80,4,1,0,30,0,0
75112,-80.8823291522561,4,1,0,30,0,0
75253,-82.7067606987398,4,1,0,30,0,0
75394,-84.6153976331381,4,1,0,30,0,0
75534,-73.8255281293719,4,1,0,30,0,0
75605,-74.5762762424594,4,1,0,30,0,0
75675,-75.3424502720993,4,1,0,30,0,0
75746,-76.1245885465989,4,1,0,30,0,0
75816,-76.9230769230769,4,1,0,30,0,0
75925,-71.4285714285714,4,1,0,50,0,0
76083,-111.111111111111,4,1,0,50,0,0
76400,-111.111111111111,4,1,0,50,0,0
76611,-110.694408161277,4,1,0,50,0,0
76823,-110.280697459243,4,1,0,50,0,0
77034,-109.870188372438,4,1,0,50,0,0
77245,-109.462604290496,4,1,0,50,0,0
77668,-108.656559433508,4,1,0,50,0,0
78075,-107.8624150179,4,1,0,50,0,0
78286,-107.4695646193,4,1,0,50,0,0
78498,-107.07968013158,4,1,0,50,0,0
78709,-106.692500477449,4,1,0,50,0,0
78920,-106.30822368526,4,1,0,50,0,0
79131,-105.92659287114,4,1,0,50,0,0
79343,-105.547803655754,4,1,0,50,0,0
79765,-104.798184895438,4,1,0,50,0,0
79977,-104.427408853147,4,1,0,50,0,0
80188,-104.059138889814,4,1,0,50,0,0
80399,-103.69356477737,4,1,0,50,0,0
80610,-103.330443525263,4,1,0,50,0,0
81033,-102.611988158577,4,1,0,50,0,0
81455,-81.3008130081301,4,1,0,50,0,0
81596,-85.4700854700855,4,1,0,50,0,0
81737,-90.0900900900901,4,1,0,50,0,0
81878,-95.2380952380952,4,1,0,50,0,0
82089,-100.858507616834,4,1,0,50,0,0
82300,-100.515039060144,4,1,0,50,0,0
82512,-100.173901893687,4,1,0,50,0,0
82723,-99.8349727899782,4,1,0,50,0,0
83146,-99.1640470830896,4,1,0,50,0,0
83568,-98.5020788863749,4,1,0,50,0,0
83991,-97.8489857463382,4,1,0,50,0,0
84413,-97.2044014152961,4,1,0,50,0,0
84836,-96.568253959057,4,1,0,50,0,0
85258,-95.9403788109917,4,1,0,50,0,0
85681,-95.3206156567924,4,1,0,50,0,0
86103,-94.7088082980069,4,1,0,50,0,0
86526,-94.1048045207948,4,1,0,50,0,0
86948,-93.5085434080685,4,1,0,50,0,0
87371,-92.9197043666686,4,1,0,50,0,0
87793,-92.3382349546388,4,1,0,50,0,0
88216,-91.7639976802061,4,1,0,50,0,0
88638,-91.1968584506201,4,1,0,50,0,0
89061,-90.6366864677615,4,1,0,50,0,0
89484,-90.0833541275743,4,1,0,50,0,0
89695,-89.8092541251636,4,1,0,50,0,0
89906,-89.5367369231596,4,1,0,50,0,0
90117,-89.2659482543151,4,1,0,50,0,0
90329,-88.9967925555963,4,1,0,50,0,0
90540,-88.7291763714203,4,1,0,50,0,0
90751,-88.463243080184,4,1,0,50,0,0
90962,-88.198821310952,4,1,0,50,0,0
91174,-87.9360529023294,4,1,0,50,0,0
91385,-87.6747686920415,4,1,0,50,0,0
91596,-87.4151090022702,4,1,0,50,0,0
91808,-87.1569827995694,4,1,0,50,0,0
92019,-86.9003010226427,4,1,0,50,0,0
92230,-86.6452017620168,4,1,0,50,0,0
92441,-86.3915211905443,4,1,0,50,0,0
92653,-86.139395938872,4,1,0,50,0,0
92864,-85.888664242316,4,1,0,50,0,0
93075,-85.6394612935327,4,1,0,50,0,0
93286,-85.3917002683007,4,1,0,50,0,0
93498,-85.1452961906846,4,1,0,50,0,0
93709,-84.90038213662,4,1,0,50,0,0
93920,-84.6568013274186,4,1,0,50,0,0
94131,-84.4146854539991,4,1,0,50,0,0
94343,-84.1738796667051,4,1,0,50,0,0
94554,-83.9345142919494,4,1,0,50,0,0
94765,-83.6965064241253,4,1,0,50,0,0
94977,-66.2251655629139,4,1,0,50,0,0
95117,-69.9300699300699,4,1,0,50,0,0
95258,-74.0740740740741,4,1,0,50,0,0
95399,-78.7401574803149,4,1,0,50,0,0
95610,-82.7576846717044,4,1,0,50,0,0
95822,-82.5262268348881,4,1,0,50,0,0
96033,-82.2961278025946,4,1,0,50,0,0
96244,-82.0673083235947,4,1,0,50,0,0
96667,-81.6133989613879,4,1,0,50,0,0
97089,-81.1644830715238,4,1,0,50,0,0
97512,-80.7204787047269,4,1,0,50,0,0
97934,-80.2813056951558,4,1,0,50,0,0
98357,-79.8468856121501,4,1,0,50,0,0
98779,-79.417141713536,4,1,0,50,0,0
99202,-78.9920612978396,4,1,0,50,0,0
99624,-55.5555555555556,4,1,0,50,0,0
99765,-58.8235294117647,4,1,0,50,0,0
99906,-62.5,4,1,0,50,0,0
100047,-66.6666666666667,4,1,0,50,0,0
100220,-71.4285714285714,4,1,0,50,0,0
100432,-69.9300699300699,4,1,0,50,0,0
100643,-68.4931506849315,4,1,0,50,0,0
100854,-67.1140939597315,4,1,0,50,0,0
101065,-65.7894736842105,4,1,0,50,0,0
101277,-64.5161290322581,4,1,0,50,0,0
101488,-63.2911392405063,4,1,0,50,0,0
101699,-62.111801242236,4,1,0,50,0,0
101911,-60.9756097560976,4,1,0,50,0,0
102122,-61.7283950617284,4,1,0,65,0,0
102280,-64.1025641025641,4,1,0,60,0,0
102386,-67.5675675675676,4,1,0,55,0,0
102492,-71.4285714285714,4,1,0,50,0,0
102914,-90.9090909090909,4,1,0,40,0,0
103336,-105.263157894737,4,1,0,35,0,0
103758,-111.111111111111,4,1,0,30,0,0
104180,-117.647058823529,4,1,0,25,0,0
104711,-125,4,1,0,25,0,0
106401,-62.5,4,1,0,100,0,1
106593,-63.1147375436754,4,1,0,100,0,1
106804,-63.7417287139278,4,1,0,100,0,1
107015,-64.3812606752178,4,1,0,100,0,1
107121,-64.7058633218049,4,1,0,100,0,1
107226,-65.0337980648543,4,1,0,100,0,1
107438,-65.6996553396081,4,1,0,100,0,1
107649,-66.3792885998882,4,1,0,100,0,1
107860,-67.073174821535,4,1,0,100,0,1
108071,-67.7816752241032,4,1,0,100,0,1
108177,-68.141614629187,4,1,0,100,0,1
108283,-68.5053502678559,4,1,0,100,0,1
108388,-68.8729899417885,4,1,0,100,0,1
108494,-69.2445968441083,4,1,0,100,0,1
108705,-70.0000210000063,4,1,0,100,0,1
108916,-70.7720594740079,4,1,0,100,0,1
109128,-71.5613176728546,4,1,0,100,0,1
109339,-72.3684305747935,4,1,0,100,0,1
109445,-72.7788266015345,4,1,0,100,0,1
109550,-73.1939038261381,4,1,0,100,0,1
109762,-74.0384807599902,4,1,0,100,0,1
112297,-74.0740740740741,4,1,0,100,0,1
112402,-73.0593607305936,4,1,0,100,0,1
112508,-72.0720720720721,4,1,0,100,0,1
112614,-71.1111111111111,4,1,0,100,0,1
112719,-70.1754385964912,4,1,0,100,0,1
112825,-69.2640692640693,4,1,0,100,0,1
112931,-68.3760683760684,4,1,0,100,0,1
113036,-67.5105485232068,4,1,0,100,0,1
113142,-62.5,4,1,0,100,0,1
113354,-63.1579080332438,4,1,0,100,0,1
113565,-63.8297736532396,4,1,0,100,0,1
113776,-64.5161290322581,4,1,0,100,0,1
113881,-64.8648508400323,4,1,0,100,0,1
113987,-65.2174054820447,4,1,0,100,0,1
114199,-65.9340514430656,4,1,0,100,0,1
114410,-66.6666666666667,4,1,0,100,0,1
114621,-67.4157454866844,4,1,0,100,0,1
114832,-68.1818026859539,4,1,0,100,0,1
114938,-68.5714442449015,4,1,0,100,0,1
115044,-68.9655172413793,4,1,0,100,0,1
115149,-69.3641458117582,4,1,0,100,0,1
115255,-69.7674580854554,4,1,0,100,0,1
115466,-70.588218685125,4,1,0,100,0,1
115677,-71.4285714285714,4,1,0,100,0,1
115889,-72.2891740455841,4,1,0,100,0,1
116100,-73.1707138608015,4,1,0,100,0,1
116205,-73.6196499680123,4,1,0,100,0,1
116311,-74.0740740740741,4,1,0,100,0,1
116523,-72.9613859161178,4,1,0,100,0,1
116734,-71.8816310804672,4,1,0,100,0,1
116945,-70.833318576392,4,1,0,100,0,1
117156,-69.8151922047149,4,1,0,100,0,1
117368,-68.8259192905975,4,1,0,100,0,1
117579,-67.864290421159,4,1,0,100,0,1
117790,-66.9291180482398,4,1,0,100,0,1
118001,-66.0194123480068,4,1,0,100,0,1
118213,-65.1341046079774,4,1,0,100,0,1
118424,-64.2722262999379,4,1,0,100,0,1
118635,-63.4328192526218,4,1,0,100,0,1
118846,-62.6150943703395,4,1,0,100,0,1
119058,-61.8181840661158,4,1,0,100,0,1
119163,-61.4272875982606,4,1,0,100,0,1
119269,-61.0413035980796,4,1,0,100,0,1
119374,-60.6601400399993,4,1,0,100,0,1
119480,-60.2836708415118,4,1,0,100,0,1
119585,-59.911881604536,4,1,0,100,0,1
119692,-59.5446501513625,4,1,0,100,0,1
119797,-59.1818931814174,4,1,0,100,0,1
119922,-58.8235294117647,4,1,0,100,0,0
120043,-61.7906815944715,4,1,0,100,0,0
120184,-65.0730282059041,4,1,0,100,0,0
120325,-68.7237045925303,4,1,0,100,0,0
120767,-65.0337980648543,4,1,0,100,0,1
120959,-65.6996553396081,4,1,0,100,0,1
121170,-66.3792885998882,4,1,0,100,0,1
121381,-67.073174821535,4,1,0,100,0,1
121592,-67.7816752241032,4,1,0,100,0,1
121698,-68.141614629187,4,1,0,100,0,1
121804,-68.5053502678559,4,1,0,100,0,1
121909,-68.8729899417885,4,1,0,100,0,1
122015,-69.2445968441083,4,1,0,100,0,1
122226,-70.0000210000063,4,1,0,100,0,1
122437,-70.7720594740079,4,1,0,100,0,1
122649,-71.5613176728546,4,1,0,100,0,1
122860,-72.3684305747935,4,1,0,100,0,1
122966,-72.7788266015345,4,1,0,100,0,1
123071,-73.1939038261381,4,1,0,100,0,1
123283,-74.0384807599902,4,1,0,100,0,1
125818,-74.0740740740741,4,1,0,100,0,1
125923,-73.0593607305936,4,1,0,100,0,1
126029,-72.0720720720721,4,1,0,100,0,1
126135,-71.1111111111111,4,1,0,100,0,1
126240,-70.1754385964912,4,1,0,100,0,1
126346,-69.2640692640693,4,1,0,100,0,1
126452,-68.3760683760684,4,1,0,100,0,1
126557,-67.5105485232068,4,1,0,100,0,1
126663,-62.5,4,1,0,100,0,1
126875,-63.1579080332438,4,1,0,100,0,1
127086,-63.8297736532396,4,1,0,100,0,1
127297,-64.5161290322581,4,1,0,100,0,1
127402,-64.8648508400323,4,1,0,100,0,1
127508,-65.2174054820447,4,1,0,100,0,1
127720,-65.9340514430656,4,1,0,100,0,1
127931,-66.6666666666667,4,1,0,100,0,1
128142,-67.4157454866844,4,1,0,100,0,1
128353,-68.1818026859539,4,1,0,100,0,1
128459,-68.5714442449015,4,1,0,100,0,1
128565,-68.9655172413793,4,1,0,100,0,1
128670,-69.3641458117582,4,1,0,100,0,1
128776,-69.7674580854554,4,1,0,100,0,1
128987,-70.588218685125,4,1,0,100,0,1
129198,-71.4285714285714,4,1,0,100,0,1
129410,-72.2891740455841,4,1,0,100,0,1
129621,-73.1707138608015,4,1,0,100,0,1
129726,-73.6196499680123,4,1,0,100,0,1
129832,-74.0740740740741,4,1,0,100,0,1
130044,-74.0740740740741,4,1,0,100,0,1
130255,-71.4285714285714,4,1,0,100,0,1
130466,-68.9655172413793,4,1,0,100,0,1
130677,-66.6666666666667,4,1,0,100,0,1
130889,-64.5161290322581,4,1,0,100,0,1
131100,-62.5,4,1,0,100,0,1
131311,-60.6060606060606,4,1,0,100,0,1
131522,-58.8235294117647,4,1,0,100,0,1
131648,-73.8007380073801,4,1,0,30,0,1
131735,-73.5294117647059,4,1,0,25,0,1
131753,-73.5294117647059,4,1,0,25,0,0
131875,-73.0994152046784,4,1,0,25,0,0
132052,-71.9424460431655,4,1,0,25,0,0
132228,-70.4225352112676,4,1,0,25,0,0
132630,-66.6666666666667,4,1,0,25,0,0
132736,-65.7894736842105,4,1,0,25,0,0
132856,-65.359477124183,4,1,0,25,0,0
132927,-63.6451350931637,4,1,0,25,0,0
132997,-62.018426915005,4,1,0,25,0,0
133068,-60.4728005437714,4,1,0,25,0,0
133138,-59.0023412128993,4,1,0,30,0,0
133442,500,4,1,0,30,1,0
133442,-72.2908985758693,4,1,0,30,0,0
133692,-76.9230769230769,4,1,0,30,0,0
135317,-92.3105326317733,4,1,0,30,0,0
135692,-100,4,1,0,30,0,0
137317,-113.636363636364,4,1,0,30,0,0
137692,-125,4,1,0,30,0,0
139442,-153.846153846154,4,1,0,30,0,0
141442,-200,4,1,0,30,0,0
143344,422.535211267606,4,1,0,30,1,8
143344,-100,4,1,0,30,0,8
145014,-76.9230769230769,4,1,0,30,0,8
145084,-75.9493478609246,4,1,0,30,0,8
145154,-75.0000187500047,4,1,0,30,0,8
145225,-74.0740740740741,4,1,0,30,0,8
145366,-72.2891740455841,4,1,0,30,0,8
145507,-70.588218685125,4,1,0,30,0,8
145683,-68.5714442449015,4,1,0,30,0,8
145824,-67.0390911644489,4,1,0,30,0,8
145964,-65.5737704918033,4,1,0,30,0,8
146070,-64.5161290322581,4,1,0,30,0,8
146176,-63.4920634920635,4,1,0,30,0,8
146281,-62.5,4,1,0,30,0,8
146352,-61.855657349349,4,1,0,30,0,8
146422,-61.2245022907148,4,1,0,30,0,8
146493,-60.6060606060606,4,1,0,30,0,8
146563,-59.9999880000024,4,1,0,30,0,8
146633,-59.4059523576143,4,1,0,30,0,8
146724,-58.8235294117648,4,1,0,100,0,8
147020,-66.6666666666667,4,1,0,100,0,8
147443,-71.4285714285714,4,1,0,100,0,8
147865,-76.9230769230769,4,1,0,100,0,8
148130,-78.125,4,1,0,100,0,8
148235,-79.3650793650794,4,1,0,100,0,8
148341,-80.6451612903226,4,1,0,100,0,8
149239,-80.6451612903226,4,1,0,100,0,8
149450,-78.125,4,1,0,100,0,8
149661,-75.7575757575758,4,1,0,100,0,8
149767,-74.6268656716418,4,1,0,100,0,8
149873,-73.5294117647059,4,1,0,100,0,8
149978,-72.463768115942,4,1,0,100,0,8
150084,-71.4285714285714,4,1,0,100,0,8
150189,-83.3333333333333,4,1,0,100,0,8
151351,-83.3333333333333,4,1,0,100,0,8
151563,-81.9727899521033,4,1,0,100,0,8
151668,-81.3090100140177,4,1,0,100,0,8
151774,-80.6559587815788,4,1,0,100,0,8
151985,-79.3807665165576,4,1,0,100,0,8
152196,-78.1452689291285,4,1,0,100,0,8
152408,-76.9476409776967,4,1,0,100,0,8
152619,-75.7861678117957,4,1,0,100,0,8
152725,-75.2184531926848,4,1,0,100,0,8
152830,-74.6592365794423,4,1,0,100,0,8
152936,-74.1082187496758,4,1,0,100,0,8
153042,-73.5653289547249,4,1,0,100,0,8
153253,-72.5030143128201,4,1,0,100,0,8
153358,-71.9832538158323,4,1,0,100,0,8
153464,-71.470943487925,4,1,0,100,0,8
153570,-83.3910121167141,4,1,0,100,0,8
154732,-83.3333333333333,4,1,0,100,0,8
154943,-81.9672131147541,4,1,0,100,0,8
155049,-81.3008130081301,4,1,0,100,0,8
155154,-80.6451612903226,4,1,0,100,0,8
155365,-79.3650793650794,4,1,0,100,0,8
155577,-78.125,4,1,0,100,0,8
155788,-76.9230769230769,4,1,0,100,0,8
155999,-75.7575757575758,4,1,0,100,0,8
156105,-75.187969924812,4,1,0,100,0,8
156211,-74.6268656716418,4,1,0,100,0,8
156316,-74.0740740740741,4,1,0,100,0,8
156422,-73.5294117647059,4,1,0,100,0,8
156527,-72.992700729927,4,1,0,100,0,8
156633,-72.463768115942,4,1,0,100,0,8
156739,-71.9424460431655,4,1,0,100,0,8
156844,-71.4285714285714,4,1,0,100,0,8
156950,-83.3333333333333,4,1,0,100,0,8
158112,-81.9672131147541,4,1,0,100,0,8
158323,-80.6451612903226,4,1,0,100,0,8
158429,-79.3650793650794,4,1,0,100,0,8
160235,-71.4285714285714,4,1,0,100,0,0
160773,-62.5,4,1,0,100,0,0
161407,-55.5555555555556,4,1,0,100,0,0
161915,-52.6315789473684,4,1,0,100,0,0
162056,-53.3980660288446,4,1,0,100,0,0
162196,-54.1871787716308,4,1,0,100,0,0
162337,-54.9999945000006,4,1,0,100,0,0
162478,-55.8375662861709,4,1,0,100,0,0
162619,-56.7010426187717,4,1,0,100,0,0
162689,-57.1428571428571,4,1,0,100,0,0
162760,-57.5916109755789,4,1,0,100,0,0
162901,-58.5106351856045,4,1,0,100,0,0
163042,-59.4594658875098,4,1,0,100,0,0
163182,-53.921581843525,4,1,0,100,0,0
163253,-54.320990336839,4,1,0,100,0,0
163323,-54.7263599910905,4,1,0,100,0,0
163394,-55.137855666738,4,1,0,100,0,0
163464,-55.5555555555556,4,1,0,100,0,0
163572,-52.6315789473684,4,1,0,100,0,0
164206,-47.6190476190476,4,1,0,100,0,0
164840,-43.4782608695652,4,1,0,100,0,0
165245,-71.4285714285714,4,1,0,100,0,0
166563,-62.5,4,1,0,100,0,0
166774,-64.8648508400323,4,1,0,100,0,0
166985,-67.4157454866844,4,1,0,100,0,0
167091,-68.7678925460418,4,1,0,100,0,0
167196,-70.1754385964912,4,1,0,100,0,0
167619,-76.4331404925199,4,1,0,100,0,0
167830,-50,4,1,0,100,0,0
168042,-58.8235294117647,4,1,0,100,0,0
168147,-59.7014925373134,4,1,0,100,0,0
168253,-60.6060606060606,4,1,0,100,0,0
168675,-64.5161290322581,4,1,0,100,0,0
168887,-66.6666666666667,4,1,0,100,0,0
169309,-71.4285714285714,4,1,0,100,0,0
169520,-40,4,1,0,100,0,0
169732,-55.5555555555556,4,1,0,100,0,0
169837,-56.3333310800001,4,1,0,100,0,0
169943,-57.1331934712757,4,1,0,100,0,0
170154,-58.8030521136169,4,1,0,100,0,0
170365,-60.573461070648,4,1,0,100,0,0
170471,-61.4992533990637,4,1,0,100,0,0
170577,-62.4538232044682,4,1,0,100,0,0
170999,-66.5878710192938,4,1,0,100,0,0
171211,-33.3333333333333,4,1,0,100,0,0
171422,-52.6315789473684,4,1,0,100,0,0
171527,-53.8720538720539,4,1,0,100,0,0
171633,-55.1724137931034,4,1,0,100,0,0
172056,-61.0687022900763,4,1,0,100,0,0
172267,-64.5161290322581,4,1,0,100,0,0
172901,-50,4,1,0,100,0,0
172936,-50.5319243011561,4,1,0,100,0,0
173112,-53.3707925135722,4,1,0,100,0,0
173147,-53.9772604597135,4,1,0,100,0,0
173323,-57.2289294527541,4,1,0,100,0,0
173358,-57.9268222040461,4,1,0,100,0,0
173534,-61.688297668244,4,1,0,100,0,0
173570,-62.5,4,1,0,100,0,0
173746,-58.8235294117647,4,1,0,100,0,0
173957,-62.5,4,1,0,100,0,0
174063,-64.5161290322581,4,1,0,100,0,0
174168,-66.6666666666667,4,1,0,100,0,0
174380,-45.4545454545455,4,1,0,100,0,0
174450,-46.551727348395,4,1,0,100,0,0
174520,-47.7031869545141,4,1,0,100,0,0
174591,-48.9130541115335,4,1,0,100,0,0
174802,-52.9411733564016,4,1,0,100,0,0
175013,-57.6923187869844,4,1,0,100,0,0
175119,-60.402668348277,4,1,0,100,0,0
175225,-63.3802727633419,4,1,0,100,0,0
175330,-66.6666666666667,4,1,0,100,0,0
175436,-55.5555555555556,4,1,0,100,0,0
175647,-58.8235294117647,4,1,0,100,0,0
175753,-60.6060606060606,4,1,0,100,0,0
175858,-62.5,4,1,0,100,0,0
176070,-43.4782608695652,4,1,0,100,0,0
176140,-44.4810572969395,4,1,0,100,0,0
176210,-45.5312034443445,4,1,0,100,0,0
176281,-46.6321340170226,4,1,0,100,0,0
176492,-50.2793268000376,4,1,0,100,0,0
176703,-54.5454644628117,4,1,0,100,0,0
176809,-56.9620108956934,4,1,0,100,0,0
176915,-59.602641112233,4,1,0,100,0,0
177020,-62.5,4,1,0,100,0,0
177126,-52.6315789473684,4,1,0,100,0,0
177337,-55.5555555555556,4,1,0,100,0,0
177443,-57.1428571428571,4,1,0,100,0,0
177548,-58.8235294117647,4,1,0,100,0,0
177760,-41.6666666666667,4,1,0,100,0,0
177830,-42.5867534755049,4,1,0,100,0,0
177900,-43.5483927159216,4,1,0,100,0,0
177971,-44.5544642682107,4,1,0,100,0,0
178182,-47.872337879131,4,1,0,100,0,0
178394,-38.4615384615385,4,1,0,100,0,0
178605,-43.4782608695652,4,1,0,100,0,0
178675,-45.4545454545455,4,1,0,100,0,0
178746,-47.6190476190476,4,1,0,100,0,0
178816,-38.4615384615385,4,1,0,100,0,0
179027,-33.3333333333333,4,1,0,100,0,0
180526,-125,4,1,0,100,0,0
182201,-125,4,1,0,50,0,0
182624,-123.70113805047,4,1,0,50,0,0
182835,-123.061625570237,4,1,0,50,0,0
183047,-122.428841296717,4,1,0,50,0,0
183258,-121.802531300205,4,1,0,50,0,0
183469,-121.182596724919,4,1,0,50,0,0
183892,-119.961324468991,4,1,0,50,0,0
184314,-118.7645635046,4,1,0,50,0,0
184525,-118.175092944711,4,1,0,50,0,0
184737,-117.591306709878,4,1,0,50,0,0
184948,-117.013396863807,4,1,0,50,0,0
185159,-116.441139586145,4,1,0,50,0,0
185370,-115.87445234837,4,1,0,50,0,0
185582,-115.313254220753,4,1,0,50,0,0
186004,-114.20687890873,4,1,0,50,0,0
186216,-113.661679192184,4,1,0,50,0,0
186427,-113.121660082986,4,1,0,50,0,0
186638,-112.586748089403,4,1,0,50,0,0
186849,-112.056745535939,4,1,0,50,0,0
187272,-111.011817207942,4,1,0,50,0,0
187694,-89.2857142857143,4,1,0,50,0,0
187835,-93.4579439252336,4,1,0,50,0,0
187976,-98.0392156862745,4,1,0,50,0,0
188117,-103.092783505155,4,1,0,50,0,0
188328,-108.482695925173,4,1,0,50,0,0
188539,-107.99066096764,4,1,0,50,0,0
188751,-107.502953643651,4,1,0,50,0,0
188962,-107.019746213374,4,1,0,50,0,0
188997,-106.939633646203,4,1,0,50,0,0
189385,-106.066246856462,4,1,0,50,0,0
189420,-105.987554941299,4,1,0,50,0,0
189807,-105.129477464445,4,1,0,50,0,0
190230,-104.209218764329,4,1,0,50,0,0
190441,-103.755104751154,4,1,0,50,0,0
190652,-103.304931364204,4,1,0,50,0,0
190687,-103.230281983838,4,1,0,50,0,0
191075,-102.416098171975,4,1,0,50,0,0
191497,-101.542532612923,4,1,0,50,0,0
191920,-100.683641928696,4,1,0,50,0,0
192342,-99.8392587933427,4,1,0,50,0,0
192378,-99.7695323802017,4,1,0,50,0,0
192765,-99.0088226761887,4,1,0,50,0,0
192800,-98.9402509718406,4,1,0,50,0,0
193187,-98.1921837057927,4,1,0,50,0,0
193610,-97.3889060401574,4,1,0,50,0,0
193821,-96.9920815664609,4,1,0,50,0,0
193856,-96.9262739989454,4,1,0,50,0,0
194032,-96.5985711139361,4,1,0,50,0,0
194068,-96.5332962645476,4,1,0,50,0,0
194455,-95.8210522684676,4,1,0,50,0,0
194490,-95.756823631252,4,1,0,50,0,0
194878,-95.0558595758798,4,1,0,50,0,0
195089,-94.6778727396841,4,1,0,50,0,0
195300,-94.3028801042613,4,1,0,50,0,0
195335,-94.2406699380745,4,1,0,50,0,0
195511,-93.9308462323868,4,1,0,50,0,0
195547,-93.8691257874446,4,1,0,50,0,0
195723,-93.5617362438518,4,1,0,50,0,0
195934,-93.1954289506008,4,1,0,50,0,0
196145,-92.8320649378861,4,1,0,50,0,0
196356,-92.4715233943707,4,1,0,50,0,0
196568,-92.1137715615311,4,1,0,50,0,0
196779,-91.7587771858317,4,1,0,50,0,0
196990,-91.4064249576103,4,1,0,50,0,0
197201,-91.0568513451373,4,1,0,50,0,0
197413,-90.7099413560229,4,1,0,50,0,0
197624,-90.365664662055,4,1,0,50,0,0
197835,-90.0239103505891,4,1,0,50,0,0
198047,-89.6848116977694,4,1,0,50,0,0
198258,-89.3482580663607,4,1,0,50,0,0
198469,-89.0142209119329,4,1,0,50,0,0
198680,-88.6826721153301,4,1,0,50,0,0
198892,-88.3535059112913,4,1,0,50,0,0
199103,-88.0268517108459,4,1,0,50,0,0
199314,-87.7026039780147,4,1,0,50,0,0
199525,-87.3807362176549,4,1,0,50,0,0
199737,-87.0612223221492,4,1,0,50,0,0
199948,-86.7439613191328,4,1,0,50,0,0
200159,-86.4290788907346,4,1,0,50,0,0
200370,-86.1164742537577,4,1,0,50,0,0
200582,-85.8061227816972,4,1,0,50,0,0
200793,-85.4980002017753,4,1,0,50,0,0
201004,-85.192010011765,4,1,0,50,0,0
201216,-66.6666666666667,4,1,0,50,0,0
201356,-69.9300699300699,4,1,0,50,0,0
201497,-74.0740740740741,4,1,0,50,0,0
201638,-78.7401574803149,4,1,0,50,0,0
201849,-83.9898540256337,4,1,0,50,0,0
202061,-83.6946150884652,4,1,0,50,0,0
202272,-83.401444513019,4,1,0,50,0,0
202483,-83.110320639617,4,1,0,50,0,0
202694,-82.8212221099535,4,1,0,50,0,0
202906,-82.5340597431045,4,1,0,50,0,0
203117,-82.2489494752928,4,1,0,50,0,0
203328,-81.9658022279944,4,1,0,50,0,0
203539,-81.6845977972931,4,1,0,50,0,0
203751,-81.4053162555834,4,1,0,50,0,0
203962,-81.1278721294931,4,1,0,50,0,0
204173,-80.8523781109974,4,1,0,50,0,0
204385,-80.57874880542,4,1,0,50,0,0
204596,-80.3069653443322,4,1,0,50,0,0
204807,-80.0370091130139,4,1,0,50,0,0
205018,-79.7687981155419,4,1,0,50,0,0
205230,-79.5024419175035,4,1,0,50,0,0
205441,-79.2378585810243,4,1,0,50,0,0
205652,-78.975030464618,4,1,0,50,0,0
205858,-55.5555555555556,4,1,0,50,0,0
205999,-58.8235294117647,4,1,0,50,0,0
206140,-62.5,4,1,0,50,0,0
206281,-66.6666666666667,4,1,0,50,0,0
206454,-71.4285714285714,4,1,0,50,0,0
206666,-69.9300699300699,4,1,0,50,0,0
206877,-68.4931506849315,4,1,0,50,0,0
207088,-67.1140939597315,4,1,0,50,0,0
207299,-65.7894736842105,4,1,0,50,0,0
207569,422.535211267606,8,1,0,50,1,0
207569,-65.7894736842105,8,1,0,50,0,0
210949,422.535211267606,4,1,0,100,1,1
210949,-62.5,4,1,0,100,0,1
211034,-62.8272119733588,4,1,0,100,0,1
211140,-63.1579080332438,4,1,0,100,0,1
211245,-63.4920634920635,4,1,0,100,0,1
211351,-63.8297736532396,4,1,0,100,0,1
211457,-64.1711367210988,4,1,0,100,0,1
211562,-64.5161290322581,4,1,0,100,0,1
211668,-64.8648508400323,4,1,0,100,0,1
211774,-65.2174054820447,4,1,0,100,0,1
211879,-65.5737704918033,4,1,0,100,0,1
211985,-65.9340514430656,4,1,0,100,0,1
212090,-66.2983571930071,4,1,0,100,0,1
212196,-66.6666666666667,4,1,0,100,0,1
212302,-67.0390911644489,4,1,0,100,0,1
212407,-67.4157454866844,4,1,0,100,0,1
212513,-67.7966101694915,4,1,0,100,0,1
212619,-68.1818026859539,4,1,0,100,0,1
212724,-68.5714442449015,4,1,0,100,0,1
212830,-68.9655172413793,4,1,0,100,0,1
212936,-69.3641458117582,4,1,0,100,0,1
213041,-69.7674580854554,4,1,0,100,0,1
213147,-70.1754385964912,4,1,0,100,0,1
213252,-70.588218685125,4,1,0,100,0,1
213358,-71.0059339659015,4,1,0,100,0,1
213464,-71.4285714285714,4,1,0,100,0,1
213569,-69.5652173913043,4,1,0,100,0,1
213675,-67.7966101694915,4,1,0,100,0,1
213781,-66.1157024793389,4,1,0,100,0,1
213886,-64.5161290322581,4,1,0,100,0,1
213992,-62.992125984252,4,1,0,100,0,1
214098,-61.5384615384615,4,1,0,100,0,1
214203,-60.1503759398496,4,1,0,100,0,1
214309,-58.8235294117647,4,1,0,100,0,1
214414,-59.2592592592593,4,1,0,100,0,1
214520,-59.7014925373134,4,1,0,100,0,1
214626,-60.1503759398496,4,1,0,100,0,1
214731,-60.6060606060606,4,1,0,100,0,1
214837,-61.0687022900763,4,1,0,100,0,1
214943,-61.5384615384615,4,1,0,100,0,1
215048,-62.015503875969,4,1,0,100,0,1
215154,-62.5,4,1,0,100,0,1
215259,-62.992125984252,4,1,0,100,0,1
215365,-63.4920634920635,4,1,0,100,0,1
215471,-64,4,1,0,100,0,1
215576,-64.5161290322581,4,1,0,100,0,1
215682,-65.0406504065041,4,1,0,100,0,1
215788,-65.5737704918033,4,1,0,100,0,1
215893,-66.1157024793389,4,1,0,100,0,1
215999,-66.6666666666667,4,1,0,100,0,1
216105,-67.2268907563025,4,1,0,100,0,1
216210,-67.7966101694915,4,1,0,100,0,1
216316,-68.3760683760684,4,1,0,100,0,1
216421,-68.9655172413793,4,1,0,100,0,1
216527,-69.5652173913043,4,1,0,100,0,1
216633,-70.1754385964912,4,1,0,100,0,1
216738,-70.7964601769911,4,1,0,100,0,1
216844,-71.4285714285714,4,1,0,100,0,1
216950,-68.9655172413793,4,1,0,100,0,1
217055,-66.6666666666667,4,1,0,100,0,1
217161,-64.5161290322581,4,1,0,100,0,1
217267,-62.5,4,1,0,100,0,1
217372,-60.6060606060606,4,1,0,100,0,1
217478,-58.8235294117647,4,1,0,100,0,1
217583,-57.1428571428571,4,1,0,100,0,1
217689,-55.5555555555556,4,1,0,100,0,1
217795,-56.0747768364069,4,1,0,100,0,1
217900,-56.6037629049504,4,1,0,100,0,1
218006,-57.1428571428571,4,1,0,100,0,1
218112,-57.6923187869844,4,1,0,100,0,1
218217,-58.2524158733173,4,1,0,100,0,1
218323,-58.8235294117647,4,1,0,100,0,1
218429,-59.4059523576143,4,1,0,100,0,1
218534,-59.9999880000024,4,1,0,100,0,1
218640,-60.6060606060606,4,1,0,100,0,1
218745,-61.2245022907148,4,1,0,100,0,1
218851,-61.855657349349,4,1,0,100,0,1
218957,-62.5,4,1,0,100,0,1
219062,-63.1579080332438,4,1,0,100,0,1
219168,-63.8297736532396,4,1,0,100,0,1
219274,-64.5161290322581,4,1,0,100,0,1
219379,-65.2174054820447,4,1,0,100,0,1
219485,-65.9340514430656,4,1,0,100,0,1
219590,-66.6666666666667,4,1,0,100,0,1
219696,-67.4157454866844,4,1,0,100,0,1
219802,-68.1818026859539,4,1,0,100,0,1
219907,-68.9655172413793,4,1,0,100,0,1
220013,-69.7674580854554,4,1,0,100,0,1
220119,-70.588218685125,4,1,0,100,0,1
220224,-71.4285714285714,4,1,0,100,0,1
220330,-70.8603222585736,4,1,0,100,0,1
220436,-70.3010925492793,4,1,0,100,0,1
220541,-69.75057195469,4,1,0,100,0,1
220647,-69.2086544038159,4,1,0,100,0,1
220752,-68.6750454800489,4,1,0,100,0,1
220858,-68.1496020063243,4,1,0,100,0,1
220964,-67.6321837214744,4,1,0,100,0,1
221069,-67.1225180609915,4,1,0,100,0,1
221175,-66.6204764696477,4,1,0,100,0,1
221281,-66.125932871598,4,1,0,100,0,1
221386,-65.6386343750841,4,1,0,100,0,1
221492,-65.158507844107,4,1,0,100,0,1
221598,-64.6853124235905,4,1,0,100,0,1
221703,-64.2189403489529,4,1,0,100,0,1
221809,-63.7592857429774,4,1,0,100,0,1
221914,-63.3061243610829,4,1,0,100,0,1
222020,-62.8593986115616,4,1,0,100,0,1
222126,-62.4188944490253,4,1,0,100,0,1
222231,-61.9845212253596,4,1,0,100,0,1
222337,-61.5561897211012,4,1,0,100,0,1
222443,-61.133700013266,4,1,0,100,0,1
222548,-60.7170071372842,4,1,0,100,0,1
222654,-60.3059198703181,4,1,0,100,0,1
222759,-59.9003617382845,4,1,0,100,0,1
222865,-59.500257338613,4,1,0,100,0,1
222971,-59.1054275331995,4,1,0,100,0,1
223076,-58.7158031822791,4,1,0,100,0,1
223182,-58.3313160419869,4,1,0,100,0,1
223288,-57.9517980124851,4,1,0,100,0,1
223393,-57.5772196881848,4,1,0,100,0,1
223499,-57.2074198023484,4,1,0,100,0,1
223605,-56.8423398126022,4,1,0,100,0,1
223710,-56.4819218312795,4,1,0,100,0,1
223816,-56.1260141269178,4,1,0,100,0,1
223921,-55.7745947836252,4,1,0,100,0,1
224027,-55.427517989001,4,1,0,100,0,1
224133,-55.0847340922174,4,1,0,100,0,1
224238,-54.7461939077341,4,1,0,100,0,1
224309,-54.5227730718567,4,1,0,100,0,1
224379,-54.3011978844253,4,1,0,100,0,1
224470,-54.0814163273959,4,1,0,100,0,0
224590,-57.1428571428571,4,1,0,100,0,0
224731,-60.6060606060606,4,1,0,100,0,0
224872,-64.5161290322581,4,1,0,100,0,0
225315,-55.5555555555556,4,1,0,100,0,1
225365,-56.0747768364069,4,1,0,100,0,1
225436,-56.6037629049504,4,1,0,100,0,1
225506,-57.1428571428571,4,1,0,100,0,1
225611,-57.9710144927536,4,1,0,100,0,1
225717,-58.8235294117647,4,1,0,100,0,1
225823,-59.7014925373134,4,1,0,100,0,1
225928,-60.6060606060606,4,1,0,100,0,1
226034,-61.5384615384615,4,1,0,100,0,1
226140,-62.5,4,1,0,100,0,1
226245,-63.4920634920635,4,1,0,100,0,1
226351,-64.5161290322581,4,1,0,100,0,1
226457,-65.5737704918033,4,1,0,100,0,1
226562,-66.6666666666667,4,1,0,100,0,1
226668,-67.7966101694915,4,1,0,100,0,1
226773,-68.9655172413793,4,1,0,100,0,1
226879,-70.1754385964912,4,1,0,100,0,1
226985,-71.4285714285714,4,1,0,100,0,1
227090,-68.9655172413793,4,1,0,100,0,1
227196,-66.6666666666667,4,1,0,100,0,1
227302,-64.5161290322581,4,1,0,100,0,1
227407,-62.5,4,1,0,100,0,1
227513,-60.6060606060606,4,1,0,100,0,1
227619,-58.8235294117647,4,1,0,100,0,1
227724,-57.1428571428571,4,1,0,100,0,1
227830,-55.5555555555556,4,1,0,100,0,1
227900,-55.9006176459244,4,1,0,100,0,1
227971,-56.2499929687509,4,1,0,100,0,1
228041,-56.6037629049504,4,1,0,100,0,1
228147,-57.1428571428571,4,1,0,100,0,1
228252,-57.6923187869844,4,1,0,100,0,1
228358,-58.2524158733173,4,1,0,100,0,1
228464,-58.8235294117647,4,1,0,100,0,1
228569,-59.4059523576143,4,1,0,100,0,1
228675,-59.9999880000024,4,1,0,100,0,1
228780,-60.6060606060606,4,1,0,100,0,1
228886,-61.2245022907148,4,1,0,100,0,1
228992,-61.855657349349,4,1,0,100,0,1
229097,-62.5,4,1,0,100,0,1
229203,-63.1579080332438,4,1,0,100,0,1
229309,-63.8297736532396,4,1,0,100,0,1
229414,-64.5161290322581,4,1,0,100,0,1
229520,-65.2174054820447,4,1,0,100,0,1
229626,-65.9340514430656,4,1,0,100,0,1
229731,-66.6666666666667,4,1,0,100,0,1
229837,-67.4157454866844,4,1,0,100,0,1
229942,-68.1818026859539,4,1,0,100,0,1
230048,-68.9655172413793,4,1,0,100,0,1
230154,-69.7674580854554,4,1,0,100,0,1
230259,-70.588218685125,4,1,0,100,0,1
230365,-71.4285714285714,4,1,0,100,0,1
230471,-68.3760683760684,4,1,0,100,0,1
230576,-65.5737704918033,4,1,0,100,0,1
230682,-62.992125984252,4,1,0,100,0,1
230788,-60.6060606060606,4,1,0,100,0,1
230893,-58.3941605839416,4,1,0,100,0,1
230999,-56.3380281690141,4,1,0,100,0,1
231104,-54.421768707483,4,1,0,100,0,1
231210,-52.6315789473684,4,1,0,100,0,1
231281,-53.0191489260176,4,1,0,100,0,1
231351,-53.4124692477708,4,1,0,100,0,1
231421,-53.8116688451424,4,1,0,100,0,1
231527,-54.421768707483,4,1,0,100,0,1
231633,-55.045861459475,4,1,0,100,0,1
231738,-55.6844650922441,4,1,0,100,0,1
231844,-56.3380281690141,4,1,0,100,0,1
231950,-57.0071150580304,4,1,0,100,0,1
232055,-57.6923187869844,4,1,0,100,0,1
232161,-58.3941605839416,4,1,0,100,0,1
232266,-59.1132888446721,4,1,0,100,0,1
232372,-59.8503860050645,4,1,0,100,0,1
232478,-60.6060606060606,4,1,0,100,0,1
232583,-61.381061610013,4,1,0,100,0,1
232689,-62.1761786893635,4,1,0,100,0,1
232795,-62.992125984252,4,1,0,100,0,1
232900,-63.8297736532396,4,1,0,100,0,1
233006,-64.6900409035129,4,1,0,100,0,1
233111,-65.5737704918033,4,1,0,100,0,1
233217,-66.4819797269851,4,1,0,100,0,1
233323,-67.4157454866844,4,1,0,100,0,1
233428,-68.3760683760684,4,1,0,100,0,1
233534,-69.3641458117582,4,1,0,100,0,1
233640,-70.381248183284,4,1,0,100,0,1
233745,-71.4285714285714,4,1,0,100,0,1
233851,-70.126571448808,4,1,0,100,0,1
233957,-68.87118746324,4,1,0,100,0,1
234062,-67.6600057646325,4,1,0,100,0,1
234168,-66.490643769062,4,1,0,100,0,1
234273,-65.361015030419,4,1,0,100,0,1
234379,-64.2691282599712,4,1,0,100,0,1
234485,-63.2131630033585,4,1,0,100,0,1
234590,-62.1912979448264,4,1,0,100,0,1
234696,-61.201944997812,4,1,0,100,0,1
234802,-60.2435768298384,4,1,0,100,0,1
234907,-59.3147603001564,4,1,0,100,0,1
235013,-58.4141834310505,4,1,0,100,0,1
235119,-57.5405113970491,4,1,0,100,0,1
235224,-56.6925884078397,4,1,0,100,0,1
235330,-55.869292672407,4,1,0,100,0,1
235435,-55.0695969566338,4,1,0,100,0,1
235541,-54.2924418948714,4,1,0,100,0,1
235647,-53.5369163806903,4,1,0,100,0,1
235752,-52.8021298267087,4,1,0,100,0,1
235858,-52.0872398763241,4,1,0,100,0,1
235964,-51.3914755931604,4,1,0,100,0,1
236069,-50.7140281594713,4,1,0,100,0,1
236195,-50.0542087080308,4,1,0,100,0,1
236301,-10,4,1,0,5,0,0
236406,-100,4,1,0,5,0,0

[HitObjects]
125,156,10063,5,0,0:0:0:0:
294,176,13443,1,0,0:0:0:0:
173,153,16824,1,0,0:0:0:0:
404,252,21894,5,8,0:0:0:0:
132,118,28655,5,0,0:0:0:0:
256,192,32193,8,0,32458,0:0:0:0:
124,109,35415,5,0,0:0:0:0:
179,138,36260,1,8,0:0:0:0:
168,114,39218,1,0,0:0:0:0:
223,131,40063,1,8,0:0:0:0:
69,108,42317,1,0,0:0:0:0:
127,132,43021,1,8,0:0:0:0:
256,192,47405,8,0,47669,0:0:0:0:
85,125,48936,5,4,0:0:0:0:
201,162,49922,1,8,0:0:0:0:
199,209,52317,1,0,0:0:0:0:
261,213,52739,1,8,0:0:0:0:
376,161,53584,1,8,0:0:0:0:
334,179,55697,1,12,0:0:0:0:
349,183,55908,1,4,0:0:0:0:
255,167,56542,1,0,0:0:0:0:
116,227,59077,1,12,0:0:0:0:
131,224,59289,1,4,0:0:0:0:
221,197,59922,1,8,0:0:0:0:
256,192,60794,8,0,61190,0:0:0:0:
256,192,61665,8,0,62035,0:0:0:0:
179,151,62458,5,0,0:0:0:0:
298,167,63303,1,8,0:0:0:0:
232,200,65838,1,0,0:0:0:0:
290,198,66260,1,8,0:0:0:0:
398,148,67105,1,0,0:0:0:0:
341,229,69218,1,8,0:0:0:0:
332,224,69359,1,8,0:0:0:0:
332,224,69500,1,0,0:0:0:0:
332,224,69641,1,0,0:0:0:0:
283,185,70063,1,8,0:0:0:0:
428,194,72598,1,12,0:0:0:0:
428,194,72810,1,4,0:0:0:0:
341,164,73443,1,8,0:0:0:0:
317,198,74289,1,8,0:0:0:0:
317,198,74429,1,8,0:0:0:0:
327,195,74570,1,0,0:0:0:0:
324,193,74711,1,8,0:0:0:0:
317,182,74852,1,8,0:0:0:0:
315,171,74993,1,0,0:0:0:0:
261,162,75063,1,0,0:0:0:0:
314,166,75134,1,8,0:0:0:0:
304,162,75274,1,0,0:0:0:0:
293,162,75415,1,8,0:0:0:0:
281,161,75556,1,8,0:0:0:0:
275,160,75627,1,8,0:0:0:0:
267,162,75697,1,0,0:0:0:0:
261,162,75766,1,0,0:0:0:0:
255,160,75838,1,8,0:0:0:0:
247,159,75979,1,4,0:0:0:0:
350,235,76401,1,0,0:0:0:0:
292,208,76613,1,0,0:0:0:0:
248,159,76824,1,8,0:0:0:0:
191,134,77035,1,8,0:0:0:0:
347,234,77246,1,0,0:0:0:0:
244,156,77669,1,0,0:0:0:0:
342,230,78091,1,8,0:0:0:0:
303,180,78303,1,0,0:0:0:0:
242,154,78514,1,8,0:0:0:0:
342,230,78725,1,8,0:0:0:0:
341,230,78936,1,0,0:0:0:0:
303,180,79148,1,8,0:0:0:0:
247,159,79359,1,0,0:0:0:0:
350,235,79782,1,0,0:0:0:0:
292,208,79993,1,0,0:0:0:0:
248,159,80204,1,8,0:0:0:0:
191,134,80415,1,8,0:0:0:0:
347,234,80627,1,0,0:0:0:0:
244,156,81049,1,0,0:0:0:0:
342,230,81472,1,12,0:0:0:0:
303,180,81613,1,4,0:0:0:0:
263,165,81753,1,4,0:0:0:0:
242,154,81894,1,12,0:0:0:0:
299,167,82105,1,8,0:0:0:0:
341,230,82317,1,0,0:0:0:0:
304,178,82528,1,8,0:0:0:0:
365,174,82739,1,0,0:0:0:0:
254,140,83162,1,0,0:0:0:0:
137,106,83584,1,8,0:0:0:0:
253,140,84007,1,0,0:0:0:0:
136,152,84429,1,0,0:0:0:0:
262,155,84852,1,8,0:0:0:0:
138,177,85274,1,0,0:0:0:0:
250,139,85697,1,8,0:0:0:0:
250,139,86120,1,0,0:0:0:0:
262,262,86542,1,8,0:0:0:0:
250,144,86965,1,8,0:0:0:0:
373,170,87387,1,0,0:0:0:0:
249,192,87810,1,8,0:0:0:0:
370,158,88232,1,8,0:0:0:0:
256,160,88655,1,0,0:0:0:0:
151,175,89077,1,8,0:0:0:0:
247,159,89499,1,0,0:0:0:0:
299,176,89711,1,8,0:0:0:0:
350,235,89922,1,0,0:0:0:0:
292,208,90134,1,0,0:0:0:0:
248,159,90345,1,8,0:0:0:0:
191,134,90556,1,8,0:0:0:0:
347,234,90767,1,0,0:0:0:0:
303,180,90979,1,8,0:0:0:0:
244,156,91190,1,0,0:0:0:0:
213,101,91401,1,0,0:0:0:0:
342,230,91613,1,8,0:0:0:0:
303,180,91824,1,0,0:0:0:0:
242,154,92035,1,8,0:0:0:0:
342,230,92246,1,8,0:0:0:0:
341,230,92458,1,0,0:0:0:0:
303,180,92669,1,8,0:0:0:0:
247,159,92880,1,0,0:0:0:0:
309,162,93091,1,8,0:0:0:0:
350,235,93303,1,0,0:0:0:0:
292,208,93514,1,0,0:0:0:0:
248,159,93725,1,8,0:0:0:0:
191,134,93936,1,8,0:0:0:0:
347,234,94148,1,0,0:0:0:0:
303,180,94359,1,8,0:0:0:0:
244,156,94570,1,0,0:0:0:0:
303,180,94782,1,8,0:0:0:0:
342,230,94993,1,12,0:0:0:0:
303,180,95134,1,4,0:0:0:0:
263,165,95274,1,4,0:0:0:0:
242,154,95415,1,12,0:0:0:0:
299,167,95627,1,8,0:0:0:0:
341,230,95838,1,0,0:0:0:0:
304,178,96049,1,8,0:0:0:0:
365,174,96260,1,0,0:0:0:0:
254,140,96683,1,0,0:0:0:0:
137,106,97105,1,8,0:0:0:0:
253,140,97528,1,0,0:0:0:0:
136,152,97951,1,0,0:0:0:0:
262,155,98373,1,8,0:0:0:0:
138,177,98796,1,0,0:0:0:0:
250,139,99218,1,8,0:0:0:0:
288,179,99641,1,12,0:0:0:0:
288,179,99782,1,4,0:0:0:0:
288,179,99922,1,4,0:0:0:0:
262,262,100063,1,12,0:0:0:0:
284,170,100274,1,0,0:0:0:0:
250,144,100486,1,8,0:0:0:0:
266,170,100697,1,0,0:0:0:0:
256,159,100908,1,8,0:0:0:0:
236,162,101120,1,0,0:0:0:0:
237,191,101331,1,0,0:0:0:0:
237,191,101542,1,8,0:0:0:0:
237,191,101753,1,0,0:0:0:0:
237,191,101965,1,8,0:0:0:0:
226,202,102176,1,8,0:0:0:0:
226,202,102317,1,8,0:0:0:0:
226,202,102458,1,0,0:0:0:0:
226,202,102598,1,0,0:0:0:0:
257,201,103021,1,8,0:0:0:0:
287,200,103443,1,8,0:0:0:0:
287,200,103866,1,8,0:0:0:0:
287,200,104289,1,8,0:0:0:0:
343,178,106401,1,12,0:0:0:0:
332,189,106613,1,0,0:0:0:0:
394,188,106824,1,8,0:0:0:0:
394,188,107035,1,0,0:0:0:0:
291,168,107141,1,0,0:0:0:0:
317,208,107246,1,8,0:0:0:0:
335,208,107458,1,8,0:0:0:0:
189,207,107669,1,0,0:0:0:0:
189,207,107880,1,0,0:0:0:0:
362,217,108091,1,8,0:0:0:0:
246,180,108197,1,8,0:0:0:0:
370,221,108303,1,0,0:0:0:0:
374,197,108408,1,0,0:0:0:0:
276,180,108514,1,8,0:0:0:0:
276,180,108725,1,8,0:0:0:0:
265,197,108936,1,0,0:0:0:0:
266,197,109148,1,0,0:0:0:0:
164,175,109359,1,8,0:0:0:0:
317,194,109465,1,8,0:0:0:0:
190,176,109570,1,0,0:0:0:0:
203,169,109782,1,8,0:0:0:0:
228,160,109993,1,0,0:0:0:0:
186,186,110204,1,8,0:0:0:0:
186,186,110415,1,8,0:0:0:0:
285,195,110521,1,0,0:0:0:0:
219,109,110627,1,8,0:0:0:0:
219,109,110838,1,8,0:0:0:0:
228,138,111049,1,0,0:0:0:0:
228,138,111260,1,0,0:0:0:0:
226,193,111472,1,8,0:0:0:0:
232,164,111577,1,8,0:0:0:0:
268,178,111683,1,0,0:0:0:0:
324,168,111789,1,8,0:0:0:0:
209,142,111894,1,0,0:0:0:0:
209,142,112105,1,0,0:0:0:0:
196,164,112317,1,8,0:0:0:0:
343,163,112422,1,8,0:0:0:0:
291,155,112528,1,0,0:0:0:0:
317,184,112634,1,8,0:0:0:0:
218,193,112739,1,0,0:0:0:0:
276,160,112845,1,0,0:0:0:0:
194,200,112951,1,8,0:0:0:0:
270,154,113056,1,0,0:0:0:0:
343,178,113162,1,8,0:0:0:0:
332,189,113374,1,0,0:0:0:0:
394,188,113585,1,8,0:0:0:0:
394,188,113796,1,0,0:0:0:0:
226,120,113901,1,0,0:0:0:0:
317,208,114007,1,8,0:0:0:0:
335,208,114219,1,8,0:0:0:0:
189,207,114430,1,0,0:0:0:0:
189,207,114641,1,0,0:0:0:0:
362,217,114852,1,8,0:0:0:0:
304,138,114958,1,8,0:0:0:0:
370,221,115064,1,0,0:0:0:0:
304,138,115169,1,8,0:0:0:0:
276,180,115275,1,8,0:0:0:0:
276,180,115486,1,8,0:0:0:0:
265,197,115697,1,0,0:0:0:0:
266,197,115909,1,0,0:0:0:0:
164,175,116120,1,8,0:0:0:0:
248,120,116225,1,8,0:0:0:0:
190,176,116331,1,0,0:0:0:0:
203,169,116543,1,8,0:0:0:0:
228,160,116754,1,0,0:0:0:0:
186,186,116965,1,8,0:0:0:0:
186,186,117176,1,8,0:0:0:0:
219,109,117388,1,8,0:0:0:0:
219,109,117599,1,8,0:0:0:0:
228,138,117810,1,0,0:0:0:0:
228,138,118021,1,0,0:0:0:0:
226,193,118233,1,8,0:0:0:0:
268,178,118444,1,0,0:0:0:0:
209,142,118655,1,0,0:0:0:0:
209,142,118866,1,0,0:0:0:0:
196,164,119078,1,8,0:0:0:0:
97,155,119183,1,0,0:0:0:0:
291,155,119289,1,8,0:0:0:0:
210,190,119394,1,0,0:0:0:0:
218,193,119500,1,8,0:0:0:0:
370,209,119605,1,8,0:0:0:0:
194,200,119712,1,0,0:0:0:0:
352,209,119817,1,0,0:0:0:0:
141,162,119922,1,8,0:0:0:0:
139,202,120063,1,8,0:0:0:0:
208,206,120204,1,0,0:0:0:0:
206,209,120345,1,0,0:0:0:0:
317,208,120767,1,12,0:0:0:0:
335,208,120979,1,8,0:0:0:0:
189,207,121190,1,0,0:0:0:0:
189,207,121401,1,0,0:0:0:0:
362,217,121612,1,8,0:0:0:0:
198,140,121718,1,0,0:0:0:0:
370,221,121824,1,0,0:0:0:0:
198,140,121929,1,0,0:0:0:0:
276,180,122035,1,8,0:0:0:0:
276,180,122246,1,8,0:0:0:0:
265,197,122457,1,0,0:0:0:0:
266,197,122669,1,0,0:0:0:0:
164,175,122880,1,8,0:0:0:0:
370,177,122986,1,0,0:0:0:0:
190,176,123091,1,0,0:0:0:0:
203,169,123303,1,8,0:0:0:0:
228,160,123514,1,0,0:0:0:0:
186,186,123725,1,8,0:0:0:0:
186,186,123936,1,8,0:0:0:0:
250,204,124042,1,8,0:0:0:0:
219,109,124148,1,8,0:0:0:0:
219,109,124359,1,8,0:0:0:0:
228,138,124570,1,0,0:0:0:0:
228,138,124781,1,0,0:0:0:0:
226,193,124993,1,8,0:0:0:0:
276,155,125098,1,0,0:0:0:0:
268,178,125204,1,0,0:0:0:0:
326,178,125310,1,8,0:0:0:0:
209,142,125415,1,0,0:0:0:0:
209,142,125626,1,0,0:0:0:0:
196,164,125838,1,8,0:0:0:0:
245,162,125943,1,8,0:0:0:0:
291,155,126049,1,0,0:0:0:0:
383,164,126155,1,8,0:0:0:0:
218,193,126260,1,0,0:0:0:0:
352,171,126366,1,8,0:0:0:0:
194,200,126472,1,0,0:0:0:0:
234,169,126577,1,0,0:0:0:0:
343,178,126683,1,8,0:0:0:0:
332,189,126895,1,0,0:0:0:0:
394,188,127106,1,8,0:0:0:0:
394,188,127317,1,0,0:0:0:0:
192,175,127422,1,0,0:0:0:0:
317,208,127528,1,8,0:0:0:0:
335,208,127740,1,8,0:0:0:0:
189,207,127951,1,0,0:0:0:0:
189,207,128162,1,0,0:0:0:0:
362,217,128373,1,8,0:0:0:0:
183,168,128479,1,8,0:0:0:0:
370,221,128585,1,0,0:0:0:0:
228,206,128690,1,0,0:0:0:0:
276,180,128796,1,8,0:0:0:0:
276,180,129007,1,8,0:0:0:0:
265,197,129218,1,0,0:0:0:0:
266,197,129430,1,0,0:0:0:0:
164,175,129641,1,8,0:0:0:0:
92,172,129746,1,8,0:0:0:0:
190,176,129852,1,0,0:0:0:0:
203,169,130064,1,8,0:0:0:0:
228,160,130275,1,0,0:0:0:0:
186,186,130486,1,8,0:0:0:0:
186,186,130697,1,8,0:0:0:0:
219,109,130909,1,8,0:0:0:0:
219,109,131120,1,8,0:0:0:0:
161,126,131331,1,0,0:0:0:0:
217,122,131542,1,0,0:0:0:0:
279,199,131753,1,8,0:0:0:0:
319,200,131894,1,0,0:0:0:0:
355,218,132070,1,8,0:0:0:0:
271,171,132246,1,0,0:0:0:0:
123,99,132683,1,0,0:0:0:0:
123,99,132767,1,0,0:0:0:0:
162,111,132880,1,8,0:0:0:0:
198,123,132951,1,8,0:0:0:0:
226,106,133021,1,8,0:0:0:0:
226,106,133091,1,8,0:0:0:0:
204,114,133162,1,0,0:0:0:0:
226,106,133442,1,0,0:0:0:0:
226,106,133817,1,0,0:0:0:0:
154,110,135442,1,0,0:0:0:0:
154,110,135817,1,0,0:0:0:0:
332,192,137442,1,8,0:0:0:0:
332,192,137817,1,8,0:0:0:0:
286,168,145034,5,0,0:0:0:0:
280,147,145104,1,0,0:0:0:0:
262,135,145174,1,0,0:0:0:0:
266,162,145245,1,8,0:0:0:0:
286,168,145386,1,8,0:0:0:0:
285,164,145527,1,0,0:0:0:0:
327,171,145710,1,0,0:0:0:0:
264,179,145844,1,0,0:0:0:0:
222,175,145984,1,0,0:0:0:0:
223,173,146090,1,8,0:0:0:0:
198,193,146196,1,8,0:0:0:0:
192,140,146301,1,8,0:0:0:0:
212,145,146372,1,8,0:0:0:0:
223,141,146442,1,8,0:0:0:0:
331,199,146513,1,8,0:0:0:0:
331,199,146583,1,8,0:0:0:0:
331,199,146653,1,8,0:0:0:0:
66,188,146724,1,4,0:0:0:0:
198,193,147146,1,4,0:0:0:0:
323,207,147569,1,8,0:0:0:0:
205,191,147991,1,4,0:0:0:0:
264,211,148203,1,8,0:0:0:0:
234,199,148308,1,8,0:0:0:0:
211,190,148414,1,8,0:0:0:0:
249,83,148836,1,4,0:0:0:0:
337,172,149259,1,8,0:0:0:0:
274,163,149470,1,4,0:0:0:0:
317,184,149682,1,8,0:0:0:0:
286,177,149787,1,0,0:0:0:0:
337,172,149893,1,8,0:0:0:0:
367,177,149998,1,8,0:0:0:0:
313,230,150104,1,4,0:0:0:0:
341,174,150315,1,8,0:0:0:0:
347,236,150527,1,8,0:0:0:0:
341,174,150738,1,4,0:0:0:0:
278,168,150949,1,8,0:0:0:0:
155,138,151372,1,4,0:0:0:0:
206,178,151583,1,8,0:0:0:0:
227,195,151689,1,0,0:0:0:0:
258,200,151794,1,8,0:0:0:0:
211,156,152005,1,0,0:0:0:0:
187,97,152217,1,4,0:0:0:0:
187,97,152428,1,8,0:0:0:0:
161,115,152639,1,8,0:0:0:0:
188,131,152745,1,8,0:0:0:0:
153,177,152851,1,0,0:0:0:0:
121,174,152956,1,0,0:0:0:0:
214,189,153062,1,8,0:0:0:0:
276,199,153273,1,8,0:0:0:0:
244,200,153379,1,8,0:0:0:0:
276,199,153484,1,4,0:0:0:0:
329,176,153696,1,8,0:0:0:0:
276,199,153907,1,4,0:0:0:0:
217,173,154118,1,8,0:0:0:0:
159,147,154329,1,8,0:0:0:0:
157,148,154752,1,4,0:0:0:0:
214,173,154963,1,8,0:0:0:0:
240,186,155069,1,8,0:0:0:0:
240,186,155174,1,8,0:0:0:0:
292,186,155386,1,8,0:0:0:0:
354,182,155597,1,4,0:0:0:0:
274,184,155808,1,8,0:0:0:0:
228,180,156020,1,8,0:0:0:0:
240,186,156125,1,8,0:0:0:0:
240,186,156231,1,0,0:0:0:0:
240,186,156336,1,0,0:0:0:0:
274,184,156442,1,8,0:0:0:0:
319,189,156548,1,0,0:0:0:0:
318,143,156653,1,8,0:0:0:0:
298,167,156759,1,8,0:0:0:0:
319,189,156865,1,4,0:0:0:0:
319,189,157076,1,8,0:0:0:0:
319,189,157287,1,8,0:0:0:0:
259,168,157498,1,4,0:0:0:0:
317,190,157710,1,8,0:0:0:0:
187,196,158132,1,4,0:0:0:0:
172,132,158344,1,8,0:0:0:0:
179,164,158449,1,8,0:0:0:0:
177,115,160245,1,12,0:0:0:0:
192,303,160879,1,12,0:0:0:0:
272,140,161513,1,4,0:0:0:0:
317,198,161935,1,8,0:0:0:0:
317,198,162076,1,8,0:0:0:0:
327,195,162217,1,0,0:0:0:0:
324,193,162358,1,8,0:0:0:0:
317,182,162498,1,8,0:0:0:0:
315,171,162639,1,0,0:0:0:0:
261,162,162710,1,0,0:0:0:0:
314,166,162780,1,8,0:0:0:0:
304,162,162921,1,0,0:0:0:0:
293,162,163062,1,8,0:0:0:0:
281,161,163203,1,0,0:0:0:0:
275,160,163273,1,0,0:0:0:0:
267,162,163344,1,8,0:0:0:0:
261,162,163414,1,8,0:0:0:0:
255,160,163484,1,0,0:0:0:0:
226,172,163625,1,12,0:0:0:0:
56,255,164259,1,12,0:0:0:0:
230,194,164893,1,4,0:0:0:0:
290,188,166583,1,4,0:0:0:0:
290,188,166794,1,4,0:0:0:0:
290,188,167005,1,0,0:0:0:0:
265,168,167111,1,0,0:0:0:0:
261,214,167217,1,12,0:0:0:0:
386,229,167639,1,4,0:0:0:0:
261,214,167851,1,12,0:0:0:0:
321,233,168062,1,8,0:0:0:0:
343,210,168167,1,8,0:0:0:0:
265,220,168273,1,4,0:0:0:0:
142,189,168696,1,4,0:0:0:0:
197,195,168907,1,4,0:0:0:0:
260,194,169329,1,4,0:0:0:0:
322,191,169541,1,12,0:0:0:0:
322,191,169752,1,8,0:0:0:0:
352,198,169858,1,8,0:0:0:0:
384,197,169963,1,4,0:0:0:0:
326,185,170174,1,4,0:0:0:0:
278,175,170386,1,0,0:0:0:0:
250,190,170491,1,0,0:0:0:0:
240,169,170597,1,12,0:0:0:0:
240,169,171020,1,4,0:0:0:0:
301,184,171231,1,12,0:0:0:0:
251,214,171442,1,8,0:0:0:0:
279,200,171548,1,8,0:0:0:0:
307,187,171653,1,4,0:0:0:0:
248,75,172076,1,4,0:0:0:0:
277,131,172287,1,4,0:0:0:0:
204,305,172921,1,8,0:0:0:0:
224,180,172956,1,8,0:0:0:0:
178,250,173132,1,0,0:0:0:0:
192,243,173167,1,0,0:0:0:0:
141,198,173344,1,8,0:0:0:0:
304,189,173379,1,8,0:0:0:0:
181,149,173555,1,8,0:0:0:0:
262,181,173590,1,8,0:0:0:0:
224,180,173766,1,4,0:0:0:0:
259,234,173977,1,0,0:0:0:0:
252,202,174083,1,0,0:0:0:0:
259,234,174189,1,8,0:0:0:0:
304,189,174400,1,8,0:0:0:0:
283,185,174470,1,0,0:0:0:0:
262,181,174541,1,0,0:0:0:0:
333,200,174611,1,8,0:0:0:0:
333,200,174822,1,0,0:0:0:0:
273,220,175034,1,8,0:0:0:0:
273,220,175139,1,8,0:0:0:0:
304,220,175245,1,0,0:0:0:0:
273,220,175351,1,0,0:0:0:0:
249,202,175456,1,12,0:0:0:0:
249,202,175667,1,8,0:0:0:0:
243,155,175773,1,8,0:0:0:0:
212,150,175879,1,0,0:0:0:0:
170,102,176090,1,0,0:0:0:0:
189,221,176160,1,8,0:0:0:0:
249,202,176231,1,8,0:0:0:0:
249,202,176301,1,0,0:0:0:0:
217,200,176513,1,8,0:0:0:0:
209,164,176724,1,0,0:0:0:0:
271,172,176829,1,0,0:0:0:0:
100,227,176935,1,8,0:0:0:0:
209,164,177041,1,8,0:0:0:0:
217,200,177146,1,4,0:0:0:0:
209,164,177358,1,0,0:0:0:0:
177,163,177463,1,0,0:0:0:0:
155,198,177569,1,8,0:0:0:0:
211,170,177780,1,8,0:0:0:0:
217,163,177851,1,8,0:0:0:0:
234,174,177921,1,8,0:0:0:0:
155,198,177991,1,0,0:0:0:0:
194,148,178203,1,8,0:0:0:0:
209,164,178414,1,4,0:0:0:0:
269,173,178625,1,0,0:0:0:0:
269,173,178696,1,0,0:0:0:0:
269,173,178766,1,0,0:0:0:0:
320,279,178836,1,12,0:0:0:0:
317,231,179048,1,4,0:0:0:0:
247,159,182217,1,0,0:0:0:0:
350,235,182639,1,0,0:0:0:0:
292,208,182851,1,0,0:0:0:0:
248,159,183062,1,8,0:0:0:0:
191,134,183273,1,8,0:0:0:0:
347,234,183484,1,0,0:0:0:0:
244,156,183907,1,0,0:0:0:0:
342,230,184329,1,8,0:0:0:0:
303,180,184540,1,0,0:0:0:0:
242,154,184752,1,8,0:0:0:0:
342,230,184963,1,8,0:0:0:0:
341,230,185174,1,0,0:0:0:0:
303,180,185386,1,8,0:0:0:0:
247,159,185597,1,0,0:0:0:0:
350,235,186019,1,0,0:0:0:0:
292,208,186231,1,0,0:0:0:0:
248,159,186442,1,8,0:0:0:0:
191,134,186653,1,8,0:0:0:0:
347,234,186864,1,0,0:0:0:0:
244,156,187287,1,0,0:0:0:0:
342,230,187709,1,12,0:0:0:0:
303,180,187850,1,4,0:0:0:0:
263,165,187991,1,4,0:0:0:0:
242,154,188132,1,12,0:0:0:0:
299,167,188343,1,8,0:0:0:0:
341,230,188554,1,0,0:0:0:0:
304,178,188766,1,8,0:0:0:0:
365,174,188977,1,0,0:0:0:0:
254,140,189400,1,0,0:0:0:0:
137,106,189822,1,8,0:0:0:0:
253,140,190245,1,0,0:0:0:0:
136,152,190667,1,0,0:0:0:0:
262,155,191090,1,8,0:0:0:0:
138,177,191513,1,0,0:0:0:0:
250,139,191935,1,8,0:0:0:0:
250,139,192358,1,0,0:0:0:0:
262,262,192780,1,8,0:0:0:0:
250,144,193203,1,8,0:0:0:0:
373,170,193625,1,0,0:0:0:0:
249,192,194048,1,8,0:0:0:0:
370,158,194470,1,8,0:0:0:0:
256,160,194893,1,0,0:0:0:0:
151,175,195315,1,8,0:0:0:0:
247,159,195738,5,0,0:0:0:0:
299,176,195949,1,8,0:0:0:0:
350,235,196160,1,0,0:0:0:0:
292,208,196371,1,0,0:0:0:0:
248,159,196583,1,8,0:0:0:0:
191,134,196794,1,8,0:0:0:0:
347,234,197005,1,0,0:0:0:0:
303,180,197216,1,8,0:0:0:0:
244,156,197428,1,0,0:0:0:0:
213,101,197639,1,0,0:0:0:0:
342,230,197850,1,8,0:0:0:0:
303,180,198062,1,0,0:0:0:0:
242,154,198273,1,8,0:0:0:0:
342,230,198484,1,8,0:0:0:0:
341,230,198695,1,0,0:0:0:0:
303,180,198907,1,8,0:0:0:0:
247,159,199118,1,0,0:0:0:0:
309,162,199329,1,8,0:0:0:0:
350,235,199540,1,0,0:0:0:0:
292,208,199752,1,0,0:0:0:0:
248,159,199963,1,8,0:0:0:0:
201,135,200174,1,8,0:0:0:0:
347,234,200385,1,0,0:0:0:0:
303,180,200597,1,8,0:0:0:0:
244,156,200808,1,0,0:0:0:0:
303,180,201019,1,8,0:0:0:0:
342,230,201231,1,12,0:0:0:0:
303,180,201371,1,4,0:0:0:0:
263,165,201512,1,4,0:0:0:0:
242,154,201653,1,12,0:0:0:0:
299,167,201864,1,8,0:0:0:0:
341,230,202076,1,0,0:0:0:0:
304,178,202287,1,8,0:0:0:0:
365,174,202498,1,0,0:0:0:0:
429,183,202709,1,8,0:0:0:0:
254,140,202921,1,0,0:0:0:0:
429,183,203132,1,0,0:0:0:0:
137,106,203343,1,8,0:0:0:0:
197,121,203554,1,8,0:0:0:0:
253,140,203766,1,0,0:0:0:0:
305,174,203977,1,8,0:0:0:0:
136,152,204188,1,0,0:0:0:0:
197,163,204400,1,0,0:0:0:0:
262,155,204611,1,8,0:0:0:0:
313,191,204822,1,8,0:0:0:0:
138,177,205033,1,0,0:0:0:0:
199,165,205245,1,8,0:0:0:0:
250,139,205456,1,8,0:0:0:0:
242,201,205667,1,0,0:0:0:0:
210,166,205878,1,12,0:0:0:0:
249,181,206019,1,4,0:0:0:0:
282,195,206160,1,4,0:0:0:0:
298,156,206301,1,12,0:0:0:0:
246,190,206512,1,0,0:0:0:0:
204,240,206724,1,8,0:0:0:0:
308,212,206935,1,0,0:0:0:0:
308,212,207146,1,0,0:0:0:0:
308,212,207357,1,8,0:0:0:0:
203,164,210949,1,0,0:0:0:0:
354,153,211054,1,0,0:0:0:0:
317,135,211160,1,0,0:0:0:0:
319,188,211265,1,8,0:0:0:0:
406,182,211371,1,0,0:0:0:0:
221,150,211477,1,0,0:0:0:0:
296,177,211582,1,8,0:0:0:0:
224,154,211688,1,0,0:0:0:0:
314,200,211794,1,8,0:0:0:0:
250,168,211899,1,0,0:0:0:0:
250,168,212005,1,0,0:0:0:0:
276,155,212110,1,8,0:0:0:0:
276,155,212216,1,8,0:0:0:0:
250,168,212322,1,0,0:0:0:0:
439,189,212427,1,8,0:0:0:0:
250,168,212533,1,0,0:0:0:0:
333,167,212639,1,8,0:0:0:0:
333,167,212744,1,8,0:0:0:0:
333,167,212850,1,8,0:0:0:0:
250,168,212956,1,0,0:0:0:0:
333,167,213061,1,8,0:0:0:0:
250,168,213167,1,0,0:0:0:0:
291,162,213272,1,8,0:0:0:0:
250,168,213378,1,0,0:0:0:0:
291,162,213484,1,8,0:0:0:0:
250,168,213589,1,0,0:0:0:0:
250,168,213695,1,0,0:0:0:0:
289,149,213801,1,8,0:0:0:0:
250,168,213906,1,0,0:0:0:0:
250,168,214012,1,0,0:0:0:0:
289,150,214118,1,8,0:0:0:0:
250,168,214223,1,0,0:0:0:0:
274,179,214329,1,8,0:0:0:0:
250,168,214434,1,0,0:0:0:0:
250,168,214540,1,0,0:0:0:0:
274,179,214646,1,8,0:0:0:0:
250,168,214751,1,0,0:0:0:0:
250,168,214857,1,0,0:0:0:0:
278,182,214963,1,8,0:0:0:0:
250,168,215068,1,0,0:0:0:0:
274,179,215174,1,8,0:0:0:0:
250,168,215279,1,0,0:0:0:0:
250,168,215385,1,0,0:0:0:0:
268,181,215491,1,8,0:0:0:0:
268,181,215596,1,8,0:0:0:0:
250,168,215702,1,0,0:0:0:0:
268,182,215808,1,8,0:0:0:0:
262,180,215913,1,8,0:0:0:0:
261,180,216019,1,8,0:0:0:0:
250,168,216125,1,0,0:0:0:0:
242,138,216230,1,8,0:0:0:0:
250,168,216336,1,0,0:0:0:0:
250,169,216441,1,0,0:0:0:0:
251,169,216547,1,0,0:0:0:0:
256,150,216653,1,8,0:0:0:0:
251,169,216758,1,0,0:0:0:0:
256,152,216864,1,8,0:0:0:0:
251,169,216970,1,0,0:0:0:0:
259,160,217075,1,8,0:0:0:0:
259,160,217181,1,8,0:0:0:0:
259,162,217287,1,8,0:0:0:0:
250,169,217392,1,0,0:0:0:0:
251,169,217498,1,0,0:0:0:0:
259,169,217603,1,8,0:0:0:0:
203,164,217709,1,0,0:0:0:0:
220,95,217815,1,0,0:0:0:0:
268,166,217920,1,8,0:0:0:0:
268,166,218026,1,8,0:0:0:0:
268,166,218132,1,8,0:0:0:0:
220,95,218237,1,0,0:0:0:0:
268,166,218343,1,8,0:0:0:0:
220,95,218449,1,0,0:0:0:0:
268,166,218554,1,8,0:0:0:0:
268,166,218660,1,8,0:0:0:0:
220,95,218765,1,0,0:0:0:0:
268,166,218871,1,8,0:0:0:0:
268,166,218977,1,8,0:0:0:0:
268,166,219082,1,8,0:0:0:0:
268,166,219188,1,8,0:0:0:0:
220,95,219294,1,0,0:0:0:0:
274,135,219399,1,8,0:0:0:0:
220,95,219505,1,0,0:0:0:0:
220,95,219610,1,0,0:0:0:0:
255,155,219716,1,8,0:0:0:0:
323,131,219822,1,8,0:0:0:0:
220,95,219927,1,0,0:0:0:0:
231,151,220033,1,8,0:0:0:0:
220,95,220139,1,0,0:0:0:0:
231,151,220244,1,8,0:0:0:0:
220,95,220350,1,0,0:0:0:0:
220,95,220456,1,0,0:0:0:0:
231,151,220561,1,8,0:0:0:0:
220,95,220667,1,0,0:0:0:0:
220,95,220772,1,0,0:0:0:0:
220,95,220878,1,0,0:0:0:0:
220,95,220984,1,0,0:0:0:0:
231,151,221089,1,8,0:0:0:0:
220,95,221195,1,0,0:0:0:0:
238,147,221301,1,8,0:0:0:0:
220,95,221406,1,0,0:0:0:0:
238,147,221512,1,8,0:0:0:0:
220,95,221618,1,0,0:0:0:0:
220,95,221723,1,0,0:0:0:0:
274,141,221829,1,8,0:0:0:0:
274,141,221934,1,8,0:0:0:0:
220,95,222040,1,0,0:0:0:0:
260,116,222146,1,8,0:0:0:0:
220,95,222251,1,0,0:0:0:0:
220,95,222357,1,0,0:0:0:0:
260,116,222463,1,8,0:0:0:0:
260,116,222568,1,8,0:0:0:0:
220,95,222674,1,0,0:0:0:0:
260,116,222779,1,8,0:0:0:0:
220,95,222885,1,0,0:0:0:0:
270,124,222991,1,8,0:0:0:0:
220,95,223096,1,0,0:0:0:0:
220,95,223202,1,0,0:0:0:0:
220,95,223308,1,0,0:0:0:0:
264,123,223413,1,8,0:0:0:0:
264,124,223519,1,8,0:0:0:0:
240,82,223625,1,8,0:0:0:0:
220,95,223730,1,0,0:0:0:0:
241,93,223836,1,8,0:0:0:0:
220,95,223941,1,0,0:0:0:0:
220,95,224047,1,0,0:0:0:0:
233,97,224153,1,8,0:0:0:0:
221,168,224258,1,0,0:0:0:0:
261,173,224329,1,0,0:0:0:0:
101,200,224399,1,0,0:0:0:0:
138,159,224470,1,8,0:0:0:0:
128,134,224610,1,8,0:0:0:0:
147,110,224751,1,0,0:0:0:0:
92,94,224892,1,0,0:0:0:0:
314,200,225315,1,8,0:0:0:0:
314,200,225385,1,8,0:0:0:0:
314,200,225456,1,8,0:0:0:0:
250,168,225526,1,0,0:0:0:0:
276,155,225632,1,8,0:0:0:0:
276,155,225737,1,8,0:0:0:0:
250,168,225843,1,0,0:0:0:0:
439,189,225949,1,8,0:0:0:0:
250,168,226054,1,0,0:0:0:0:
333,167,226160,1,8,0:0:0:0:
333,167,226265,1,8,0:0:0:0:
333,167,226371,1,8,0:0:0:0:
250,168,226477,1,0,0:0:0:0:
333,167,226582,1,8,0:0:0:0:
250,168,226688,1,0,0:0:0:0:
291,162,226794,1,8,0:0:0:0:
250,168,226899,1,0,0:0:0:0:
291,162,227005,1,8,0:0:0:0:
250,168,227110,1,0,0:0:0:0:
250,168,227216,1,0,0:0:0:0:
289,149,227322,1,8,0:0:0:0:
250,168,227427,1,0,0:0:0:0:
250,168,227533,1,0,0:0:0:0:
289,150,227639,1,8,0:0:0:0:
250,168,227744,1,0,0:0:0:0:
274,179,227850,1,8,0:0:0:0:
387,192,227920,1,8,0:0:0:0:
250,168,227991,1,8,0:0:0:0:
250,168,228061,1,0,0:0:0:0:
274,179,228167,1,8,0:0:0:0:
250,168,228272,1,0,0:0:0:0:
250,168,228378,1,0,0:0:0:0:
278,182,228484,1,8,0:0:0:0:
250,168,228589,1,0,0:0:0:0:
274,179,228695,1,8,0:0:0:0:
250,168,228801,1,0,0:0:0:0:
250,168,228906,1,0,0:0:0:0:
268,181,229012,1,8,0:0:0:0:
268,181,229118,1,8,0:0:0:0:
250,168,229223,1,0,0:0:0:0:
268,182,229329,1,8,0:0:0:0:
262,180,229434,1,8,0:0:0:0:
261,180,229540,1,8,0:0:0:0:
250,168,229646,1,0,0:0:0:0:
242,138,229751,1,8,0:0:0:0:
250,168,229857,1,0,0:0:0:0:
250,169,229963,1,0,0:0:0:0:
251,169,230068,1,0,0:0:0:0:
256,150,230174,1,8,0:0:0:0:
251,169,230279,1,0,0:0:0:0:
256,152,230385,1,8,0:0:0:0:
251,169,230491,1,0,0:0:0:0:
259,160,230596,1,8,0:0:0:0:
259,160,230702,1,8,0:0:0:0:
259,162,230808,1,8,0:0:0:0:
250,169,230913,1,0,0:0:0:0:
251,169,231019,1,0,0:0:0:0:
259,169,231125,1,8,0:0:0:0:
203,164,231230,1,0,0:0:0:0:
220,95,231301,1,0,0:0:0:0:
111,184,231371,1,0,0:0:0:0:
268,166,231441,1,8,0:0:0:0:
268,166,231547,1,8,0:0:0:0:
268,166,231653,1,8,0:0:0:0:
220,95,231758,1,0,0:0:0:0:
268,166,231864,1,8,0:0:0:0:
220,95,231970,1,0,0:0:0:0:
268,166,232075,1,8,0:0:0:0:
268,166,232181,1,8,0:0:0:0:
220,95,232287,1,0,0:0:0:0:
268,166,232392,1,8,0:0:0:0:
268,166,232498,1,8,0:0:0:0:
268,166,232603,1,8,0:0:0:0:
268,166,232709,1,8,0:0:0:0:
220,95,232815,1,0,0:0:0:0:
274,135,232920,1,8,0:0:0:0:
220,95,233026,1,0,0:0:0:0:
220,95,233132,1,0,0:0:0:0:
255,155,233237,1,8,0:0:0:0:
323,131,233343,1,8,0:0:0:0:
220,95,233449,1,0,0:0:0:0:
231,151,233554,1,8,0:0:0:0:
220,95,233660,1,0,0:0:0:0:
231,151,233765,1,8,0:0:0:0:
220,95,233871,1,0,0:0:0:0:
220,95,233977,1,0,0:0:0:0:
231,151,234082,1,8,0:0:0:0:
220,95,234188,1,0,0:0:0:0:
220,95,234294,1,0,0:0:0:0:
220,95,234399,1,0,0:0:0:0:
220,95,234505,1,0,0:0:0:0:
231,151,234610,1,8,0:0:0:0:
220,95,234716,1,0,0:0:0:0:
238,147,234822,1,8,0:0:0:0:
220,95,234927,1,0,0:0:0:0:
238,147,235033,1,8,0:0:0:0:
220,95,235139,1,0,0:0:0:0:
220,95,235244,1,0,0:0:0:0:
274,141,235350,1,8,0:0:0:0:
274,141,235456,1,8,0:0:0:0:
220,95,235561,1,0,0:0:0:0:
260,116,235667,1,8,0:0:0:0:
220,95,235772,1,0,0:0:0:0:
220,95,235878,1,0,0:0:0:0:
260,116,235984,1,8,0:0:0:0:
260,116,236089,1,8,0:0:0:0:
220,95,236195,1,0,0:0:0:0:
256,192,236301,12,0,237991,0:0:0:0:
