osu file format v14

[General]
AudioFilename: audio.mp3
AudioLeadIn: 0
PreviewTime: 73467
Countdown: 0
SampleSet: Soft
StackLeniency: 0.4
Mode: 0
LetterboxInBreaks: 0
WidescreenStoryboard: 1

[Editor]
Bookmarks: 18824,37110,43110,45110,54253,55396
DistanceSpacing: 0.8
BeatDivisor: 4
GridSize: 32
TimelineZoom: 2

[Metadata]
Title:Luv U (Cut Ver.)
TitleUnicode:사랑해 (Cut Ver.)
Artist:(G)I-DLE
ArtistUnicode:(여자)아이들
Creator:Skymin
Version:Insane
Source:
Tags:g-idle Neverland gidle g idle cube I trust entertainment 큐브 엔터테인먼트 I trust 미니3집 빅싼초 hiphop kpop k-pop pop korean Miyeon 미연 Minnie 민니 Soyeon 소연 Soojin 수진 Yuqi 우기 Shuhua 슈화 Yummy Tone True Ver. Lie Bicksancho
BeatmapID:3448018
BeatmapSetID:1681516

[Difficulty]
HPDrainRate:5
CircleSize:4.2
OverallDifficulty:7.5
ApproachRate:9
SliderMultiplier:1.7
SliderTickRate:1

[Events]
//Background and Video events
0,0,"bg (2).jpg",0,0
Video,0,"video.mp4"
//Break Periods
//Storyboard Layer 0 (Background)
//Storyboard Layer 1 (Fail)
//Storyboard Layer 2 (Pass)
//Storyboard Layer 3 (Foreground)
//Storyboard Layer 4 (Overlay)
//Storyboard Sound Samples

[TimingPoints]
9682,571.428571428571,4,2,1,65,1,0
9682,-76.9230769230769,4,2,1,65,0,0
9896,-66.6666666666667,4,2,1,5,0,0
9967,-100,4,2,1,65,0,0
10253,-66.6666666666667,4,2,1,65,0,0
10467,-83.3333333333333,4,2,1,5,0,0
10539,-50,4,2,1,65,0,0
11824,-50,4,2,1,45,0,0
12253,-50,4,2,1,65,0,0
12610,-50,4,2,1,5,0,0
12682,-50,4,2,1,65,0,0
13182,-50,4,2,1,5,0,0
13396,-50,4,2,1,65,0,0
13467,-50,4,2,1,5,0,0
13681,-50,4,2,1,65,0,0
13967,-66.6666666666667,4,2,1,65,0,0
14181,-66.6666666666667,4,2,1,5,0,0
14253,-76.9230769230769,4,2,1,65,0,0
14467,-76.9230769230769,4,2,1,5,0,0
14539,-76.9230769230769,4,2,1,65,0,0
14824,-66.6666666666667,4,2,1,65,0,0
15039,-66.6666666666667,4,2,1,5,0,0
15110,-50,4,2,1,65,0,0
17396,-66.6666666666667,4,2,1,65,0,0
17681,-50,4,2,1,65,0,0
17777,-43.4782608695652,4,2,1,25,0,0
18253,-43.4782608695652,4,2,1,50,0,0
18539,-53.475935828877,4,2,1,65,0,0
18681,-53.475935828877,4,2,1,45,0,0
18824,-100,4,2,1,45,0,0
19396,-66.6666666666667,4,2,1,45,0,0
23396,-100,4,2,1,45,0,0
23967,-66.6666666666667,4,2,1,45,0,0
26824,-100,4,2,1,45,0,0
28539,-66.6666666666667,4,2,1,45,0,0
32539,-100,4,2,1,45,0,0
33110,-66.6666666666667,4,2,1,45,0,0
35967,-100,4,2,1,75,0,0
37110,-43.4782608695652,4,2,1,75,0,0
38253,-43.4782608695652,4,2,1,75,0,0
38896,-43.4782608695652,4,2,1,5,0,0
39110,-55.5555555555556,4,2,1,75,0,0
39539,-55.5555555555556,4,2,1,45,0,0
39681,-43.4782608695652,4,2,1,75,0,0
40467,-43.4782608695652,4,2,1,5,0,0
40539,-43.4782608695652,4,2,1,75,0,0
43181,-43.4782608695652,4,2,1,5,0,0
43253,-43.4782608695652,4,2,1,75,0,0
44467,-43.4782608695652,4,2,1,60,0,0
44681,-43.4782608695652,4,2,1,75,0,0
45110,-74.0740740740741,4,2,1,75,0,0
46253,-62.5,4,2,1,75,0,0
46539,-50,4,2,1,75,0,0
48539,-43.4782608695652,4,2,1,75,0,0
49681,-47.6190476190476,4,2,1,75,0,0
50253,-58.8235294117647,4,2,1,75,0,0
50824,-50,4,2,1,75,0,0
51396,-50,4,2,1,75,0,0
53110,-50,4,2,1,65,0,0
53967,-66.6666666666667,4,2,1,75,0,0
54253,-83.3333333333333,4,2,1,75,0,0
54753,-100,4,2,1,5,0,0
54824,-100,4,2,1,75,0,0
55396,-55.5555555555556,4,2,1,55,0,0
56181,-55.5555555555556,4,2,1,5,0,0
56253,-55.5555555555556,4,2,1,55,0,0
56539,-66.6666666666667,4,2,1,55,0,0
57396,-50,4,2,1,55,0,0
57610,-50,4,2,1,5,0,0
57681,-50,4,2,1,55,0,0
58253,-55.5555555555556,4,2,1,55,0,0
58467,-55.5555555555556,4,2,1,5,0,0
58539,-55.5555555555556,4,2,1,55,0,0
63110,-71.4285714285714,4,2,1,55,0,0
63324,-71.4285714285714,4,2,1,5,0,0
63396,-71.4285714285714,4,2,1,55,0,0
63896,-71.4285714285714,4,2,1,5,0,0
63967,-100,4,2,1,55,0,0
64539,-100,4,2,1,65,0,0
64824,-50,4,2,1,65,0,0
66467,-50,4,2,1,5,0,0
66539,-50,4,2,1,65,0,0
67039,-50,4,2,1,5,0,0
67110,-50,4,2,1,65,0,0
70253,-50,4,2,1,55,0,0
71110,-50,4,2,1,45,0,0
73681,-50,4,2,1,75,0,0
73824,-50,4,2,1,5,0,0
73967,-33.3333333333333,4,2,1,75,0,0
74110,-33.3333333333333,4,2,1,45,0,0
74253,-33.3333333333333,4,2,1,75,0,0
74324,-33.3333333333333,4,2,1,5,0,0
74396,-25,4,2,1,75,0,0
74681,-25,4,2,1,5,0,0
74824,-29.4117647058824,4,2,1,75,0,0
74967,-29.4117647058824,4,2,1,5,0,0
75253,-29.4117647058824,4,2,1,75,0,0
75824,-29.4117647058824,4,2,1,5,0,0
75967,-29.4117647058824,4,2,1,75,0,0
76896,-29.4117647058824,4,2,1,5,0,0
76967,-55.5555555555556,4,2,1,75,0,0
77039,-55.5555555555556,4,2,1,5,0,0
77110,-55.5555555555556,4,2,1,75,0,0
77181,-31.7460317460317,4,2,1,75,0,0
77467,-31.7460317460317,4,2,1,5,0,0
77539,-31.7460317460317,4,2,1,75,0,0
77681,-26.6666666666667,4,2,1,75,0,0
77896,-26.6666666666667,4,2,1,5,0,0
77967,-26.6666666666667,4,2,1,75,0,0
78039,-26.6666666666667,4,2,1,5,0,0
78110,-26.6666666666667,4,2,1,75,0,0
78181,-26.6666666666667,4,2,1,60,0,0
78253,-26.6666666666667,4,2,1,45,0,0
78324,-26.6666666666667,4,2,1,30,0,0
78396,-26.6666666666667,4,2,1,15,0,0
78467,-26.6666666666667,4,2,1,5,0,0
78539,-26.6666666666667,4,2,1,75,0,0
78681,-26.6666666666667,4,2,1,45,0,0
78824,-26.6666666666667,4,2,1,75,0,0
78896,-26.6666666666667,4,2,1,5,0,0
78967,-25,4,2,1,75,0,0
79253,-25,4,2,1,5,0,0
79396,-29.4117647058824,4,2,1,75,0,0
79539,-29.4117647058824,4,2,1,5,0,0
79824,-29.4117647058824,4,2,1,75,0,0
80396,-29.4117647058824,4,2,1,5,0,0
80539,-29.4117647058824,4,2,1,75,0,0
81396,-66.6666666666667,4,2,1,75,0,0
81610,-66.6666666666667,4,2,1,5,0,0
81681,-43.4782608695652,4,2,1,75,0,0
82253,-133.333333333333,4,2,1,75,0,0
82824,-50,4,2,1,75,0,0
83110,-33.3333333333333,4,2,1,75,0,0
83253,-33.3333333333333,4,2,1,45,0,0
83396,-33.3333333333333,4,2,1,75,0,0
83539,-25,4,2,1,75,0,0
83824,-25,4,2,1,5,0,0
83896,-29.4117647058824,4,2,1,5,0,0
83967,-29.4117647058824,4,2,1,75,0,0
84110,-29.4117647058824,4,2,1,5,0,0
84396,-29.4117647058824,4,2,1,75,0,0
84967,-29.4117647058824,4,2,1,5,0,0
85396,-29.4117647058824,4,2,1,75,0,0
85467,-29.4117647058824,4,2,1,5,0,0
85681,-29.4117647058824,4,2,1,75,0,0
85753,-29.4117647058824,4,2,1,5,0,0
85824,-29.4117647058824,4,2,1,75,0,0
85896,-29.4117647058824,4,2,1,5,0,0
86110,-55.5555555555556,4,2,1,75,0,0
86324,-55.5555555555556,4,2,1,5,0,0
86396,-31.7460317460317,4,2,1,75,0,0
86610,-23.8095238095238,4,2,1,5,0,0
86681,-23.8095238095238,4,2,1,75,0,0
86753,-23.8095238095238,4,2,1,5,0,0
86824,-26.6666666666667,4,2,1,75,0,0
87039,-26.6666666666667,4,2,1,5,0,0
87110,-26.6666666666667,4,2,1,75,0,0
87181,-26.6666666666667,4,2,1,5,0,0
87253,-26.6666666666667,4,2,1,75,0,0
87324,-26.6666666666667,4,2,1,60,0,0
87396,-26.6666666666667,4,2,1,45,0,0
87467,-26.6666666666667,4,2,1,30,0,0
87539,-26.6666666666667,4,2,1,15,0,0
87610,-26.6666666666667,4,2,1,5,0,0
87681,-26.6666666666667,4,2,1,75,0,0
87824,-26.6666666666667,4,2,1,45,0,0
87967,-26.6666666666667,4,2,1,75,0,0
88039,-26.6666666666667,4,2,1,5,0,0
88110,-25,4,2,1,75,0,0
88396,-25,4,2,1,5,0,0
88539,-29.4117647058824,4,2,1,75,0,0
88824,-29.4117647058824,4,2,1,45,0,0
88967,-29.4117647058824,4,2,1,75,0,0
90110,-66.6666666666667,4,2,1,75,0,0
90753,-66.6666666666667,4,2,1,5,0,0
90824,-43.4782608695652,4,2,1,75,0,0
91396,-100,4,2,1,45,0,0
91539,-100,4,2,1,25,0,0

[Colours]
Combo1 : 57,55,138
Combo2 : 245,171,214
Combo3 : 236,85,107
Combo4 : 138,79,157
Combo5 : 95,107,220
Combo6 : 90,56,105

[HitObjects]
51,215,9682,6,0,P|33:172|56:112,1,110.499994941712,6|2,3:2|0:1,0:0:0:0:
126,259,10253,2,0,P|111:274|93:317,1,63.7500024318696,2|2,0:0|0:0,0:0:0:0:
24,378,10539,2,0,P|123:337|206:333,2,170,2|2|0,3:2|0:1|0:0,0:0:0:0:
24,378,11253,6,0,L|11:294,1,85,2|0,0:1|0:0,0:0:0:0:
265,318,11682,2,0,L|252:234,1,85,2|0,0:1|0:0,0:0:0:0:
171,247,12253,6,0,L|184:331,1,85,2|0,0:1|0:0,0:0:0:0:
332,220,12682,2,0,L|345:304,1,85,2|0,0:1|0:0,0:0:0:0:
427,292,13110,5,2,0:3:0:0:
387,112,13396,1,4,0:2:0:0:
427,292,13681,5,2,0:0:0:0:
497,321,13824,1,2,0:0:0:0:
441,368,13967,2,0,P|409:368|380:354,1,63.7500024318696,2|0,0:1|0:0,0:0:0:0:
377,222,14253,6,0,L|388:112,1,110.499994941712,6|2,3:2|0:1,0:0:0:0:
305,280,14824,2,0,P|329:292|358:322,1,63.7500024318696,2|2,0:0|0:0,0:0:0:0:
377,222,15110,2,0,P|292:247|203:241,2,170,2|2|0,3:2|0:1|0:0,0:0:0:0:
377,222,15824,6,0,L|370:122,1,85,2|0,0:1|0:0,0:0:0:0:
131,252,16253,2,0,L|125:167,1,85,2|0,0:1|0:0,0:0:0:0:
204,148,16539,5,14,0:0:0:0:
106,327,16824,1,0,3:0:0:0:
21,376,16967,1,8,0:0:0:0:
61,286,17110,1,2,0:3:0:0:
80,383,17253,1,0,3:0:0:0:
8,316,17396,2,0,L|1:252,1,63.7500024318696,8|0,0:0|0:0,0:0:0:0:
124,140,17681,6,0,B|178:75|133:14|45:-19|-39:147|72:197,1,340,2|2,0:1|0:1,0:0:0:0:
131,252,18396,1,2,3:2:0:0:
131,252,18539,2,0,L|209:242,1,79.4749984235001,2|0,3:2|3:2,0:0:0:0:
281,197,18824,6,0,P|258:256|258:320,1,127.5,6|0,3:2|3:2,0:0:0:0:
335,308,19396,2,0,P|334:275|344:245,1,63.7500024318696,2|0,0:0|0:0,0:0:0:0:
404,191,19681,2,0,P|450:100|351:125,2,255.000009727478,2|2|2,3:2|3:2|0:1,0:0:0:0:
512,354,21396,6,0,P|467:328|424:326,1,95.6250036478044,2|0,3:2|0:0,0:0:0:0:
357,361,21681,1,2,0:0:0:0:
357,361,21824,2,0,P|335:337|306:325,1,63.7500024318696,0|2,3:2|0:0,0:0:0:0:
6,292,22539,5,2,0:3:0:0:
125,349,22824,1,2,3:3:0:0:
125,349,22967,1,0,0:2:0:0:
125,349,23110,2,0,L|35:344,1,63.7500024318696,2|0,0:0|0:0,0:0:0:0:
186,298,23396,6,0,P|209:239|190:180,1,127.5,6|0,3:2|3:0,0:0:0:0:
57,213,23967,2,0,L|120:207,1,63.7500024318696,2|0,0:0|0:0,0:0:0:0:
139,127,24253,2,0,P|240:105|163:37,2,255.000009727478,2|2|2,3:2|0:0|0:0,0:0:0:0:
92,67,25681,5,8,0:0:0:0:
118,343,26110,1,2,0:0:0:0:
167,281,26253,2,0,L|165:248,3,31.8750012159348,2|2|2|2,0:0|0:0|0:0|0:0,0:0:0:0:
240,278,26539,2,0,L|238:245,3,31.8750012159348,2|2|2|2,0:0|0:0|0:0|0:0,0:0:0:0:
211,351,26824,6,2,B|300:371|274:307|372:323,1,170,6|6,0:1|0:1,0:0:0:0:
394,290,27538,1,0,3:2:0:0:
396,251,27681,1,2,3:2:0:0:
376,217,27824,1,0,3:0:0:0:
343,197,27967,6,0,P|333:151|370:74,1,127.5,6|0,3:2|0:0,0:0:0:0:
306,30,28539,2,0,L|235:35,1,63.7500024318696,2|0,0:0|0:0,0:0:0:0:
215,109,28824,2,0,P|134:48|143:149,2,255.000009727478,2|2|2,3:2|3:2|0:1,0:0:0:0:
2,328,30539,6,0,P|64:348|90:381,1,95.6250036478044,2|0,3:2|0:0,0:0:0:0:
139,313,30824,1,2,0:0:0:0:
139,313,30967,2,0,P|167:330|198:336,1,63.7500024318696,0|2,3:0|0:0,0:0:0:0:
506,292,31681,5,2,0:3:0:0:
387,349,31967,1,2,3:3:0:0:
387,349,32110,1,0,0:2:0:0:
387,349,32253,2,0,L|477:344,1,63.7500024318696,2|0,0:0|0:0,0:0:0:0:
407,265,32539,6,0,P|343:273|284:296,1,127.500004863739,2|0,3:2|3:0,0:0:0:0:
246,361,33110,2,0,P|221:341|213:310,1,63.7500024318696,2|0,0:0|0:0,0:0:0:0:
234,237,33396,2,0,P|224:137|160:214,2,255.000009727478,2|2|2,3:2|0:0|0:0,0:0:0:0:
178,291,34824,5,12,0:0:0:0:
26,381,35110,1,0,0:0:0:0:
45,284,35253,1,8,0:2:0:0:
85,374,35396,1,2,0:3:0:0:
0,325,35539,1,0,3:3:0:0:
98,314,35681,2,0,L|105:250,1,63.7500024318696,8|0,0:2|0:2,0:2:0:0:
72,176,35967,6,2,B|170:160|144:224|233:204,1,170,6|6,0:1|0:1,0:0:0:0:
241,282,36681,1,2,3:2:0:0:
248,200,36824,1,2,3:2:0:0:
254,277,36967,1,2,3:2:0:0:
321,235,37110,6,0,P|362:238|408:201,1,97.7500018644333,6|0,3:2|0:0,0:0:0:0:
453,358,37396,2,0,B|417:270|514:254|469:158,1,195.500003728867,2|8,0:1|0:0,0:0:0:0:
335,108,37824,1,2,0:0:0:0:
405,205,37967,1,0,3:0:0:0:
421,84,38110,1,0,0:0:0:0:
321,235,38253,6,0,B|338:283|338:283|321:331,1,97.7500018644333,2|2,0:1|0:0,0:0:0:0:
248,200,38539,2,0,B|231:152|231:152|248:104,1,97.7500018644333,2|2,3:1|0:0,0:0:0:0:
405,205,38824,1,8,0:0:0:0:
255,286,39110,2,0,B|132:262|164:371|34:326,1,229.499992996216,2|0,0:1|0:3,0:0:0:0:
41,328,39681,6,0,P|46:280|92:261,1,97.7500018644333,4|0,3:2|0:0,0:0:0:0:
15,206,39967,1,10,0:0:0:0:
108,296,40110,2,0,L|254:285,1,146.62500279665,2|0,3:1|0:0,0:0:0:0:
275,262,40396,1,2,0:3:0:0:
317,333,40539,6,0,L|331:382,2,48.8750009322167,6|0|0,0:0|0:0|0:0,0:0:0:0:
317,333,40824,2,0,L|340:187,1,146.62500279665,2|0,0:0|0:0,0:0:0:0:
410,217,41110,2,0,L|394:313,1,97.7500018644333,10|0,0:1|0:0,0:0:0:0:
469,345,41396,1,2,0:3:0:0:
394,313,41539,1,2,0:3:0:0:
478,263,41681,6,0,P|491:216|476:170,1,97.7500018644333,6|0,0:2|0:0,0:0:0:0:
485,49,41967,2,0,B|498:158|401:119|409:216,1,195.500003728867,2|10,0:0|0:0,0:0:0:0:
410,71,42396,1,2,0:0:0:0:
337,178,42539,1,2,3:2:0:0:
323,54,42681,1,0,0:0:0:0:
409,216,42824,6,0,L|311:226,1,97.7500018644333,2|2,0:3|0:0,0:0:0:0:
142,107,43110,2,0,L|239:96,1,97.7500018644333,2|2,3:1|0:0,0:0:0:0:
67,247,43396,2,0,B|22:253|22:253|-15:289|-12:351|33:384,2,195.500003728867,14|2|10,0:2|0:0|0:0,0:0:0:0:
114,316,44110,5,2,0:0:0:0:
241,226,44253,2,0,L|143:237,1,97.7500018644333,6|8,3:1|0:0,0:0:0:0:
114,316,44539,1,10,0:0:0:0:
99,173,44681,1,0,3:0:0:0:
192,306,44824,2,0,L|289:294,1,97.7500018644333,10|2,0:0|0:0,0:0:0:0:
512,364,45110,6,2,B|421:384|448:319|348:335,1,172.125000656605,6|2,0:2|0:3,0:0:0:0:
348,335,45681,1,6,3:2:0:0:
289,293,45824,1,0,3:2:0:0:
289,219,45967,1,2,3:2:0:0:
347,171,46110,1,2,3:2:0:0:
432,254,46253,6,0,L|364:254,1,68,6|0,3:2|0:0,0:0:0:0:
272,146,46539,2,0,B|279:60|434:48|435:149|377:202|325:159,2,255,2|2|2,0:3|0:3|0:3,0:0:0:0:
272,146,47681,5,2,3:2:0:0:
364,254,47824,2,0,P|271:260|190:277,1,170,2|2,0:1|0:0,0:0:0:0:
137,328,48253,2,0,P|117:292|121:250,1,85,2|0,0:3|0:0,0:0:0:0:
200,104,48539,5,2,0:1:0:0:
267,53,48681,2,0,P|282:98|272:146,1,97.7500018644333,2|6,0:1|3:1,0:0:0:0:
173,184,48967,2,0,L|123:177,2,48.8750009322167,0|0|10,0:0|0:0|0:0,0:0:0:0:
200,104,49253,5,0,3:0:0:0:
60,133,49396,2,0,B|43:160|43:160|54:245,1,97.7500018644333,0|2,0:0|0:0,0:0:0:0:
136,384,49681,6,0,L|119:232,1,133.874995914459,2|0,0:3|0:0,0:0:0:0:
214,372,49967,2,0,L|200:236,1,133.874995914459,2|0,0:2|0:0,0:0:0:0:
258,196,50253,6,0,L|199:239,1,72.2500013780594,10|0,0:1|0:0,0:0:0:0:
306,257,50539,2,0,L|247:300,1,72.2500013780594,2|0,0:1|0:0,0:0:0:0:
468,362,50824,6,0,L|298:372,1,170,6|2,3:2|0:3,0:0:0:0:
247,299,51253,1,2,3:2:0:0:
383,291,51396,2,0,P|393:248|378:206,1,85,10|2,0:2|0:2,0:0:0:0:
303,176,51681,2,0,P|293:219|308:261,1,85,2|0,3:2|0:0,0:0:0:0:
468,277,51967,5,2,0:1:0:0:
384,367,52110,2,0,L|468:362,1,85,2|0,0:3|0:0,0:0:0:0:
314,329,52396,2,0,B|237:337|237:337|217:354|217:354|142:359,1,170,2|0,0:2|0:0,0:0:0:0:
180,239,52824,2,0,B|200:221|200:221|187:278,1,85,2|2,0:3|0:0,0:0:0:0:
150,358,53110,5,14,0:0:0:0:
131,95,53396,1,0,3:0:0:0:
112,192,53539,1,8,0:0:0:0:
72,102,53682,1,2,0:3:0:0:
157,151,53825,1,0,3:0:0:0:
59,162,53967,2,0,L|52:229,1,63.75,8|0,0:0|0:0,0:0:0:0:
85,350,54253,6,2,B|186:361|150:293|259:300,1,178.499994552612,2|2,0:0|3:1,0:0:0:0:
249,299,54824,1,2,3:2:0:0:
271,316,54967,1,0,3:2:0:0:
289,341,55110,1,0,3:2:0:0:
296,370,55253,1,0,3:2:0:0:
224,379,55396,6,0,L|212:224,1,152.999995330811,6|2,3:2|0:0,0:0:0:0:
296,370,55967,2,0,L|284:215,1,152.999995330811,2|2,3:2|0:0,0:0:0:0:
372,365,56539,1,0,3:2:0:0:
359,212,56824,1,2,0:2:0:0:
498,277,57110,1,2,3:2:0:0:
363,290,57396,6,0,B|296:298|296:298|268:275|268:275|202:281,1,170,2|6,0:0|3:2,0:0:0:0:
126,364,57967,2,0,L|215:354,1,85,2|0,0:0|0:0,0:0:0:0:
202,281,58253,2,0,L|43:300,1,152.999995330811,2|2,3:2|0:0,0:0:0:0:
194,204,58824,2,0,L|42:222,1,152.999995330811,0|0,3:2|0:0,0:0:0:0:
202,281,59396,5,2,3:2:0:0:
310,269,59681,1,2,0:0:0:0:
165,355,59967,6,0,P|120:292|163:210,1,152.999995330811,6|2,3:2|0:0,0:0:0:0:
342,195,60539,2,0,P|387:258|344:340,1,152.999995330811,2|2,3:2|0:0,0:0:0:0:
202,281,61110,1,2,3:2:0:0:
310,269,61396,1,2,0:0:0:0:
262,337,61681,1,2,3:2:0:0:
251,218,61967,6,0,L|237:66,1,152.999995330811,2|6,0:0|3:2,0:0:0:0:
202,281,62539,1,2,0:0:0:0:
310,269,62825,1,2,3:2:0:0:
262,337,63110,2,0,L|250:201,1,118.999996368408,2|2,0:3|3:1,0:0:0:0:
200,161,63681,5,0,0:0:0:0:
288,149,63824,1,0,0:0:0:0:
251,218,63967,2,0,L|254:260,3,42.5,6|2|2|2,0:1|0:0|0:0|0:0,0:0:0:0:
262,337,64539,5,6,3:2:0:0:
421,340,64824,2,0,P|379:318|338:320,1,85,2|2,0:1|0:3,0:0:0:0:
262,337,65110,2,0,P|316:308|325:200,1,170,8|2,3:2|0:3,0:0:0:0:
265,162,65539,2,0,L|260:113,2,42.5,2|2|2,0:3|0:3|3:3,0:0:0:0:
329,207,65824,5,2,0:0:0:0:
221,226,65967,2,0,L|137:235,1,85,0|2,0:0|0:3,0:0:0:0:
91,382,66253,2,0,B|82:289|29:327|23:230,1,170,10|2,3:1|0:0,0:0:0:0:
14,156,66681,6,0,L|9:105,2,42.5,2|2|6,0:3|0:3|3:2,0:0:0:0:
24,231,66967,1,0,0:0:0:0:
91,172,67110,2,0,L|83:87,1,85,2|0,0:0|0:0,0:0:0:0:
136,235,67396,2,0,L|143:319,1,85,10|2,3:1|0:0,0:0:0:0:
91,382,67681,1,2,0:0:0:0:
212,364,67824,6,0,L|263:357,2,42.5,2|2|2,0:3|0:3|3:1,0:0:0:0:
143,319,68110,1,2,0:3:0:0:
217,280,68253,2,0,P|227:233|214:199,1,85,2|0,0:2|0:2,0:0:0:0:
8,246,68539,6,0,L|146:234,1,127.5,14|0,3:1|0:0,0:0:0:0:
127,161,68824,2,0,L|-11:173,1,127.5,2|0,3:1|0:0,0:0:0:0:
8,246,69110,6,0,L|-1:336,1,85,6|0,3:1|0:0,0:0:0:0:
127,161,69396,2,0,L|136:71,1,85,2|0,3:1|0:0,0:0:0:0:
216,279,69681,2,0,L|207:369,1,85,2|0,3:1|0:0,0:0:0:0:
335,177,69967,2,0,L|344:87,1,85,2|0,3:1|0:0,0:0:0:0:
323,256,70253,6,0,L|332:314,3,42.5,2|0|2|0,3:3|0:3|0:3|0:3,0:3:0:0:
254,204,70539,6,0,L|245:146,3,42.5,2|2|2|2,3:3|0:3|0:3|0:3,0:0:0:0:
216,279,70824,6,0,L|225:337,3,42.5,2|0|2|0,3:3|0:3|3:3|0:3,0:3:0:0:
147,227,71110,6,0,L|138:169,3,42.5,2|0|0|0,3:1|3:3|3:3|3:3,0:3:0:0:
255,191,73681,22,0,P|296:194|329:169,1,85,6|0,3:2|0:0,0:0:0:0:
375,99,73967,54,0,B|344:64|339:27|378:5|391:52|391:52|417:7|453:35|429:79|379:110,1,255.000009727478,2|10,0:1|0:2,0:2:0:0:
477,197,74396,2,0,B|451:171|445:147|468:132|480:163|480:163|497:134|521:152|502:179|477:197,1,170,2|0,0:1|0:0,0:2:0:0:
321,318,74824,6,0,B|235:308|228:239|272:202|316:229|316:229|325:165|419:184|424:233|356:344,2,433.500008268356,2|2|2,0:1|0:1|0:1,0:2:0:0:
203,179,76253,70,0,B|177:155|155:160|150:131|150:131|153:97|189:91|197:123,1,144.500002756119,2|0,3:1|0:0,0:2:0:0:
203,179,76681,2,0,B|222:149|245:147|243:118|243:118|231:86|195:88|195:130,1,144.500002756119,2|0,3:1|0:0,0:2:0:0:
255,281,76967,6,0,L|178:289,1,76.4999976654053,2|6,0:3|0:2,0:2:0:0:
74,232,77253,2,0,B|3:190|-56:279|-2:348|82:313|105:402,1,267.749991828919,2|2,0:1|0:2,0:2:0:0:
99,384,77681,2,0,B|97:312|187:329|249:185|102:134|74:232,1,318.75,10|2,0:1|0:2,0:2:0:0:
45,98,78110,70,2,B|9:65|-16:13|10:-24|48:-28|74:-13|82:17|82:17|113:-26|165:-15|212:32|152:153|61:72|39:161,1,478.125011399389,2|2,0:1|0:1,0:2:0:0:
324,143,78824,6,0,P|285:149|251:131,1,79.6875018998981,10|0,0:2|0:2,0:2:0:0:
299,73,78967,2,0,B|328:53|341:31|323:12|303:38|303:38|291:7|266:18|277:47|298:72,1,170,2|0,0:1|0:0,0:2:0:0:
470,227,79396,70,0,B|538:117|533:68|439:49|430:113|430:113|386:86|342:123|349:192|435:202,2,433.500008268356,2|2|2,0:1|0:1|0:1,0:0:0:0:
470,227,80539,21,14,0:0:0:0:
349,353,80824,1,0,3:0:0:0:
405,276,80967,1,8,0:0:0:0:
314,305,81110,1,2,0:3:0:0:
405,334,81253,1,0,3:2:0:0:
349,257,81396,2,0,L|286:266,1,63.7500024318696,10|0,0:0|0:0,0:0:0:0:
89,360,81681,54,0,P|42:370|-6:343,1,97.7500018644333,6|0,0:1|0:0,0:0:0:0:
17,198,81967,2,0,P|64:187|107:209,1,97.7500018644333,2|0,0:3|0:0,0:0:0:0:
55,263,82253,22,0,L|49:308,3,31.8750012159348,6|0|0|0,0:1|0:0|0:0|0:0,0:0:0:0:
89,360,82824,54,0,P|148:349|168:326,1,85,6|0,3:2|0:0,0:0:0:0:
187,241,83110,6,0,B|218:205|226:171|187:149|174:196|174:196|147:151|112:179|132:230|183:254,1,255.000009727478,2|10,0:1|0:2,0:2:0:0:
243,305,83539,2,0,B|252:340|270:357|294:345|273:319|273:319|307:319|303:289|271:292|243:305,1,170,2|0,0:1|0:0,0:2:0:0:
106,208,83967,70,0,B|104:152|-40:191|-9:62|53:56|84:93|84:93|106:34|183:65|182:121|129:149|110:198,2,433.500008268356,2|2|2,0:1|0:1|0:1,0:0:0:0:
68,285,85396,6,0,B|37:303|17:293|6:320|6:320|2:354|36:368|50:338,1,144.500002756119,2|0,3:1|0:0,0:0:0:0:
68,285,85824,2,0,B|80:317|101:324|94:352|94:352|76:381|41:370|49:330,1,144.500002756119,2|0,3:1|0:0,0:0:0:0:
26,139,86110,70,0,L|102:139,1,76.4999976654053,8|2,0:0|0:0,0:0:0:0:
179,207,86396,2,0,B|106:177|61:275|125:335|204:287|229:352,1,267.750007915735,6|2,0:1|0:0,0:2:0:0:
187,359,86824,2,0,B|194:289|282:315|358:178|218:112|179:207,1,318.75,14|2,0:1|0:0,0:2:0:0:
102,139,87253,6,2,B|138:106|163:54|137:17|99:13|73:28|65:58|65:58|34:15|-18:26|-65:73|-5:194|86:113|108:202,1,478.125011399389,2|2,0:1|0:1,0:2:0:0:
254,197,87967,70,0,P|215:192|178:207,1,79.6875018998981,10|0,0:2|0:2,0:2:0:0:
225,270,88110,2,0,B|204:298|199:323|223:335|233:304|233:304|255:329|274:310|254:286|226:270,1,170,2|0,0:1|0:0,0:2:0:0:
429,328,88539,6,0,B|461:244|564:301|551:177|492:167|459:190|459:190|430:151|361:172|352:250|433:267|441:319,2,433.500008268356,2|2|2,0:1|0:1|0:3,0:0:0:0:
355,324,89539,69,2,0:3:0:0:
498,358,89681,1,14,0:1:0:0:
355,324,89967,21,0,3:0:0:0:
259,306,90110,1,10,0:0:0:0:
327,374,90253,1,2,0:3:0:0:
312,280,90396,1,0,3:2:0:0:
269,365,90539,2,0,L|191:348,1,63.7500024318696,10|0,0:2|0:0,0:0:0:0:
125,180,90824,54,0,P|172:146|218:155,1,97.7500018644333,6|0,0:2|0:0,0:0:0:0:
259,306,91110,2,0,P|211:339|166:331,1,97.7500018644333,2|0,0:3|0:0,0:0:0:0:
187,222,91396,22,0,L|201:273,3,42.5,2|0|0|0,3:1|3:0|3:0|3:0,0:0:0:0:
