osu file format v14

[General]
AudioFilename: audio.mp3
AudioLeadIn: 0
PreviewTime: 64431
Countdown: 1
SampleSet: Normal
StackLeniency: 0.7
Mode: 1
LetterboxInBreaks: 0
WidescreenStoryboard: 1

[Editor]
DistanceSpacing: 1.35
BeatDivisor: 8
GridSize: 32
TimelineZoom: 1.6

[Metadata]
Title:HANN(Alone)
TitleUnicode:한(一)
Artist:(G)I-DLE
ArtistUnicode:(여자)아이들
Creator:Greenshell
Version:Muzukashii
Source:
Tags:Lyawi PUMP IT UP XX: 20th Anniversary Edition Andamiro PIU gidle g idle kpop korean pop Jeon Soyeon 전소연 Cho Miyeon 조미연 Minnie Nicha Yontararak มินนี่ ณิชา ยนตรรักษ์ 민니 Seo Soojin 서수진 Song YuQi 宋雨琦 송우기 Yeh Shuhua 葉舒華 예슈화
BeatmapID:2460638
BeatmapSetID:1180029

[Difficulty]
HPDrainRate:6
CircleSize:3
OverallDifficulty:4
ApproachRate:10
SliderMultiplier:1.4
SliderTickRate:1

[Events]
//Background and Video events
0,0,"ha.png",0,-30
//Break Periods
2,177235,182861
//Storyboard Layer 0 (Background)
//Storyboard Layer 1 (Fail)
//Storyboard Layer 2 (Pass)
//Storyboard Layer 3 (Foreground)
//Storyboard Layer 4 (Overlay)
//Storyboard Sound Samples

[TimingPoints]
10312,571.428571428571,4,1,0,70,1,0
10312,-100,4,1,0,70,0,0
27931,-83.3333333333333,4,1,0,70,0,0
47026,-100,4,1,0,70,0,0
55954,-90.9090909090909,4,1,0,70,0,0
58240,-83.3333333333333,4,1,0,70,0,0
60526,-76.9230769230769,4,1,0,70,0,0
62811,-71.4285714285714,4,1,0,70,0,0
63097,-76.9230769230769,4,1,0,70,0,0
63240,-80,4,1,0,70,0,0
63383,-83.3333333333333,4,1,0,70,0,0
63526,-86.9565217391304,4,1,0,70,0,0
63669,-90.9090909090909,4,1,0,70,0,0
63811,-95.2380952380952,4,1,0,70,0,0
63954,-66.6666666666667,4,1,0,70,0,0
64383,-83.3333333333333,4,1,0,70,0,0
65097,-76.9230769230769,4,1,0,80,0,0
65169,-76.9230769230769,4,1,0,80,0,1
83311,-76.9230769230769,4,1,0,70,0,0
83597,-100,4,1,0,30,0,0
85669,-100,4,1,0,70,0,0
103359,-83.3333333333333,4,1,0,70,0,0
122454,-100,4,1,0,70,0,0
131382,-90.9090909090909,4,1,0,70,0,0
133668,-83.3333333333333,4,1,0,70,0,0
135954,-76.9230769230769,4,1,0,70,0,0
138239,-71.4285714285714,4,1,0,70,0,0
138525,-76.9230769230769,4,1,0,70,0,0
138668,-80,4,1,0,70,0,0
138811,-83.3333333333333,4,1,0,70,0,0
138954,-86.9565217391304,4,1,0,70,0,0
139097,-90.9090909090909,4,1,0,70,0,0
139239,-95.2380952380952,4,1,0,70,0,0
139382,-66.6666666666667,4,1,0,70,0,0
139811,-83.3333333333333,4,1,0,70,0,0
140525,-76.9230769230769,4,1,0,80,0,0
140597,-76.9230769230769,4,1,0,80,0,1
158883,-76.9230769230769,4,1,0,70,0,0
177169,-100,4,1,0,30,0,0
183240,-76.9230769230769,4,1,0,70,0,0
184026,-76.9230769230769,4,1,0,80,0,1
202169,-76.9230769230769,4,1,0,80,0,0
202311,-76.9230769230769,4,1,0,5,0,0

[HitObjects]
224,224,10312,5,4,0:0:0:0:
288,160,10883,1,2,0:0:0:0:
224,160,11454,1,0,0:0:0:0:
224,160,11740,1,0,0:0:0:0:
288,160,12026,1,2,0:0:0:0:
224,160,12597,1,0,0:0:0:0:
224,160,12883,1,0,0:0:0:0:
288,160,13169,1,2,0:0:0:0:
224,160,13454,1,0,0:0:0:0:
224,160,13740,1,0,0:0:0:0:
288,160,14311,1,2,0:0:0:0:
224,160,14883,1,0,0:0:0:0:
224,160,15169,1,0,0:0:0:0:
288,160,15454,1,2,0:0:0:0:
224,160,16026,1,0,0:0:0:0:
288,160,16311,1,2,0:0:0:0:
288,160,16597,1,2,0:0:0:0:
224,160,16883,1,0,0:0:0:0:
288,160,17169,1,2,0:0:0:0:
288,160,17740,1,2,0:0:0:0:
288,160,18026,1,2,0:0:0:0:
224,160,18311,1,0,0:0:0:0:
288,160,18597,1,2,0:0:0:0:
224,160,18883,1,0,0:0:0:0:
288,160,19169,1,2,0:0:0:0:
224,224,19454,1,4,0:0:0:0:
288,160,20026,1,2,0:0:0:0:
224,160,20597,1,0,0:0:0:0:
224,160,20883,1,0,0:0:0:0:
288,160,21169,1,2,0:0:0:0:
224,160,21740,1,0,0:0:0:0:
224,160,22026,1,0,0:0:0:0:
288,160,22311,1,2,0:0:0:0:
288,160,22597,1,2,0:0:0:0:
224,160,22883,1,0,0:0:0:0:
288,160,23454,1,2,0:0:0:0:
224,160,24026,1,0,0:0:0:0:
224,160,24311,1,0,0:0:0:0:
288,160,24597,1,2,0:0:0:0:
288,160,25169,1,2,0:0:0:0:
224,160,25454,1,0,0:0:0:0:
288,160,25740,1,2,0:0:0:0:
288,160,26026,1,2,0:0:0:0:
224,160,26311,1,0,0:0:0:0:
288,160,26883,1,2,0:0:0:0:
224,160,27169,1,0,0:0:0:0:
224,160,27454,1,0,0:0:0:0:
224,160,27597,1,0,0:0:0:0:
224,160,27740,1,0,0:0:0:0:
288,224,28026,1,6,0:0:0:0:
224,160,28311,1,0,0:0:0:0:
224,224,28597,1,4,0:0:0:0:
288,160,29169,1,2,0:0:0:0:
224,160,29454,1,0,0:0:0:0:
288,160,29740,1,2,0:0:0:0:
288,160,30169,1,2,0:0:0:0:
288,160,30311,1,2,0:0:0:0:
288,160,30597,1,2,0:0:0:0:
224,160,30883,1,0,0:0:0:0:
288,160,31454,1,2,0:0:0:0:
288,160,31740,1,2,0:0:0:0:
224,160,32026,1,0,0:0:0:0:
288,160,32454,1,2,0:0:0:0:
288,160,32597,1,2,0:0:0:0:
224,160,32883,1,0,0:0:0:0:
288,160,33169,1,2,0:0:0:0:
288,160,33740,1,2,0:0:0:0:
288,160,34311,1,2,0:0:0:0:
288,160,34883,1,2,0:0:0:0:
224,160,35169,1,0,0:0:0:0:
224,160,35311,1,0,0:0:0:0:
224,160,35454,1,0,0:0:0:0:
288,160,36311,1,2,0:0:0:0:
288,160,36454,1,2,0:0:0:0:
224,160,36883,1,0,0:0:0:0:
288,160,37169,1,2,0:0:0:0:
288,160,37454,1,2,0:0:0:0:
224,160,37740,1,0,0:0:0:0:
288,160,38169,1,2,0:0:0:0:
288,160,38311,1,2,0:0:0:0:
224,160,38597,1,0,0:0:0:0:
288,160,38883,1,2,0:0:0:0:
224,160,39311,1,0,0:0:0:0:
224,160,39454,1,0,0:0:0:0:
288,160,39740,1,2,0:0:0:0:
224,160,40026,1,0,0:0:0:0:
288,160,40597,1,2,0:0:0:0:
288,160,40883,1,2,0:0:0:0:
224,160,41169,1,0,0:0:0:0:
224,160,41740,1,0,0:0:0:0:
224,160,42026,1,0,0:0:0:0:
288,160,42311,1,2,0:0:0:0:
288,160,42883,1,2,0:0:0:0:
288,160,43454,1,2,0:0:0:0:
288,160,44026,1,2,0:0:0:0:
224,160,44311,1,0,0:0:0:0:
224,160,44597,1,0,0:0:0:0:
288,160,45454,1,2,0:0:0:0:
224,160,45740,1,0,0:0:0:0:
224,160,45883,1,0,0:0:0:0:
224,160,46026,1,0,0:0:0:0:
288,160,46311,1,2,0:0:0:0:
224,224,46883,1,4,0:0:0:0:
288,160,47454,1,2,0:0:0:0:
288,160,47740,1,2,0:0:0:0:
288,160,48026,1,2,0:0:0:0:
224,160,48311,1,0,0:0:0:0:
288,160,48597,1,2,0:0:0:0:
224,160,49169,1,0,0:0:0:0:
288,160,49454,1,2,0:0:0:0:
288,160,49740,1,2,0:0:0:0:
288,160,49883,1,2,0:0:0:0:
288,160,50026,1,2,0:0:0:0:
224,160,50311,1,0,0:0:0:0:
288,160,50883,1,2,0:0:0:0:
224,160,51454,1,0,0:0:0:0:
288,160,51740,1,2,0:0:0:0:
224,160,52026,1,0,0:0:0:0:
224,160,52311,1,0,0:0:0:0:
288,160,52597,1,2,0:0:0:0:
224,160,52883,1,0,0:0:0:0:
288,160,53169,1,2,0:0:0:0:
224,160,53740,1,0,0:0:0:0:
288,160,54026,1,2,0:0:0:0:
224,160,54311,1,0,0:0:0:0:
224,160,54454,1,0,0:0:0:0:
224,160,54597,1,0,0:0:0:0:
288,160,54883,1,2,0:0:0:0:
288,160,55169,1,2,0:0:0:0:
224,160,55454,1,0,0:0:0:0:
224,160,56026,1,0,0:0:0:0:
288,160,56311,1,2,0:0:0:0:
288,160,56597,1,2,0:0:0:0:
224,160,56883,1,0,0:0:0:0:
288,160,57169,1,2,0:0:0:0:
224,160,57454,1,0,0:0:0:0:
288,160,57740,1,2,0:0:0:0:
224,160,58311,1,0,0:0:0:0:
288,160,58597,1,2,0:0:0:0:
288,160,58883,1,2,0:0:0:0:
224,160,59169,1,0,0:0:0:0:
224,160,59311,1,0,0:0:0:0:
224,160,59454,1,0,0:0:0:0:
288,160,59740,1,2,0:0:0:0:
288,160,60026,1,2,0:0:0:0:
224,160,60597,1,0,0:0:0:0:
224,160,61169,1,0,0:0:0:0:
288,160,61454,1,2,0:0:0:0:
224,160,61740,1,0,0:0:0:0:
224,160,62311,1,0,0:0:0:0:
288,160,62883,1,2,0:0:0:0:
288,160,63454,1,2,0:0:0:0:
288,160,63597,1,2,0:0:0:0:
288,160,63740,1,2,0:0:0:0:
288,224,64026,5,6,0:0:0:0:
224,160,64454,1,0,0:0:0:0:
224,160,64597,1,0,0:0:0:0:
288,160,64883,1,2,0:0:0:0:
224,224,65169,1,4,0:0:0:0:
288,160,65597,1,2,0:0:0:0:
288,160,65740,1,2,0:0:0:0:
224,160,66597,1,0,0:0:0:0:
288,160,66883,1,2,0:0:0:0:
288,160,67026,1,2,0:0:0:0:
224,160,67169,1,0,0:0:0:0:
288,160,67454,1,2,0:0:0:0:
288,160,67883,1,2,0:0:0:0:
288,160,68026,1,2,0:0:0:0:
288,160,68883,1,2,0:0:0:0:
224,160,69169,1,0,0:0:0:0:
224,160,69311,1,0,0:0:0:0:
288,160,69454,1,2,0:0:0:0:
224,160,69740,1,0,0:0:0:0:
288,160,70169,1,2,0:0:0:0:
288,160,70311,1,2,0:0:0:0:
224,160,71169,1,0,0:0:0:0:
288,160,71454,1,2,0:0:0:0:
288,160,71740,1,2,0:0:0:0:
288,160,71883,1,2,0:0:0:0:
288,160,72026,1,2,0:0:0:0:
224,160,72311,1,0,0:0:0:0:
288,160,72597,1,2,0:0:0:0:
224,160,72883,1,0,0:0:0:0:
224,160,73026,1,0,0:0:0:0:
224,160,73169,1,0,0:0:0:0:
288,160,73597,1,2,0:0:0:0:
288,160,73740,1,2,0:0:0:0:
224,160,74026,1,0,0:0:0:0:
224,224,74311,1,4,0:0:0:0:
288,160,74740,1,2,0:0:0:0:
288,160,74883,1,2,0:0:0:0:
224,160,75740,1,0,0:0:0:0:
288,160,76026,1,2,0:0:0:0:
224,160,76169,1,0,0:0:0:0:
224,160,76311,1,0,0:0:0:0:
288,160,76597,1,2,0:0:0:0:
288,160,77026,1,2,0:0:0:0:
288,160,77169,1,2,0:0:0:0:
288,160,78026,1,2,0:0:0:0:
224,160,78311,1,0,0:0:0:0:
288,160,78454,1,2,0:0:0:0:
288,160,78597,1,2,0:0:0:0:
224,160,78883,1,0,0:0:0:0:
288,160,79311,1,2,0:0:0:0:
288,160,79454,1,2,0:0:0:0:
224,160,80311,1,0,0:0:0:0:
288,160,80597,1,2,0:0:0:0:
288,160,80883,1,2,0:0:0:0:
288,160,81026,1,2,0:0:0:0:
288,160,81169,1,2,0:0:0:0:
224,160,81454,1,0,0:0:0:0:
288,160,81740,1,2,0:0:0:0:
224,160,82026,1,0,0:0:0:0:
224,160,82169,1,0,0:0:0:0:
224,160,82311,1,0,0:0:0:0:
224,160,82597,1,0,0:0:0:0:
288,160,82883,1,2,0:0:0:0:
288,160,83169,1,2,0:0:0:0:
288,160,83311,1,2,0:0:0:0:
224,224,85740,1,4,0:0:0:0:
288,160,86311,1,2,0:0:0:0:
224,160,86883,1,0,0:0:0:0:
224,160,87169,1,0,0:0:0:0:
288,160,87454,1,2,0:0:0:0:
224,160,88026,1,0,0:0:0:0:
224,160,88311,1,0,0:0:0:0:
288,160,88597,1,2,0:0:0:0:
224,160,88883,1,0,0:0:0:0:
224,160,89169,1,0,0:0:0:0:
288,160,89740,1,2,0:0:0:0:
224,160,90311,1,0,0:0:0:0:
224,160,90597,1,0,0:0:0:0:
288,160,90883,1,2,0:0:0:0:
224,160,91454,1,0,0:0:0:0:
288,160,91740,1,2,0:0:0:0:
288,160,92026,1,2,0:0:0:0:
224,160,92311,1,0,0:0:0:0:
288,160,92597,1,2,0:0:0:0:
288,160,93169,1,2,0:0:0:0:
288,160,93454,1,2,0:0:0:0:
224,160,93740,1,0,0:0:0:0:
288,160,94026,1,2,0:0:0:0:
224,160,94311,1,0,0:0:0:0:
288,160,94597,1,2,0:0:0:0:
224,224,94883,1,4,0:0:0:0:
288,160,95454,1,2,0:0:0:0:
224,160,96026,1,0,0:0:0:0:
224,160,96311,1,0,0:0:0:0:
288,160,96597,1,2,0:0:0:0:
224,160,97169,1,0,0:0:0:0:
224,160,97454,1,0,0:0:0:0:
288,160,97740,1,2,0:0:0:0:
288,160,98026,1,2,0:0:0:0:
224,160,98311,1,0,0:0:0:0:
288,160,98883,1,2,0:0:0:0:
224,160,99454,1,0,0:0:0:0:
224,160,99740,1,0,0:0:0:0:
288,160,100026,1,2,0:0:0:0:
288,160,100597,1,2,0:0:0:0:
224,160,100883,1,0,0:0:0:0:
288,160,101169,1,2,0:0:0:0:
288,160,101454,1,2,0:0:0:0:
224,160,101740,1,0,0:0:0:0:
288,160,102311,1,2,0:0:0:0:
224,160,102597,1,0,0:0:0:0:
224,160,102883,1,0,0:0:0:0:
224,160,103026,1,0,0:0:0:0:
224,160,103169,1,0,0:0:0:0:
288,224,103454,1,6,0:0:0:0:
224,160,103740,1,0,0:0:0:0:
224,224,104026,1,4,0:0:0:0:
224,160,104883,1,0,0:0:0:0:
288,160,105169,1,2,0:0:0:0:
288,160,105454,1,2,0:0:0:0:
288,160,105740,1,2,0:0:0:0:
224,160,106026,1,0,0:0:0:0:
224,160,106169,1,0,0:0:0:0:
224,160,106311,1,0,0:0:0:0:
224,160,107169,1,0,0:0:0:0:
288,160,107454,1,2,0:0:0:0:
224,160,107740,1,0,0:0:0:0:
288,160,108026,1,2,0:0:0:0:
288,160,108311,1,2,0:0:0:0:
288,160,108454,1,2,0:0:0:0:
288,160,108597,1,2,0:0:0:0:
224,160,109169,1,0,0:0:0:0:
288,160,109454,1,2,0:0:0:0:
224,160,109740,1,0,0:0:0:0:
224,160,110026,1,0,0:0:0:0:
288,160,110311,1,2,0:0:0:0:
288,160,110454,1,2,0:0:0:0:
288,160,110597,1,2,0:0:0:0:
224,160,110883,1,0,0:0:0:0:
288,160,111454,1,2,0:0:0:0:
288,160,111740,1,2,0:0:0:0:
224,160,112026,1,0,0:0:0:0:
288,160,112311,1,2,0:0:0:0:
288,160,112454,1,2,0:0:0:0:
288,160,112597,1,2,0:0:0:0:
224,160,112883,1,0,0:0:0:0:
224,224,113169,1,4,0:0:0:0:
288,160,113740,1,2,0:0:0:0:
224,160,114026,1,0,0:0:0:0:
224,160,114169,1,0,0:0:0:0:
224,160,114597,1,0,0:0:0:0:
288,160,114883,1,2,0:0:0:0:
224,160,115169,1,0,0:0:0:0:
224,160,115454,1,0,0:0:0:0:
288,160,116026,1,2,0:0:0:0:
288,160,116311,1,2,0:0:0:0:
224,160,116740,1,0,0:0:0:0:
288,160,117169,1,2,0:0:0:0:
288,160,117454,1,2,0:0:0:0:
224,160,117740,1,0,0:0:0:0:
224,160,118026,1,0,0:0:0:0:
288,160,118311,1,2,0:0:0:0:
288,160,118454,1,2,0:0:0:0:
288,160,118597,1,2,0:0:0:0:
224,160,118883,1,0,0:0:0:0:
288,160,119454,1,2,0:0:0:0:
288,160,119597,1,2,0:0:0:0:
288,160,119740,1,2,0:0:0:0:
224,160,120026,1,0,0:0:0:0:
288,160,120597,1,2,0:0:0:0:
288,160,120883,1,2,0:0:0:0:
224,160,121169,1,0,0:0:0:0:
224,160,121311,1,0,0:0:0:0:
224,160,121454,1,0,0:0:0:0:
288,160,121740,1,2,0:0:0:0:
224,224,122311,1,4,0:0:0:0:
288,160,122883,1,2,0:0:0:0:
288,160,123169,1,2,0:0:0:0:
288,160,123454,1,2,0:0:0:0:
224,160,123740,1,0,0:0:0:0:
288,160,124026,1,2,0:0:0:0:
224,160,124597,1,0,0:0:0:0:
288,160,124883,1,2,0:0:0:0:
288,160,125169,1,2,0:0:0:0:
288,160,125311,1,2,0:0:0:0:
288,160,125454,1,2,0:0:0:0:
224,160,125740,1,0,0:0:0:0:
288,160,126311,1,2,0:0:0:0:
224,160,126883,1,0,0:0:0:0:
288,160,127169,1,2,0:0:0:0:
224,160,127454,1,0,0:0:0:0:
224,160,127740,1,0,0:0:0:0:
288,160,128026,1,2,0:0:0:0:
224,160,128311,1,0,0:0:0:0:
288,160,128597,1,2,0:0:0:0:
224,160,129169,1,0,0:0:0:0:
288,160,129454,1,2,0:0:0:0:
224,160,129740,1,0,0:0:0:0:
224,160,129883,1,0,0:0:0:0:
224,160,130026,1,0,0:0:0:0:
288,160,130311,1,2,0:0:0:0:
288,160,130597,1,2,0:0:0:0:
224,160,130883,1,0,0:0:0:0:
224,160,131454,1,0,0:0:0:0:
288,160,131740,1,2,0:0:0:0:
288,160,132026,1,2,0:0:0:0:
224,160,132311,1,0,0:0:0:0:
288,160,132597,1,2,0:0:0:0:
224,160,132883,1,0,0:0:0:0:
288,160,133169,1,2,0:0:0:0:
224,160,133740,1,0,0:0:0:0:
288,160,134026,1,2,0:0:0:0:
288,160,134311,1,2,0:0:0:0:
224,160,134597,1,0,0:0:0:0:
224,160,134740,1,0,0:0:0:0:
224,160,134883,1,0,0:0:0:0:
288,160,135169,1,2,0:0:0:0:
288,160,135454,1,2,0:0:0:0:
224,160,136026,1,0,0:0:0:0:
224,160,136597,1,0,0:0:0:0:
224,160,137169,1,0,0:0:0:0:
224,160,137740,1,0,0:0:0:0:
288,160,138311,1,2,0:0:0:0:
288,160,138883,1,2,0:0:0:0:
288,160,139026,1,2,0:0:0:0:
288,160,139169,1,2,0:0:0:0:
288,224,139454,1,6,0:0:0:0:
224,160,139883,1,0,0:0:0:0:
224,160,140026,1,0,0:0:0:0:
288,160,140311,1,2,0:0:0:0:
224,224,140597,1,4,0:0:0:0:
288,160,141026,1,2,0:0:0:0:
288,160,141169,1,2,0:0:0:0:
224,160,142026,1,0,0:0:0:0:
288,160,142311,1,2,0:0:0:0:
288,160,142454,1,2,0:0:0:0:
224,160,142597,1,0,0:0:0:0:
288,160,142883,1,2,0:0:0:0:
288,160,143311,1,2,0:0:0:0:
288,160,143454,1,2,0:0:0:0:
288,160,144311,1,2,0:0:0:0:
224,160,144597,1,0,0:0:0:0:
224,160,144740,1,0,0:0:0:0:
288,160,144883,1,2,0:0:0:0:
224,160,145169,1,0,0:0:0:0:
288,160,145597,1,2,0:0:0:0:
288,160,145740,1,2,0:0:0:0:
224,160,146597,1,0,0:0:0:0:
288,160,146883,1,2,0:0:0:0:
288,160,147169,1,2,0:0:0:0:
288,160,147311,1,2,0:0:0:0:
288,160,147454,1,2,0:0:0:0:
224,160,147740,1,0,0:0:0:0:
288,160,148026,1,2,0:0:0:0:
224,160,148311,1,0,0:0:0:0:
224,160,148454,1,0,0:0:0:0:
224,160,148597,1,0,0:0:0:0:
288,160,149026,1,2,0:0:0:0:
288,160,149169,1,2,0:0:0:0:
224,160,149454,1,0,0:0:0:0:
224,224,149740,1,4,0:0:0:0:
288,160,150169,1,2,0:0:0:0:
288,160,150311,1,2,0:0:0:0:
224,160,151169,1,0,0:0:0:0:
288,160,151454,1,2,0:0:0:0:
224,160,151597,1,0,0:0:0:0:
224,160,151740,1,0,0:0:0:0:
288,160,152026,1,2,0:0:0:0:
288,160,152454,1,2,0:0:0:0:
288,160,152597,1,2,0:0:0:0:
288,160,153454,1,2,0:0:0:0:
224,160,153740,1,0,0:0:0:0:
288,160,153883,1,2,0:0:0:0:
288,160,154026,1,2,0:0:0:0:
224,160,154311,1,0,0:0:0:0:
288,160,154740,1,2,0:0:0:0:
288,160,154883,1,2,0:0:0:0:
224,160,155740,1,0,0:0:0:0:
288,160,156026,1,2,0:0:0:0:
288,160,156311,1,2,0:0:0:0:
288,160,156454,1,2,0:0:0:0:
288,160,156597,1,2,0:0:0:0:
224,160,156883,1,0,0:0:0:0:
288,160,157169,1,2,0:0:0:0:
224,160,157454,1,0,0:0:0:0:
224,160,157597,1,0,0:0:0:0:
224,160,157740,1,0,0:0:0:0:
224,160,158026,1,0,0:0:0:0:
288,160,158311,1,2,0:0:0:0:
288,160,158597,1,2,0:0:0:0:
224,224,158883,1,4,0:0:0:0:
288,160,159454,1,2,0:0:0:0:
288,160,159740,1,2,0:0:0:0:
224,160,160026,1,0,0:0:0:0:
224,160,160311,1,0,0:0:0:0:
288,160,160597,1,2,0:0:0:0:
224,160,160883,1,0,0:0:0:0:
224,160,161026,1,0,0:0:0:0:
288,160,161740,1,2,0:0:0:0:
288,160,162026,1,2,0:0:0:0:
224,160,162311,1,0,0:0:0:0:
288,160,162597,1,2,0:0:0:0:
224,160,162883,1,0,0:0:0:0:
288,160,163169,1,2,0:0:0:0:
288,160,163311,1,2,0:0:0:0:
288,160,164026,1,2,0:0:0:0:
288,160,164311,1,2,0:0:0:0:
224,160,164597,1,0,0:0:0:0:
224,160,164883,1,0,0:0:0:0:
288,160,165169,1,2,0:0:0:0:
288,160,165311,1,2,0:0:0:0:
288,160,165454,1,2,0:0:0:0:
224,160,165740,1,0,0:0:0:0:
288,160,166026,1,2,0:0:0:0:
288,160,166597,1,2,0:0:0:0:
224,160,166883,1,0,0:0:0:0:
224,160,167026,1,0,0:0:0:0:
224,160,167169,1,0,0:0:0:0:
288,160,167454,1,2,0:0:0:0:
224,160,168026,1,0,0:0:0:0:
288,160,168597,1,2,0:0:0:0:
224,160,168883,1,0,0:0:0:0:
224,160,169169,1,0,0:0:0:0:
288,160,169454,1,2,0:0:0:0:
288,160,169597,1,2,0:0:0:0:
288,160,169740,1,2,0:0:0:0:
224,160,170026,1,0,0:0:0:0:
224,160,170169,1,0,0:0:0:0:
288,160,170883,1,2,0:0:0:0:
288,160,171169,1,2,0:0:0:0:
224,160,171454,1,0,0:0:0:0:
288,160,171740,1,2,0:0:0:0:
288,160,171883,1,2,0:0:0:0:
288,160,172026,1,2,0:0:0:0:
224,160,172311,1,0,0:0:0:0:
224,160,172454,1,0,0:0:0:0:
288,160,173169,1,2,0:0:0:0:
224,160,173454,1,0,0:0:0:0:
224,160,173740,1,0,0:0:0:0:
224,160,174026,1,0,0:0:0:0:
288,160,174311,1,2,0:0:0:0:
288,160,174454,1,2,0:0:0:0:
288,160,174597,1,2,0:0:0:0:
224,160,174883,1,0,0:0:0:0:
288,160,175169,1,2,0:0:0:0:
288,160,175740,1,2,0:0:0:0:
224,160,176026,1,0,0:0:0:0:
224,160,176169,1,0,0:0:0:0:
224,160,176311,1,0,0:0:0:0:
288,224,176597,1,6,0:0:0:0:
224,160,183311,5,0,0:0:0:0:
224,160,183454,1,0,0:0:0:0:
288,160,183740,1,2,0:0:0:0:
224,224,184026,1,4,0:0:0:0:
288,160,184454,1,2,0:0:0:0:
288,160,184597,1,2,0:0:0:0:
224,160,185454,1,0,0:0:0:0:
288,160,185740,1,2,0:0:0:0:
288,160,185883,1,2,0:0:0:0:
224,160,186026,1,0,0:0:0:0:
288,160,186311,1,2,0:0:0:0:
288,160,186740,1,2,0:0:0:0:
288,160,186883,1,2,0:0:0:0:
288,160,187740,1,2,0:0:0:0:
224,160,188026,1,0,0:0:0:0:
224,160,188169,1,0,0:0:0:0:
288,160,188311,1,2,0:0:0:0:
224,160,188597,1,0,0:0:0:0:
288,160,189026,1,2,0:0:0:0:
288,160,189169,1,2,0:0:0:0:
224,160,190026,1,0,0:0:0:0:
288,160,190311,1,2,0:0:0:0:
288,160,190597,1,2,0:0:0:0:
288,160,190740,1,2,0:0:0:0:
288,160,190883,1,2,0:0:0:0:
224,160,191169,1,0,0:0:0:0:
288,160,191454,1,2,0:0:0:0:
224,160,191740,1,0,0:0:0:0:
224,160,191883,1,0,0:0:0:0:
224,160,192026,1,0,0:0:0:0:
288,160,192454,1,2,0:0:0:0:
288,160,192597,1,2,0:0:0:0:
224,160,192883,1,0,0:0:0:0:
224,224,193169,1,4,0:0:0:0:
288,160,193597,1,2,0:0:0:0:
288,160,193740,1,2,0:0:0:0:
224,160,194597,1,0,0:0:0:0:
288,160,194883,1,2,0:0:0:0:
224,160,195026,1,0,0:0:0:0:
224,160,195169,1,0,0:0:0:0:
288,160,195454,1,2,0:0:0:0:
288,160,195883,1,2,0:0:0:0:
288,160,196026,1,2,0:0:0:0:
288,160,196883,1,2,0:0:0:0:
224,160,197169,1,0,0:0:0:0:
288,160,197311,1,2,0:0:0:0:
288,160,197454,1,2,0:0:0:0:
224,160,197740,1,0,0:0:0:0:
288,160,198169,1,2,0:0:0:0:
288,160,198311,1,2,0:0:0:0:
224,160,199169,1,0,0:0:0:0:
288,160,199454,1,2,0:0:0:0:
288,160,199740,1,2,0:0:0:0:
288,160,199883,1,2,0:0:0:0:
288,160,200026,1,2,0:0:0:0:
224,160,200311,1,0,0:0:0:0:
288,160,200597,1,2,0:0:0:0:
224,160,200883,1,0,0:0:0:0:
224,160,201026,1,0,0:0:0:0:
224,160,201169,1,0,0:0:0:0:
224,160,201454,1,0,0:0:0:0:
288,160,201740,1,2,0:0:0:0:
288,160,202026,1,2,0:0:0:0:
288,160,202169,1,2,0:0:0:0:
