osu file format v14

[General]
AudioFilename: audio.mp3
AudioLeadIn: 0
PreviewTime: 64431
Countdown: 1
SampleSet: Normal
StackLeniency: 0.7
Mode: 1
LetterboxInBreaks: 0
WidescreenStoryboard: 1

[Editor]
DistanceSpacing: 1.35
BeatDivisor: 8
GridSize: 32
TimelineZoom: 1.6

[Metadata]
Title:HANN(Alone)
TitleUnicode:한(一)
Artist:(G)I-DLE
ArtistUnicode:(여자)아이들
Creator:Greenshell
Version:Kantan
Source:
Tags:Lyawi PUMP IT UP XX: 20th Anniversary Edition Andamiro PIU gidle g idle kpop korean pop Jeon Soyeon 전소연 Cho Miyeon 조미연 Minnie Nicha Yontararak มินนี่ ณิชา ยนตรรักษ์ 민니 Seo Soojin 서수진 Song YuQi 宋雨琦 송우기 Yeh Shuhua 葉舒華 예슈화
BeatmapID:2460636
BeatmapSetID:1180029

[Difficulty]
HPDrainRate:8
CircleSize:3
OverallDifficulty:3
ApproachRate:10
SliderMultiplier:1.4
SliderTickRate:1

[Events]
//Background and Video events
0,0,"ha.png",0,-30
//Break Periods
2,177235,183235
//Storyboard Layer 0 (Background)
//Storyboard Layer 1 (Fail)
//Storyboard Layer 2 (Pass)
//Storyboard Layer 3 (Foreground)
//Storyboard Layer 4 (Overlay)
//Storyboard Sound Samples

[TimingPoints]
10312,571.428571428571,4,1,0,70,1,0
10312,-90.9090909090909,4,1,0,70,0,0
65097,-90.9090909090909,4,1,0,80,0,0
65169,-90.9090909090909,4,1,0,80,0,1
83311,-90.9090909090909,4,1,0,70,0,0
83597,-90.9090909090909,4,1,0,30,0,0
85669,-90.9090909090909,4,1,0,70,0,0
140526,-90.9090909090909,4,1,0,80,0,0
140597,-90.9090909090909,4,1,0,80,0,1
158883,-90.9090909090909,4,1,0,80,0,0
177097,-90.9090909090909,4,1,0,30,0,0
183240,-90.9090909090909,4,1,0,70,0,0
184026,-90.9090909090909,4,1,0,80,0,1
202169,-90.9090909090909,4,1,0,80,0,0
202311,-90.9090909090909,4,1,0,5,0,0

[HitObjects]
224,224,10312,5,4,0:0:0:0:
224,160,11454,1,0,0:0:0:0:
224,160,12597,1,0,0:0:0:0:
224,160,13169,1,0,0:0:0:0:
224,160,13740,1,0,0:0:0:0:
224,160,14883,1,0,0:0:0:0:
224,160,16026,1,0,0:0:0:0:
224,160,17169,1,0,0:0:0:0:
224,160,17740,1,0,0:0:0:0:
224,160,18311,1,0,0:0:0:0:
288,160,18883,1,8,0:0:0:0:
224,224,19454,1,4,0:0:0:0:
224,160,20597,1,0,0:0:0:0:
224,160,21740,1,0,0:0:0:0:
224,160,22311,1,0,0:0:0:0:
224,160,22883,1,0,0:0:0:0:
224,160,24026,1,0,0:0:0:0:
224,160,25169,1,0,0:0:0:0:
224,160,26311,1,0,0:0:0:0:
224,160,26883,1,0,0:0:0:0:
224,160,27454,1,0,0:0:0:0:
288,160,28026,1,8,0:0:0:0:
224,224,28597,1,4,0:0:0:0:
288,160,29740,1,8,0:0:0:0:
288,160,30311,1,8,0:0:0:0:
224,160,30883,1,0,0:0:0:0:
224,160,32026,1,0,0:0:0:0:
288,160,33169,1,8,0:0:0:0:
288,160,33740,1,8,0:0:0:0:
288,160,34311,1,8,0:0:0:0:
288,160,34883,1,8,0:0:0:0:
224,160,35454,1,0,0:0:0:0:
288,160,37169,1,8,0:0:0:0:
224,160,37740,1,0,0:0:0:0:
288,160,38883,1,8,0:0:0:0:
288,160,39454,1,8,0:0:0:0:
224,160,40026,1,0,0:0:0:0:
224,160,41169,1,0,0:0:0:0:
288,160,42311,1,8,0:0:0:0:
288,160,42883,1,8,0:0:0:0:
288,160,43454,1,8,0:0:0:0:
288,160,44026,1,8,0:0:0:0:
224,160,44597,1,0,0:0:0:0:
288,160,46311,1,8,0:0:0:0:
224,224,46883,1,4,0:0:0:0:
288,160,48026,1,8,0:0:0:0:
224,160,48597,1,0,0:0:0:0:
224,160,49169,1,0,0:0:0:0:
288,160,50311,1,8,0:0:0:0:
288,160,50883,1,8,0:0:0:0:
224,160,51454,1,0,0:0:0:0:
224,160,52597,1,0,0:0:0:0:
288,160,53169,1,8,0:0:0:0:
224,160,53740,1,0,0:0:0:0:
224,160,56026,1,0,0:0:0:0:
288,160,56597,1,8,0:0:0:0:
224,160,57169,1,0,0:0:0:0:
224,160,58311,1,0,0:0:0:0:
288,160,58883,1,8,0:0:0:0:
224,160,59454,1,0,0:0:0:0:
224,160,60597,1,0,0:0:0:0:
224,160,61169,1,0,0:0:0:0:
224,160,61740,1,0,0:0:0:0:
224,160,62311,1,0,0:0:0:0:
288,160,62883,1,8,0:0:0:0:
288,224,64026,1,12,0:0:0:0:
224,224,65169,1,4,0:0:0:0:
288,160,65740,1,8,0:0:0:0:
288,160,66883,1,8,0:0:0:0:
224,160,67454,1,0,0:0:0:0:
288,160,68026,1,8,0:0:0:0:
288,160,69169,1,8,0:0:0:0:
288,160,69740,1,8,0:0:0:0:
288,160,70311,1,8,0:0:0:0:
224,160,72026,1,0,0:0:0:0:
288,160,72597,1,8,0:0:0:0:
224,160,73169,1,0,0:0:0:0:
288,160,73740,1,8,0:0:0:0:
224,224,74311,1,4,0:0:0:0:
288,160,74883,1,8,0:0:0:0:
288,160,76026,1,8,0:0:0:0:
224,160,76597,1,0,0:0:0:0:
288,160,77169,1,8,0:0:0:0:
288,160,78311,1,8,0:0:0:0:
288,160,78883,1,8,0:0:0:0:
288,160,79454,1,8,0:0:0:0:
224,160,81169,1,0,0:0:0:0:
224,160,81740,1,0,0:0:0:0:
224,160,82311,1,0,0:0:0:0:
288,160,82883,1,8,0:0:0:0:
288,160,83169,1,8,0:0:0:0:
224,224,85740,1,4,0:0:0:0:
224,160,86883,1,0,0:0:0:0:
224,160,88026,1,0,0:0:0:0:
224,160,88598,1,0,0:0:0:0:
224,160,89169,1,0,0:0:0:0:
224,160,90312,1,0,0:0:0:0:
224,160,91455,1,0,0:0:0:0:
224,160,92598,1,0,0:0:0:0:
224,160,93169,1,0,0:0:0:0:
224,160,93740,1,0,0:0:0:0:
288,160,94312,1,8,0:0:0:0:
224,224,94883,1,4,0:0:0:0:
224,160,96026,1,0,0:0:0:0:
224,160,97169,1,0,0:0:0:0:
224,160,97740,1,0,0:0:0:0:
224,160,98312,1,0,0:0:0:0:
224,160,99455,1,0,0:0:0:0:
224,160,100598,1,0,0:0:0:0:
224,160,101740,1,0,0:0:0:0:
224,160,102312,1,0,0:0:0:0:
224,160,102883,1,0,0:0:0:0:
288,160,103455,1,8,0:0:0:0:
224,224,104026,1,4,0:0:0:0:
224,160,105740,1,0,0:0:0:0:
288,160,106311,1,8,0:0:0:0:
224,160,107454,1,0,0:0:0:0:
288,160,108026,1,8,0:0:0:0:
224,160,108597,1,0,0:0:0:0:
224,160,109169,1,0,0:0:0:0:
288,160,109740,1,8,0:0:0:0:
224,160,110883,1,0,0:0:0:0:
224,160,112026,1,0,0:0:0:0:
288,160,112597,1,8,0:0:0:0:
224,160,113169,1,0,0:0:0:0:
288,160,114169,1,8,0:0:0:0:
288,160,114597,1,8,0:0:0:0:
224,160,115454,1,0,0:0:0:0:
288,160,116311,1,8,0:0:0:0:
288,160,116740,1,8,0:0:0:0:
224,160,117740,1,0,0:0:0:0:
224,160,118311,1,0,0:0:0:0:
288,160,118883,1,8,0:0:0:0:
288,160,119454,1,8,0:0:0:0:
224,160,120026,1,0,0:0:0:0:
288,160,121740,1,8,0:0:0:0:
224,224,122311,1,4,0:0:0:0:
288,160,123454,1,8,0:0:0:0:
224,160,124025,1,0,0:0:0:0:
224,160,124597,1,0,0:0:0:0:
288,160,125739,1,8,0:0:0:0:
288,160,126311,1,8,0:0:0:0:
224,160,126882,1,0,0:0:0:0:
224,160,128025,1,0,0:0:0:0:
288,160,128597,1,8,0:0:0:0:
224,160,129168,1,0,0:0:0:0:
224,160,131454,1,0,0:0:0:0:
288,160,132025,1,8,0:0:0:0:
224,160,132597,1,0,0:0:0:0:
224,160,133739,1,0,0:0:0:0:
288,160,134311,1,8,0:0:0:0:
224,160,134883,1,0,0:0:0:0:
224,160,136025,1,0,0:0:0:0:
224,160,136597,1,0,0:0:0:0:
224,160,137168,1,0,0:0:0:0:
224,160,137739,1,0,0:0:0:0:
288,160,138311,1,8,0:0:0:0:
288,224,139454,1,12,0:0:0:0:
224,224,140597,1,4,0:0:0:0:
288,160,141168,1,8,0:0:0:0:
288,160,142311,1,8,0:0:0:0:
224,160,142882,1,0,0:0:0:0:
288,160,143454,1,8,0:0:0:0:
288,160,144597,1,8,0:0:0:0:
288,160,145168,1,8,0:0:0:0:
288,160,145739,1,8,0:0:0:0:
224,160,147454,1,0,0:0:0:0:
288,160,148025,1,8,0:0:0:0:
224,160,148597,1,0,0:0:0:0:
288,160,149168,1,8,0:0:0:0:
224,224,149739,1,4,0:0:0:0:
288,160,150311,1,8,0:0:0:0:
288,160,151454,1,8,0:0:0:0:
224,160,152025,1,0,0:0:0:0:
288,160,152597,1,8,0:0:0:0:
288,160,153739,1,8,0:0:0:0:
288,160,154311,1,8,0:0:0:0:
288,160,154882,1,8,0:0:0:0:
224,160,156597,1,0,0:0:0:0:
224,160,157168,1,0,0:0:0:0:
224,160,157739,1,0,0:0:0:0:
288,160,158311,1,8,0:0:0:0:
288,160,158597,1,8,0:0:0:0:
224,160,160026,1,0,0:0:0:0:
288,160,160597,1,8,0:0:0:0:
288,160,161169,1,8,0:0:0:0:
288,160,162311,1,8,0:0:0:0:
224,160,162883,1,0,0:0:0:0:
224,160,163454,1,0,0:0:0:0:
224,160,164597,1,0,0:0:0:0:
288,160,165169,1,8,0:0:0:0:
224,160,165740,1,0,0:0:0:0:
288,160,167454,1,8,0:0:0:0:
224,160,168026,1,0,0:0:0:0:
288,160,168597,1,8,0:0:0:0:
224,160,169740,1,0,0:0:0:0:
224,160,170311,1,0,0:0:0:0:
288,160,170883,1,8,0:0:0:0:
288,160,172026,1,8,0:0:0:0:
288,160,172597,1,8,0:0:0:0:
224,160,173169,1,0,0:0:0:0:
288,160,174311,1,8,0:0:0:0:
224,160,174883,1,0,0:0:0:0:
288,160,175454,1,8,0:0:0:0:
288,160,176026,1,8,0:0:0:0:
288,224,176597,1,12,0:0:0:0:
224,224,184026,5,4,0:0:0:0:
288,160,184597,1,8,0:0:0:0:
288,160,185740,1,8,0:0:0:0:
224,160,186311,1,0,0:0:0:0:
288,160,186883,1,8,0:0:0:0:
288,160,188026,1,8,0:0:0:0:
288,160,188597,1,8,0:0:0:0:
288,160,189168,1,8,0:0:0:0:
224,160,190883,1,0,0:0:0:0:
288,160,191454,1,8,0:0:0:0:
224,160,192026,1,0,0:0:0:0:
288,160,192597,1,8,0:0:0:0:
224,224,193168,1,4,0:0:0:0:
288,160,193740,1,8,0:0:0:0:
288,160,194883,1,8,0:0:0:0:
224,160,195454,1,0,0:0:0:0:
288,160,196026,1,8,0:0:0:0:
288,160,197168,1,8,0:0:0:0:
288,160,197740,1,8,0:0:0:0:
288,160,198311,1,8,0:0:0:0:
224,160,200026,1,0,0:0:0:0:
224,160,200597,1,0,0:0:0:0:
224,160,201168,1,0,0:0:0:0:
288,160,201740,1,8,0:0:0:0:
288,160,202026,1,8,0:0:0:0:
