osu file format v14

[General]
AudioFilename: audio.mp3
AudioLeadIn: 0
PreviewTime: 64431
Countdown: 1
SampleSet: Normal
StackLeniency: 0.7
Mode: 1
LetterboxInBreaks: 0
WidescreenStoryboard: 0

[Editor]
DistanceSpacing: 1.35
BeatDivisor: 8
GridSize: 32
TimelineZoom: 1.6

[Metadata]
Title:HANN(Alone)
TitleUnicode:한(一)
Artist:(G)I-DLE
ArtistUnicode:(여자)아이들
Creator:Greenshell
Version:Inner Oni
Source:
Tags:Lyawi PUMP IT UP XX: 20th Anniversary Edition Andamiro PIU gidle g idle kpop korean pop Jeon Soyeon 전소연 Cho Miyeon 조미연 Minnie Nicha Yontararak มินนี่ ณิชา ยนตรรักษ์ 민니 Seo Soojin 서수진 Song YuQi 宋雨琦 송우기 Yeh Shuhua 葉舒華 예슈화
BeatmapID:2460635
BeatmapSetID:1180029

[Difficulty]
HPDrainRate:6
CircleSize:3
OverallDifficulty:6
ApproachRate:10
SliderMultiplier:1.4
SliderTickRate:1

[Events]
//Background and Video events
0,0,"ha.png",0,-30
//Break Periods
2,177235,182861
//Storyboard Layer 0 (Background)
//Storyboard Layer 1 (Fail)
//Storyboard Layer 2 (Pass)
//Storyboard Layer 3 (Foreground)
//Storyboard Layer 4 (Overlay)
//Storyboard Sound Samples

[TimingPoints]
10312,571.428571428571,4,1,0,70,1,0
10312,-83.3333333333333,4,1,0,70,0,0
27931,-66.6666666666667,4,1,0,70,0,0
47026,-83.3333333333333,4,1,0,70,0,0
55954,-76.9230769230769,4,1,0,70,0,0
58240,-71.4285714285714,4,1,0,70,0,0
60526,-66.6666666666667,4,1,0,70,0,0
62811,-62.5,4,1,0,70,0,0
63097,-66.6666666666667,4,1,0,70,0,0
63240,-68.9655172413792,4,1,0,70,0,0
63383,-71.4285714285714,4,1,0,70,0,0
63526,-74.074074074074,4,1,0,70,0,0
63669,-76.9230769230769,4,1,0,70,0,0
63811,-79.9999999999999,4,1,0,70,0,0
63954,-40,4,1,0,70,0,0
64383,-62.5,4,1,0,70,0,0
65097,-55.5555555555556,4,1,0,80,0,0
65169,-55.5555555555556,4,1,0,80,0,1
83311,-55.5555555555556,4,1,0,70,0,0
83597,-83.3333333333333,4,1,0,30,0,0
85669,-83.3333333333333,4,1,0,70,0,0
103359,-66.6666666666667,4,1,0,70,0,0
122454,-83.3333333333333,4,1,0,70,0,0
131382,-76.9230769230769,4,1,0,70,0,0
133668,-71.4285714285714,4,1,0,70,0,0
135954,-66.6666666666667,4,1,0,70,0,0
138239,-62.5,4,1,0,70,0,0
138525,-66.6666666666667,4,1,0,70,0,0
138668,-68.9655172413792,4,1,0,70,0,0
138811,-71.4285714285714,4,1,0,70,0,0
138954,-74.074074074074,4,1,0,70,0,0
139097,-76.9230769230769,4,1,0,70,0,0
139239,-79.9999999999999,4,1,0,70,0,0
139382,-40,4,1,0,70,0,0
139811,-62.5,4,1,0,70,0,0
140526,-55.5555555555556,4,1,0,80,0,0
140597,-55.5555555555556,4,1,0,80,0,1
158669,-57.1428571428571,4,1,0,80,0,1
158811,-58.8235294117647,4,1,0,80,0,1
158883,-58.8235294117647,4,1,0,80,0,0
158954,-60.6060606060605,4,1,0,80,0,0
159097,-62.5,4,1,0,80,0,0
177097,-83.3333333333333,4,1,0,30,0,0
183240,-62.5,4,1,0,70,0,0
184026,-55.5555555555556,4,1,0,80,0,1
202169,-55.5555555555556,4,1,0,80,0,0
202311,-55.5555555555556,4,1,0,5,0,0

[HitObjects]
224,224,10312,5,4,0:0:0:0:
224,160,10597,1,0,0:0:0:0:
288,160,10883,1,2,0:0:0:0:
224,160,11169,1,0,0:0:0:0:
224,160,11454,1,0,0:0:0:0:
288,160,11740,1,2,0:0:0:0:
288,160,12026,1,2,0:0:0:0:
224,160,12312,1,0,0:0:0:0:
288,160,12597,1,2,0:0:0:0:
224,160,12883,1,0,0:0:0:0:
288,160,13169,1,2,0:0:0:0:
224,160,13454,1,0,0:0:0:0:
224,160,13740,1,0,0:0:0:0:
288,160,14312,1,2,0:0:0:0:
224,160,14597,1,0,0:0:0:0:
224,160,14883,1,0,0:0:0:0:
288,160,15169,1,2,0:0:0:0:
288,160,15454,1,2,0:0:0:0:
224,160,15740,1,0,0:0:0:0:
224,160,16026,1,0,0:0:0:0:
288,160,16311,1,2,0:0:0:0:
288,160,16597,1,2,0:0:0:0:
224,160,16883,1,0,0:0:0:0:
288,160,17169,1,2,0:0:0:0:
224,160,17454,1,0,0:0:0:0:
288,160,17740,1,2,0:0:0:0:
288,160,18026,1,2,0:0:0:0:
224,160,18311,1,0,0:0:0:0:
288,160,18597,1,2,0:0:0:0:
288,160,18740,1,2,0:0:0:0:
224,160,18883,1,0,0:0:0:0:
288,160,19169,1,2,0:0:0:0:
224,224,19454,1,4,0:0:0:0:
224,160,19740,1,0,0:0:0:0:
288,160,20026,1,2,0:0:0:0:
288,160,20311,1,2,0:0:0:0:
224,160,20597,1,0,0:0:0:0:
288,160,20883,1,2,0:0:0:0:
288,160,21169,1,2,0:0:0:0:
288,160,21454,1,2,0:0:0:0:
224,160,21740,1,0,0:0:0:0:
224,160,22026,1,0,0:0:0:0:
288,160,22311,1,2,0:0:0:0:
224,160,22597,1,0,0:0:0:0:
224,160,22883,1,0,0:0:0:0:
288,160,23454,1,2,0:0:0:0:
224,160,23740,1,0,0:0:0:0:
224,160,24026,1,0,0:0:0:0:
288,160,24311,1,2,0:0:0:0:
288,160,24597,1,2,0:0:0:0:
224,160,24883,1,0,0:0:0:0:
288,160,25169,1,2,0:0:0:0:
224,160,25454,1,0,0:0:0:0:
288,160,25740,1,2,0:0:0:0:
224,160,26026,1,0,0:0:0:0:
288,160,26311,1,2,0:0:0:0:
288,160,26454,1,2,0:0:0:0:
224,160,26597,1,0,0:0:0:0:
288,160,26740,1,2,0:0:0:0:
224,160,26883,1,0,0:0:0:0:
224,160,27169,1,0,0:0:0:0:
288,160,27454,1,2,0:0:0:0:
288,160,27597,1,2,0:0:0:0:
224,160,27740,1,0,0:0:0:0:
288,224,28026,1,6,0:0:0:0:
224,160,28216,1,0,0:0:0:0:
288,160,28311,1,2,0:0:0:0:
288,160,28502,1,2,0:0:0:0:
224,160,28597,1,0,0:0:0:0:
224,160,28740,1,0,0:0:0:0:
224,160,29073,1,0,0:0:0:0:
288,160,29169,1,2,0:0:0:0:
288,160,29359,1,2,0:0:0:0:
224,160,29454,1,0,0:0:0:0:
224,160,29597,1,0,0:0:0:0:
288,160,29740,1,2,0:0:0:0:
224,160,30026,1,0,0:0:0:0:
288,160,30169,1,2,0:0:0:0:
288,160,30311,1,2,0:0:0:0:
288,160,30597,1,2,0:0:0:0:
288,160,30788,1,2,0:0:0:0:
224,160,30883,1,0,0:0:0:0:
224,160,31169,1,0,0:0:0:0:
224,160,31359,1,0,0:0:0:0:
288,160,31454,1,2,0:0:0:0:
288,160,31645,1,2,0:0:0:0:
288,160,31740,1,2,0:0:0:0:
224,160,31931,1,0,0:0:0:0:
224,160,32026,1,0,0:0:0:0:
224,160,32311,1,0,0:0:0:0:
288,160,32502,1,2,0:0:0:0:
224,160,32597,1,0,0:0:0:0:
288,160,32788,1,2,0:0:0:0:
288,160,32883,1,2,0:0:0:0:
224,160,33026,1,0,0:0:0:0:
288,160,33169,1,2,0:0:0:0:
224,160,33454,1,0,0:0:0:0:
288,160,33740,1,2,0:0:0:0:
224,160,34026,1,0,0:0:0:0:
288,160,34311,1,2,0:0:0:0:
224,160,34597,1,0,0:0:0:0:
288,160,34883,1,2,0:0:0:0:
224,160,35169,1,0,0:0:0:0:
288,160,35359,1,2,0:0:0:0:
224,160,35454,1,0,0:0:0:0:
224,160,35740,1,0,0:0:0:0:
288,160,36026,1,2,0:0:0:0:
224,160,36311,1,0,0:0:0:0:
288,160,36454,1,2,0:0:0:0:
224,160,36883,1,0,0:0:0:0:
224,160,37073,1,0,0:0:0:0:
288,160,37169,1,2,0:0:0:0:
288,160,37359,1,2,0:0:0:0:
224,160,37454,1,0,0:0:0:0:
288,160,37645,1,2,0:0:0:0:
224,160,37740,1,0,0:0:0:0:
224,160,37883,1,0,0:0:0:0:
224,160,38216,1,0,0:0:0:0:
288,160,38311,1,2,0:0:0:0:
288,160,38502,1,2,0:0:0:0:
288,160,38597,1,2,0:0:0:0:
224,160,38788,1,0,0:0:0:0:
288,160,38883,1,2,0:0:0:0:
224,160,39169,1,0,0:0:0:0:
288,160,39359,1,2,0:0:0:0:
288,160,39454,1,2,0:0:0:0:
288,160,39645,1,2,0:0:0:0:
224,160,39740,1,0,0:0:0:0:
224,160,39931,1,0,0:0:0:0:
288,160,40026,1,2,0:0:0:0:
224,160,40311,1,0,0:0:0:0:
224,160,40502,1,0,0:0:0:0:
288,160,40597,1,2,0:0:0:0:
224,160,40788,1,0,0:0:0:0:
288,160,40883,1,2,0:0:0:0:
288,160,41073,1,2,0:0:0:0:
224,160,41169,1,0,0:0:0:0:
224,160,41454,1,0,0:0:0:0:
288,160,41645,1,2,0:0:0:0:
224,160,41740,1,0,0:0:0:0:
224,160,41931,1,0,0:0:0:0:
224,160,42026,1,0,0:0:0:0:
224,160,42216,1,0,0:0:0:0:
288,160,42311,1,2,0:0:0:0:
224,160,42597,1,0,0:0:0:0:
288,160,42883,1,2,0:0:0:0:
224,160,43169,1,0,0:0:0:0:
288,160,43454,1,2,0:0:0:0:
224,160,43740,1,0,0:0:0:0:
288,160,44026,1,2,0:0:0:0:
224,160,44311,1,0,0:0:0:0:
288,160,44502,1,2,0:0:0:0:
224,160,44597,1,0,0:0:0:0:
224,160,44740,1,0,0:0:0:0:
224,160,45026,1,0,0:0:0:0:
288,160,45169,1,2,0:0:0:0:
224,160,45454,1,0,0:0:0:0:
224,160,45597,1,0,0:0:0:0:
288,160,45740,1,2,0:0:0:0:
288,160,45883,1,2,0:0:0:0:
224,160,46026,1,0,0:0:0:0:
224,160,46097,1,0,0:0:0:0:
224,160,46169,1,0,0:0:0:0:
288,160,46311,1,2,0:0:0:0:
224,160,46597,1,0,0:0:0:0:
224,224,46883,1,4,0:0:0:0:
288,160,47454,1,2,0:0:0:0:
224,160,47740,1,0,0:0:0:0:
224,160,47811,1,0,0:0:0:0:
224,160,47883,1,0,0:0:0:0:
288,160,48026,1,2,0:0:0:0:
224,160,48311,1,0,0:0:0:0:
224,160,48454,1,0,0:0:0:0:
288,160,48597,1,2,0:0:0:0:
288,160,49026,1,2,0:0:0:0:
224,160,49169,1,0,0:0:0:0:
288,160,49454,1,2,0:0:0:0:
288,160,49526,1,2,0:0:0:0:
224,160,49597,1,0,0:0:0:0:
288,160,49740,1,2,0:0:0:0:
288,160,49883,1,2,0:0:0:0:
224,160,50026,1,0,0:0:0:0:
224,160,50097,1,0,0:0:0:0:
224,160,50169,1,0,0:0:0:0:
224,160,50240,1,0,0:0:0:0:
288,160,50311,1,2,0:0:0:0:
224,160,50597,1,0,0:0:0:0:
288,160,50883,1,2,0:0:0:0:
288,160,51311,1,2,0:0:0:0:
224,160,51454,1,0,0:0:0:0:
224,160,51740,1,0,0:0:0:0:
288,160,52026,1,2,0:0:0:0:
224,160,52311,1,0,0:0:0:0:
224,160,52383,1,0,0:0:0:0:
224,160,52454,1,0,0:0:0:0:
224,160,52526,1,0,0:0:0:0:
288,160,52597,1,2,0:0:0:0:
224,160,52883,1,0,0:0:0:0:
224,160,53026,1,0,0:0:0:0:
288,160,53169,1,2,0:0:0:0:
288,160,53597,1,2,0:0:0:0:
224,160,53740,1,0,0:0:0:0:
288,160,53883,1,2,0:0:0:0:
224,160,54026,1,0,0:0:0:0:
224,160,54097,1,0,0:0:0:0:
224,160,54169,1,0,0:0:0:0:
288,160,54311,1,2,0:0:0:0:
288,160,54454,1,8,0:0:0:0:
224,160,54597,1,0,0:0:0:0:
224,160,54669,1,0,0:0:0:0:
224,160,54740,1,0,0:0:0:0:
224,160,54811,1,0,0:0:0:0:
288,160,54883,1,2,0:0:0:0:
224,160,55026,1,0,0:0:0:0:
288,160,55169,1,2,0:0:0:0:
288,160,55240,1,2,0:0:0:0:
288,160,55311,1,2,0:0:0:0:
288,160,55383,1,2,0:0:0:0:
224,160,55454,1,0,0:0:0:0:
288,160,55740,1,2,0:0:0:0:
224,160,56026,1,0,0:0:0:0:
288,160,56311,1,2,0:0:0:0:
288,160,56383,1,2,0:0:0:0:
224,160,56454,1,0,0:0:0:0:
224,160,56526,1,0,0:0:0:0:
288,160,56597,1,2,0:0:0:0:
224,160,56883,1,0,0:0:0:0:
224,160,56954,1,0,0:0:0:0:
224,160,57026,1,0,0:0:0:0:
224,160,57097,1,0,0:0:0:0:
288,160,57169,1,2,0:0:0:0:
224,160,57454,1,0,0:0:0:0:
224,160,57597,1,0,0:0:0:0:
288,160,57740,1,2,0:0:0:0:
288,160,57883,1,2,0:0:0:0:
288,160,58169,1,2,0:0:0:0:
224,160,58311,1,0,0:0:0:0:
224,160,58597,1,0,0:0:0:0:
224,160,58669,1,0,0:0:0:0:
288,160,58740,1,2,0:0:0:0:
288,160,58811,1,2,0:0:0:0:
288,160,58883,1,2,0:0:0:0:
224,160,59169,1,0,0:0:0:0:
224,160,59311,1,0,0:0:0:0:
288,160,59454,1,2,0:0:0:0:
224,160,59740,1,0,0:0:0:0:
288,160,59883,1,2,0:0:0:0:
288,160,60026,1,2,0:0:0:0:
224,160,60169,1,0,0:0:0:0:
288,160,60454,1,2,0:0:0:0:
224,160,60597,1,0,0:0:0:0:
288,160,60883,1,2,0:0:0:0:
288,160,60954,1,2,0:0:0:0:
224,160,61026,1,0,0:0:0:0:
224,160,61097,1,0,0:0:0:0:
224,160,61169,1,0,0:0:0:0:
288,160,61454,1,2,0:0:0:0:
288,160,61526,1,2,0:0:0:0:
288,160,61597,1,2,0:0:0:0:
288,160,61669,1,2,0:0:0:0:
224,160,61740,1,0,0:0:0:0:
288,160,62026,1,2,0:0:0:0:
224,160,62169,1,0,0:0:0:0:
288,160,62311,1,2,0:0:0:0:
288,160,62454,1,2,0:0:0:0:
224,160,62597,1,0,0:0:0:0:
288,160,62883,1,2,0:0:0:0:
224,160,63169,1,0,0:0:0:0:
288,160,63311,1,2,0:0:0:0:
224,160,63454,1,0,0:0:0:0:
288,160,63597,1,2,0:0:0:0:
288,160,63740,1,2,0:0:0:0:
224,160,63883,1,0,0:0:0:0:
288,224,64026,1,6,0:0:0:0:
288,160,64454,1,2,0:0:0:0:
224,160,64597,1,0,0:0:0:0:
288,160,64740,1,2,0:0:0:0:
288,160,64883,1,2,0:0:0:0:
224,160,65026,1,0,0:0:0:0:
224,224,65169,1,4,0:0:0:0:
224,160,65454,1,0,0:0:0:0:
288,160,65597,1,2,0:0:0:0:
288,160,65740,1,2,0:0:0:0:
288,160,66026,1,2,0:0:0:0:
288,160,66169,1,2,0:0:0:0:
288,160,66454,1,2,0:0:0:0:
224,160,66597,1,0,0:0:0:0:
288,160,66883,1,2,0:0:0:0:
224,160,67026,1,0,0:0:0:0:
288,160,67169,1,2,0:0:0:0:
288,160,67240,1,2,0:0:0:0:
288,160,67311,1,2,0:0:0:0:
224,160,67454,1,0,0:0:0:0:
224,160,67740,1,0,0:0:0:0:
288,160,67883,1,2,0:0:0:0:
288,160,68026,1,2,0:0:0:0:
288,160,68311,1,2,0:0:0:0:
224,160,68454,1,0,0:0:0:0:
288,160,68740,1,2,0:0:0:0:
224,160,68883,1,0,0:0:0:0:
288,160,69169,1,2,0:0:0:0:
288,160,69311,1,2,0:0:0:0:
224,160,69454,1,0,0:0:0:0:
288,160,69597,1,2,0:0:0:0:
224,160,69740,1,0,0:0:0:0:
224,160,70026,1,0,0:0:0:0:
288,160,70169,1,2,0:0:0:0:
288,160,70311,1,2,0:0:0:0:
224,160,70597,1,0,0:0:0:0:
288,160,70740,1,2,0:0:0:0:
288,160,71026,1,2,0:0:0:0:
224,160,71169,1,0,0:0:0:0:
224,160,71311,1,0,0:0:0:0:
288,160,71454,1,2,0:0:0:0:
288,160,71740,1,2,0:0:0:0:
288,160,71811,1,2,0:0:0:0:
224,160,71883,1,0,0:0:0:0:
288,160,72026,1,2,0:0:0:0:
224,160,72311,1,0,0:0:0:0:
224,160,72454,1,0,0:0:0:0:
288,160,72597,1,2,0:0:0:0:
224,160,72883,1,0,0:0:0:0:
288,160,73026,1,2,0:0:0:0:
288,160,73169,1,2,0:0:0:0:
224,160,73311,1,0,0:0:0:0:
288,160,73597,1,2,0:0:0:0:
224,160,73740,1,0,0:0:0:0:
288,160,73883,1,2,0:0:0:0:
288,160,74026,1,2,0:0:0:0:
224,160,74169,1,0,0:0:0:0:
224,224,74311,1,4,0:0:0:0:
224,160,74597,1,0,0:0:0:0:
288,160,74740,1,2,0:0:0:0:
288,160,74883,1,2,0:0:0:0:
288,160,75169,1,2,0:0:0:0:
288,160,75311,1,2,0:0:0:0:
288,160,75597,1,2,0:0:0:0:
224,160,75740,1,0,0:0:0:0:
288,160,76026,1,2,0:0:0:0:
224,160,76169,1,0,0:0:0:0:
288,160,76311,1,2,0:0:0:0:
224,160,76383,1,0,0:0:0:0:
288,160,76454,1,2,0:0:0:0:
224,160,76597,1,0,0:0:0:0:
224,160,76883,1,0,0:0:0:0:
288,160,77026,1,2,0:0:0:0:
288,160,77169,1,2,0:0:0:0:
288,160,77454,1,2,0:0:0:0:
224,160,77597,1,0,0:0:0:0:
288,160,77883,1,2,0:0:0:0:
224,160,78026,1,0,0:0:0:0:
288,160,78311,1,2,0:0:0:0:
224,160,78454,1,0,0:0:0:0:
224,160,78597,1,0,0:0:0:0:
288,160,78740,1,2,0:0:0:0:
224,160,78883,1,0,0:0:0:0:
224,160,79169,1,0,0:0:0:0:
288,160,79311,1,2,0:0:0:0:
288,160,79454,1,2,0:0:0:0:
224,160,79740,1,0,0:0:0:0:
288,160,79883,1,2,0:0:0:0:
288,160,80169,1,2,0:0:0:0:
224,160,80311,1,0,0:0:0:0:
224,160,80454,1,0,0:0:0:0:
288,160,80597,1,2,0:0:0:0:
288,160,80883,1,2,0:0:0:0:
288,160,80954,1,2,0:0:0:0:
224,160,81026,1,0,0:0:0:0:
288,160,81169,1,2,0:0:0:0:
224,160,81454,1,0,0:0:0:0:
224,160,81597,1,0,0:0:0:0:
288,160,81740,1,2,0:0:0:0:
224,160,82026,1,0,0:0:0:0:
288,160,82169,1,2,0:0:0:0:
288,160,82311,1,2,0:0:0:0:
288,160,82597,1,2,0:0:0:0:
224,160,82740,1,0,0:0:0:0:
288,160,82883,1,2,0:0:0:0:
288,160,83169,1,2,0:0:0:0:
288,160,83311,1,2,0:0:0:0:
224,224,85740,1,4,0:0:0:0:
224,160,86026,1,0,0:0:0:0:
288,160,86311,1,2,0:0:0:0:
288,160,86597,1,2,0:0:0:0:
224,160,86883,1,0,0:0:0:0:
288,160,87169,1,2,0:0:0:0:
288,160,87454,1,2,0:0:0:0:
288,160,87740,1,2,0:0:0:0:
224,160,88026,1,0,0:0:0:0:
288,160,88311,1,2,0:0:0:0:
224,160,88597,1,0,0:0:0:0:
224,160,88883,1,0,0:0:0:0:
288,160,89169,1,2,0:0:0:0:
288,160,89740,1,2,0:0:0:0:
224,160,90026,1,0,0:0:0:0:
224,160,90311,1,0,0:0:0:0:
288,160,90597,1,2,0:0:0:0:
288,160,90883,1,2,0:0:0:0:
224,160,91169,1,0,0:0:0:0:
224,160,91454,1,0,0:0:0:0:
224,160,91740,1,0,0:0:0:0:
288,160,92026,1,2,0:0:0:0:
224,160,92311,1,0,0:0:0:0:
224,160,92597,1,0,0:0:0:0:
288,160,92883,1,2,0:0:0:0:
288,160,93169,1,2,0:0:0:0:
224,160,93454,1,0,0:0:0:0:
224,160,93740,1,0,0:0:0:0:
288,160,94026,1,2,0:0:0:0:
288,160,94169,1,2,0:0:0:0:
224,160,94311,1,0,0:0:0:0:
288,160,94597,1,2,0:0:0:0:
224,224,94883,1,4,0:0:0:0:
288,160,95169,1,2,0:0:0:0:
288,160,95454,1,2,0:0:0:0:
288,160,95740,1,2,0:0:0:0:
224,160,96026,1,0,0:0:0:0:
288,160,96311,1,2,0:0:0:0:
288,160,96597,1,2,0:0:0:0:
224,160,96883,1,0,0:0:0:0:
288,160,97169,1,2,0:0:0:0:
224,160,97454,1,0,0:0:0:0:
288,160,97740,1,2,0:0:0:0:
224,160,98026,1,0,0:0:0:0:
224,160,98311,1,0,0:0:0:0:
288,160,98883,1,2,0:0:0:0:
224,160,99169,1,0,0:0:0:0:
224,160,99454,1,0,0:0:0:0:
288,160,99740,1,2,0:0:0:0:
288,160,100026,1,2,0:0:0:0:
224,160,100311,1,0,0:0:0:0:
288,160,100597,1,2,0:0:0:0:
224,160,100883,1,0,0:0:0:0:
224,160,101026,1,0,0:0:0:0:
288,160,101169,1,2,0:0:0:0:
224,160,101454,1,0,0:0:0:0:
288,160,101740,1,2,0:0:0:0:
288,160,101883,1,2,0:0:0:0:
224,160,102026,1,0,0:0:0:0:
288,160,102169,1,2,0:0:0:0:
224,160,102311,1,0,0:0:0:0:
288,160,102597,1,2,0:0:0:0:
224,160,102883,1,0,0:0:0:0:
224,160,103026,1,0,0:0:0:0:
224,160,103169,1,0,0:0:0:0:
288,224,103454,1,6,0:0:0:0:
224,160,103645,1,0,0:0:0:0:
288,160,103740,1,2,0:0:0:0:
288,160,103931,1,2,0:0:0:0:
224,160,104026,1,0,0:0:0:0:
224,160,104311,1,0,0:0:0:0:
288,160,104597,1,2,0:0:0:0:
224,160,104788,1,0,0:0:0:0:
224,160,104883,1,0,0:0:0:0:
224,160,105026,1,0,0:0:0:0:
288,160,105169,1,2,0:0:0:0:
288,160,105454,1,2,0:0:0:0:
224,160,105597,1,0,0:0:0:0:
288,160,105740,1,2,0:0:0:0:
224,160,105883,1,0,0:0:0:0:
224,160,106026,1,0,0:0:0:0:
288,160,106169,1,2,0:0:0:0:
288,160,106311,1,2,0:0:0:0:
224,160,106597,1,0,0:0:0:0:
288,160,106883,1,2,0:0:0:0:
288,160,107073,1,2,0:0:0:0:
224,160,107169,1,0,0:0:0:0:
224,160,107311,1,0,0:0:0:0:
288,160,107454,1,2,0:0:0:0:
288,160,107740,1,2,0:0:0:0:
288,160,108026,1,2,0:0:0:0:
224,160,108097,1,0,0:0:0:0:
288,160,108169,1,2,0:0:0:0:
224,160,108311,1,0,0:0:0:0:
224,160,108454,1,0,0:0:0:0:
288,160,108597,1,2,0:0:0:0:
224,160,108883,1,0,0:0:0:0:
224,160,109026,1,0,0:0:0:0:
224,160,109169,1,0,0:0:0:0:
288,160,109311,1,2,0:0:0:0:
288,160,109454,1,2,0:0:0:0:
288,160,109740,1,2,0:0:0:0:
288,160,109883,1,2,0:0:0:0:
224,160,110026,1,0,0:0:0:0:
288,160,110169,1,2,0:0:0:0:
224,160,110311,1,0,0:0:0:0:
224,160,110454,1,0,0:0:0:0:
288,160,110597,1,2,0:0:0:0:
224,160,110883,1,0,0:0:0:0:
288,160,111169,1,2,0:0:0:0:
288,160,111311,1,2,0:0:0:0:
224,160,111454,1,0,0:0:0:0:
224,160,111597,1,0,0:0:0:0:
288,160,111740,1,2,0:0:0:0:
288,160,111883,1,2,0:0:0:0:
224,160,112026,1,0,0:0:0:0:
288,160,112311,1,2,0:0:0:0:
288,160,112454,1,2,0:0:0:0:
288,160,112597,1,2,0:0:0:0:
224,160,112883,1,0,0:0:0:0:
288,160,113026,1,2,0:0:0:0:
224,224,113169,1,4,0:0:0:0:
288,160,113359,1,2,0:0:0:0:
288,160,113454,1,2,0:0:0:0:
288,160,113597,1,2,0:0:0:0:
288,160,113740,1,2,0:0:0:0:
224,160,113883,1,0,0:0:0:0:
224,160,114026,1,0,0:0:0:0:
288,160,114169,1,2,0:0:0:0:
224,160,114597,1,0,0:0:0:0:
288,160,114883,1,2,0:0:0:0:
224,160,115026,1,0,0:0:0:0:
288,160,115169,1,2,0:0:0:0:
288,160,115311,1,2,0:0:0:0:
224,160,115454,1,0,0:0:0:0:
288,160,115597,1,2,0:0:0:0:
288,160,115740,1,2,0:0:0:0:
224,160,115883,1,0,0:0:0:0:
224,160,116026,1,0,0:0:0:0:
224,160,116169,1,0,0:0:0:0:
288,160,116311,1,2,0:0:0:0:
288,160,116740,1,2,0:0:0:0:
224,160,116883,1,0,0:0:0:0:
288,160,117169,1,2,0:0:0:0:
224,160,117359,1,0,0:0:0:0:
224,160,117454,1,0,0:0:0:0:
224,160,117597,1,0,0:0:0:0:
288,160,117740,1,2,0:0:0:0:
288,160,118026,1,2,0:0:0:0:
224,160,118169,1,0,0:0:0:0:
224,160,118311,1,0,0:0:0:0:
288,160,118454,1,2,0:0:0:0:
288,160,118597,1,2,0:0:0:0:
224,160,118883,1,0,0:0:0:0:
288,160,119026,1,2,0:0:0:0:
224,160,119169,1,0,0:0:0:0:
288,160,119311,1,2,0:0:0:0:
224,160,119454,1,0,0:0:0:0:
224,160,119597,1,0,0:0:0:0:
288,160,119740,1,2,0:0:0:0:
224,160,120026,1,0,0:0:0:0:
224,160,120169,1,0,0:0:0:0:
288,160,120311,1,2,0:0:0:0:
288,160,120597,1,2,0:0:0:0:
224,160,120740,1,0,0:0:0:0:
288,160,120883,1,2,0:0:0:0:
288,160,121026,1,2,0:0:0:0:
224,160,121169,1,0,0:0:0:0:
288,160,121311,1,2,0:0:0:0:
224,160,121454,1,0,0:0:0:0:
224,160,121597,1,0,0:0:0:0:
224,160,121669,1,0,0:0:0:0:
288,160,121740,1,2,0:0:0:0:
288,160,121883,1,2,0:0:0:0:
224,160,122026,1,0,0:0:0:0:
288,160,122169,1,2,0:0:0:0:
224,224,122311,1,4,0:0:0:0:
288,160,122883,1,2,0:0:0:0:
224,160,123169,1,0,0:0:0:0:
224,160,123240,1,0,0:0:0:0:
224,160,123311,1,0,0:0:0:0:
288,160,123454,1,2,0:0:0:0:
224,160,123740,1,0,0:0:0:0:
224,160,123883,1,0,0:0:0:0:
288,160,124026,1,2,0:0:0:0:
224,160,124169,1,0,0:0:0:0:
288,160,124454,1,2,0:0:0:0:
224,160,124597,1,0,0:0:0:0:
288,160,124883,1,2,0:0:0:0:
288,160,124954,1,2,0:0:0:0:
224,160,125026,1,0,0:0:0:0:
288,160,125169,1,2,0:0:0:0:
288,160,125311,1,2,0:0:0:0:
224,160,125454,1,0,0:0:0:0:
224,160,125526,1,0,0:0:0:0:
224,160,125597,1,0,0:0:0:0:
224,160,125669,1,0,0:0:0:0:
288,160,125740,1,2,0:0:0:0:
224,160,126026,1,0,0:0:0:0:
288,160,126311,1,2,0:0:0:0:
224,160,126454,1,0,0:0:0:0:
288,160,126740,1,2,0:0:0:0:
224,160,126883,1,0,0:0:0:0:
224,160,127169,1,0,0:0:0:0:
288,160,127454,1,2,0:0:0:0:
224,160,127740,1,0,0:0:0:0:
224,160,127811,1,0,0:0:0:0:
224,160,127883,1,0,0:0:0:0:
224,160,127954,1,0,0:0:0:0:
288,160,128026,1,2,0:0:0:0:
224,160,128311,1,0,0:0:0:0:
224,160,128454,1,0,0:0:0:0:
288,160,128597,1,2,0:0:0:0:
224,160,128740,1,0,0:0:0:0:
288,160,129026,1,2,0:0:0:0:
224,160,129169,1,0,0:0:0:0:
288,160,129311,1,2,0:0:0:0:
224,160,129454,1,0,0:0:0:0:
224,160,129526,1,0,0:0:0:0:
224,160,129597,1,0,0:0:0:0:
288,160,129740,1,2,0:0:0:0:
224,160,129883,1,8,0:0:0:0:
224,160,130026,1,0,0:0:0:0:
224,160,130097,1,0,0:0:0:0:
224,160,130169,1,0,0:0:0:0:
224,160,130240,1,0,0:0:0:0:
288,160,130311,1,2,0:0:0:0:
224,160,130454,1,0,0:0:0:0:
288,160,130597,1,2,0:0:0:0:
288,160,130669,1,2,0:0:0:0:
288,160,130740,1,2,0:0:0:0:
288,160,130811,1,2,0:0:0:0:
224,160,130883,1,0,0:0:0:0:
288,160,131169,1,2,0:0:0:0:
224,160,131454,1,0,0:0:0:0:
288,160,131740,1,2,0:0:0:0:
288,160,131811,1,2,0:0:0:0:
224,160,131883,1,0,0:0:0:0:
224,160,131954,1,0,0:0:0:0:
288,160,132026,1,2,0:0:0:0:
224,160,132311,1,0,0:0:0:0:
224,160,132382,1,0,0:0:0:0:
224,160,132454,1,0,0:0:0:0:
224,160,132525,1,0,0:0:0:0:
288,160,132597,1,2,0:0:0:0:
224,160,132882,1,0,0:0:0:0:
224,160,133025,1,0,0:0:0:0:
288,160,133168,1,2,0:0:0:0:
288,160,133311,1,2,0:0:0:0:
288,160,133597,1,2,0:0:0:0:
224,160,133739,1,0,0:0:0:0:
224,160,134025,1,0,0:0:0:0:
224,160,134097,1,0,0:0:0:0:
288,160,134168,1,2,0:0:0:0:
288,160,134239,1,2,0:0:0:0:
288,160,134311,1,2,0:0:0:0:
224,160,134597,1,0,0:0:0:0:
224,160,134739,1,0,0:0:0:0:
288,160,134882,1,2,0:0:0:0:
224,160,135168,1,0,0:0:0:0:
288,160,135311,1,2,0:0:0:0:
288,160,135454,1,2,0:0:0:0:
224,160,135597,1,0,0:0:0:0:
288,160,135882,1,2,0:0:0:0:
224,160,136025,1,0,0:0:0:0:
288,160,136311,1,2,0:0:0:0:
288,160,136382,1,2,0:0:0:0:
224,160,136454,1,0,0:0:0:0:
224,160,136525,1,0,0:0:0:0:
224,160,136597,1,0,0:0:0:0:
288,160,136882,1,2,0:0:0:0:
288,160,136954,1,2,0:0:0:0:
288,160,137025,1,2,0:0:0:0:
288,160,137097,1,2,0:0:0:0:
224,160,137168,1,0,0:0:0:0:
288,160,137454,1,2,0:0:0:0:
224,160,137597,1,0,0:0:0:0:
288,160,137739,1,2,0:0:0:0:
288,160,137882,1,2,0:0:0:0:
224,160,138025,1,0,0:0:0:0:
288,160,138311,1,2,0:0:0:0:
224,160,138597,1,0,0:0:0:0:
288,160,138739,1,2,0:0:0:0:
224,160,138882,1,0,0:0:0:0:
288,160,139025,1,2,0:0:0:0:
288,160,139168,1,2,0:0:0:0:
224,160,139311,1,0,0:0:0:0:
288,224,139454,1,6,0:0:0:0:
288,160,139882,1,2,0:0:0:0:
224,160,140025,1,0,0:0:0:0:
288,160,140168,1,2,0:0:0:0:
288,160,140311,1,2,0:0:0:0:
288,160,140454,1,2,0:0:0:0:
224,224,140597,1,4,0:0:0:0:
224,160,140883,1,0,0:0:0:0:
288,160,141026,1,2,0:0:0:0:
288,160,141169,1,2,0:0:0:0:
288,160,141454,1,2,0:0:0:0:
288,160,141597,1,2,0:0:0:0:
288,160,141883,1,2,0:0:0:0:
224,160,142026,1,0,0:0:0:0:
224,160,142169,1,0,0:0:0:0:
288,160,142311,1,2,0:0:0:0:
224,160,142454,1,0,0:0:0:0:
288,160,142597,1,2,0:0:0:0:
288,160,142669,1,2,0:0:0:0:
288,160,142740,1,2,0:0:0:0:
224,160,142883,1,0,0:0:0:0:
224,160,143169,1,0,0:0:0:0:
288,160,143311,1,2,0:0:0:0:
288,160,143454,1,2,0:0:0:0:
288,160,143740,1,2,0:0:0:0:
224,160,143883,1,0,0:0:0:0:
288,160,144169,1,2,0:0:0:0:
224,160,144311,1,0,0:0:0:0:
224,160,144454,1,0,0:0:0:0:
288,160,144597,1,2,0:0:0:0:
224,160,144740,1,0,0:0:0:0:
288,160,144883,1,2,0:0:0:0:
288,160,145026,1,2,0:0:0:0:
224,160,145169,1,0,0:0:0:0:
224,160,145454,1,0,0:0:0:0:
288,160,145597,1,2,0:0:0:0:
288,160,145740,1,2,0:0:0:0:
224,160,146026,1,0,0:0:0:0:
288,160,146169,1,2,0:0:0:0:
288,160,146454,1,2,0:0:0:0:
224,160,146597,1,0,0:0:0:0:
224,160,146740,1,0,0:0:0:0:
288,160,146883,1,2,0:0:0:0:
288,160,147169,1,2,0:0:0:0:
288,160,147240,1,2,0:0:0:0:
224,160,147311,1,0,0:0:0:0:
288,160,147454,1,2,0:0:0:0:
224,160,147740,1,0,0:0:0:0:
224,160,147883,1,0,0:0:0:0:
288,160,148026,1,2,0:0:0:0:
288,160,148311,1,2,0:0:0:0:
224,160,148454,1,0,0:0:0:0:
224,160,148597,1,0,0:0:0:0:
288,160,148740,1,2,0:0:0:0:
224,160,148883,1,0,0:0:0:0:
288,160,149026,1,2,0:0:0:0:
288,160,149169,1,2,0:0:0:0:
224,160,149311,1,0,0:0:0:0:
288,160,149454,1,2,0:0:0:0:
288,160,149597,1,2,0:0:0:0:
224,224,149740,1,4,0:0:0:0:
224,160,150026,1,0,0:0:0:0:
288,160,150169,1,2,0:0:0:0:
288,160,150311,1,2,0:0:0:0:
288,160,150597,1,2,0:0:0:0:
288,160,150740,1,2,0:0:0:0:
288,160,151026,1,2,0:0:0:0:
224,160,151169,1,0,0:0:0:0:
224,160,151311,1,0,0:0:0:0:
288,160,151454,1,2,0:0:0:0:
224,160,151597,1,0,0:0:0:0:
288,160,151740,1,2,0:0:0:0:
224,160,151811,1,0,0:0:0:0:
288,160,151883,1,2,0:0:0:0:
224,160,152026,1,0,0:0:0:0:
224,160,152311,1,0,0:0:0:0:
288,160,152454,1,2,0:0:0:0:
288,160,152597,1,2,0:0:0:0:
288,160,152883,1,2,0:0:0:0:
224,160,153026,1,0,0:0:0:0:
288,160,153311,1,2,0:0:0:0:
224,160,153454,1,0,0:0:0:0:
224,160,153597,1,0,0:0:0:0:
288,160,153740,1,2,0:0:0:0:
224,160,153883,1,0,0:0:0:0:
224,160,154026,1,0,0:0:0:0:
288,160,154169,1,2,0:0:0:0:
224,160,154311,1,0,0:0:0:0:
224,160,154597,1,0,0:0:0:0:
288,160,154740,1,2,0:0:0:0:
288,160,154883,1,2,0:0:0:0:
224,160,155169,1,0,0:0:0:0:
288,160,155311,1,2,0:0:0:0:
288,160,155597,1,2,0:0:0:0:
224,160,155740,1,0,0:0:0:0:
224,160,155883,1,0,0:0:0:0:
288,160,156026,1,2,0:0:0:0:
288,160,156311,1,2,0:0:0:0:
288,160,156383,1,2,0:0:0:0:
224,160,156454,1,0,0:0:0:0:
288,160,156597,1,2,0:0:0:0:
224,160,156883,1,0,0:0:0:0:
224,160,157026,1,0,0:0:0:0:
288,160,157169,1,2,0:0:0:0:
288,160,157454,1,2,0:0:0:0:
224,160,157597,1,0,0:0:0:0:
224,160,157740,1,0,0:0:0:0:
288,160,158026,1,2,0:0:0:0:
224,160,158169,1,0,0:0:0:0:
288,160,158311,1,2,0:0:0:0:
288,160,158597,1,2,0:0:0:0:
288,160,158740,1,2,0:0:0:0:
224,224,158883,1,4,0:0:0:0:
224,160,159026,1,0,0:0:0:0:
288,160,159311,1,2,0:0:0:0:
288,160,159454,1,2,0:0:0:0:
224,160,159669,1,0,0:0:0:0:
288,160,159740,1,2,0:0:0:0:
288,160,159883,1,2,0:0:0:0:
224,160,160026,1,0,0:0:0:0:
288,160,160311,1,2,0:0:0:0:
288,160,160454,1,2,0:0:0:0:
224,160,160597,1,0,0:0:0:0:
224,160,160883,1,0,0:0:0:0:
224,160,160954,1,0,0:0:0:0:
288,160,161026,1,2,0:0:0:0:
224,160,161169,1,0,0:0:0:0:
288,160,161311,1,2,0:0:0:0:
288,160,161597,1,2,0:0:0:0:
288,160,161740,1,2,0:0:0:0:
288,160,161954,1,8,0:0:0:0:
224,160,162026,1,0,0:0:0:0:
288,160,162169,1,2,0:0:0:0:
224,160,162311,1,0,0:0:0:0:
224,160,162597,1,0,0:0:0:0:
288,160,162740,1,2,0:0:0:0:
224,160,162883,1,0,0:0:0:0:
288,160,163097,1,2,0:0:0:0:
224,160,163169,1,0,0:0:0:0:
288,160,163311,1,2,0:0:0:0:
224,160,163454,1,0,0:0:0:0:
224,160,163597,1,0,0:0:0:0:
224,160,163883,1,0,0:0:0:0:
288,160,164026,1,2,0:0:0:0:
288,160,164311,1,2,0:0:0:0:
288,160,164454,1,2,0:0:0:0:
224,160,164597,1,0,0:0:0:0:
288,160,164883,1,2,0:0:0:0:
224,160,165026,1,0,0:0:0:0:
288,160,165169,1,2,0:0:0:0:
288,160,165311,1,2,0:0:0:0:
224,160,165454,1,0,0:0:0:0:
224,160,165526,1,0,0:0:0:0:
288,160,165597,1,2,0:0:0:0:
224,160,165740,1,0,0:0:0:0:
288,160,165883,1,2,0:0:0:0:
224,160,166026,1,0,0:0:0:0:
288,160,166169,1,2,0:0:0:0:
224,160,166311,1,0,0:0:0:0:
288,160,166597,1,2,0:0:0:0:
224,160,166740,1,0,0:0:0:0:
288,160,166883,1,2,0:0:0:0:
288,160,167026,1,2,0:0:0:0:
224,160,167169,1,0,0:0:0:0:
224,160,167240,1,0,0:0:0:0:
224,160,167311,1,0,0:0:0:0:
224,160,167383,1,0,0:0:0:0:
288,160,167454,1,2,0:0:0:0:
288,160,167740,1,2,0:0:0:0:
224,160,168026,1,0,0:0:0:0:
288,160,168169,1,2,0:0:0:0:
288,160,168454,1,2,0:0:0:0:
224,160,168597,1,0,0:0:0:0:
288,160,168811,1,8,0:0:0:0:
288,160,168883,1,2,0:0:0:0:
288,160,169026,1,2,0:0:0:0:
224,160,169169,1,0,0:0:0:0:
288,160,169454,1,2,0:0:0:0:
224,160,169597,1,0,0:0:0:0:
288,160,169740,1,2,0:0:0:0:
288,160,169954,1,2,0:0:0:0:
224,160,170026,1,0,0:0:0:0:
288,160,170169,1,2,0:0:0:0:
224,160,170311,1,0,0:0:0:0:
288,160,170454,1,2,0:0:0:0:
288,160,170597,1,2,0:0:0:0:
224,160,170740,1,0,0:0:0:0:
288,160,170883,1,2,0:0:0:0:
288,160,171097,1,2,0:0:0:0:
224,160,171169,1,0,0:0:0:0:
288,160,171311,1,2,0:0:0:0:
224,160,171454,1,0,0:0:0:0:
224,160,171740,1,0,0:0:0:0:
288,160,171883,1,2,0:0:0:0:
288,160,172026,1,2,0:0:0:0:
224,160,172240,1,0,0:0:0:0:
288,160,172311,1,2,0:0:0:0:
288,160,172454,1,2,0:0:0:0:
224,160,172597,1,0,0:0:0:0:
288,160,172740,1,2,0:0:0:0:
224,160,173026,1,0,0:0:0:0:
288,160,173169,1,2,0:0:0:0:
224,160,173383,1,0,0:0:0:0:
224,160,173454,1,0,0:0:0:0:
288,160,173597,1,2,0:0:0:0:
224,160,173740,1,0,0:0:0:0:
288,160,174026,1,2,0:0:0:0:
224,160,174169,1,0,0:0:0:0:
288,160,174311,1,2,0:0:0:0:
288,160,174454,1,2,0:0:0:0:
224,160,174597,1,0,0:0:0:0:
288,160,174669,1,2,0:0:0:0:
224,160,174740,1,0,0:0:0:0:
224,160,174883,1,0,0:0:0:0:
288,160,175026,1,2,0:0:0:0:
224,160,175169,1,0,0:0:0:0:
288,160,175311,1,2,0:0:0:0:
224,160,175454,1,0,0:0:0:0:
288,160,175740,1,2,0:0:0:0:
224,160,175883,1,0,0:0:0:0:
288,160,176026,1,2,0:0:0:0:
288,160,176169,1,2,0:0:0:0:
224,160,176311,1,0,0:0:0:0:
224,160,176383,1,0,0:0:0:0:
224,160,176454,1,0,0:0:0:0:
288,224,176597,1,6,0:0:0:0:
288,160,183311,5,2,0:0:0:0:
224,160,183454,1,0,0:0:0:0:
288,160,183597,1,2,0:0:0:0:
288,160,183740,1,2,0:0:0:0:
224,160,183883,1,0,0:0:0:0:
224,224,184026,1,4,0:0:0:0:
224,160,184311,1,0,0:0:0:0:
288,160,184454,1,2,0:0:0:0:
288,160,184597,1,2,0:0:0:0:
288,160,184883,1,2,0:0:0:0:
288,160,185026,1,2,0:0:0:0:
224,160,185169,1,0,0:0:0:0:
288,160,185311,1,2,0:0:0:0:
224,160,185454,1,0,0:0:0:0:
224,160,185597,1,0,0:0:0:0:
288,160,185740,1,2,0:0:0:0:
224,160,185883,1,0,0:0:0:0:
288,160,186026,1,2,0:0:0:0:
288,160,186097,1,2,0:0:0:0:
288,160,186169,1,2,0:0:0:0:
224,160,186311,1,0,0:0:0:0:
224,160,186597,1,0,0:0:0:0:
288,160,186740,1,2,0:0:0:0:
288,160,186883,1,2,0:0:0:0:
288,160,187169,1,2,0:0:0:0:
224,160,187311,1,0,0:0:0:0:
224,160,187454,1,0,0:0:0:0:
288,160,187597,1,2,0:0:0:0:
224,160,187740,1,0,0:0:0:0:
224,160,187883,1,0,0:0:0:0:
288,160,188026,1,2,0:0:0:0:
288,160,188169,1,2,0:0:0:0:
224,160,188311,1,0,0:0:0:0:
288,160,188454,1,2,0:0:0:0:
224,160,188597,1,0,0:0:0:0:
224,160,188883,1,0,0:0:0:0:
288,160,189026,1,2,0:0:0:0:
288,160,189169,1,2,0:0:0:0:
224,160,189454,1,0,0:0:0:0:
288,160,189597,1,2,0:0:0:0:
288,160,189883,1,2,0:0:0:0:
224,160,190026,1,0,0:0:0:0:
224,160,190169,1,0,0:0:0:0:
288,160,190311,1,2,0:0:0:0:
224,160,190454,1,0,0:0:0:0:
288,160,190597,1,2,0:0:0:0:
288,160,190669,1,2,0:0:0:0:
224,160,190740,1,0,0:0:0:0:
288,160,190883,1,2,0:0:0:0:
224,160,191169,1,0,0:0:0:0:
224,160,191311,1,0,0:0:0:0:
288,160,191454,1,2,0:0:0:0:
288,160,191740,1,2,0:0:0:0:
288,160,191883,1,2,0:0:0:0:
224,160,192026,1,0,0:0:0:0:
288,160,192169,1,2,0:0:0:0:
224,160,192311,1,0,0:0:0:0:
288,160,192454,1,2,0:0:0:0:
288,160,192597,1,2,0:0:0:0:
288,160,192740,1,2,0:0:0:0:
288,160,192883,1,2,0:0:0:0:
224,160,193026,1,0,0:0:0:0:
224,224,193169,1,4,0:0:0:0:
224,160,193454,1,0,0:0:0:0:
288,160,193597,1,2,0:0:0:0:
288,160,193740,1,2,0:0:0:0:
288,160,194026,1,2,0:0:0:0:
288,160,194169,1,2,0:0:0:0:
224,160,194311,1,0,0:0:0:0:
288,160,194454,1,2,0:0:0:0:
224,160,194597,1,0,0:0:0:0:
224,160,194740,1,0,0:0:0:0:
288,160,194883,1,2,0:0:0:0:
224,160,195026,1,0,0:0:0:0:
288,160,195169,1,2,0:0:0:0:
224,160,195240,1,0,0:0:0:0:
288,160,195311,1,2,0:0:0:0:
224,160,195454,1,0,0:0:0:0:
224,160,195740,1,0,0:0:0:0:
288,160,195883,1,2,0:0:0:0:
288,160,196026,1,2,0:0:0:0:
288,160,196311,1,2,0:0:0:0:
224,160,196454,1,0,0:0:0:0:
224,160,196597,1,0,0:0:0:0:
288,160,196740,1,2,0:0:0:0:
224,160,196883,1,0,0:0:0:0:
224,160,197026,1,0,0:0:0:0:
288,160,197169,1,2,0:0:0:0:
288,160,197311,1,2,0:0:0:0:
288,160,197454,1,2,0:0:0:0:
288,160,197597,1,2,0:0:0:0:
224,160,197740,1,0,0:0:0:0:
224,160,198026,1,0,0:0:0:0:
288,160,198169,1,2,0:0:0:0:
288,160,198311,1,2,0:0:0:0:
224,160,198597,1,0,0:0:0:0:
288,160,198740,1,2,0:0:0:0:
288,160,199026,1,2,0:0:0:0:
224,160,199169,1,0,0:0:0:0:
224,160,199311,1,0,0:0:0:0:
288,160,199454,1,2,0:0:0:0:
224,160,199597,1,0,0:0:0:0:
288,160,199740,1,2,0:0:0:0:
288,160,199811,1,2,0:0:0:0:
224,160,199883,1,0,0:0:0:0:
288,160,200026,1,2,0:0:0:0:
224,160,200311,1,0,0:0:0:0:
224,160,200454,1,0,0:0:0:0:
288,160,200597,1,2,0:0:0:0:
288,160,200883,1,2,0:0:0:0:
288,160,201026,1,2,0:0:0:0:
224,160,201169,1,0,0:0:0:0:
288,160,201454,1,2,0:0:0:0:
224,160,201597,1,0,0:0:0:0:
288,160,201740,1,2,0:0:0:0:
288,160,202026,1,2,0:0:0:0:
288,160,202169,1,2,0:0:0:0:
