osu file format v14

[General]
AudioFilename: audio.mp3
AudioLeadIn: 0
PreviewTime: -1
Countdown: 0
SampleSet: Normal
StackLeniency: 0.7
Mode: 0
LetterboxInBreaks: 0
WidescreenStoryboard: 0

[Editor]
DistanceSpacing: 1.1
BeatDivisor: 4
GridSize: 32
TimelineZoom: 2.2

[Metadata]
Title:hectopascal
TitleUnicode:hectopascal
Artist:(CV:), (CV: )
ArtistUnicode:小糸 侑 (CV:高田憂希), 七海 燈子(CV: 寿美菜子)
Creator:Viveliam
Version:Djensen
Source:Yagate Kimi ni Naru
Tags:
BeatmapID:1889072
BeatmapSetID:905063

[Difficulty]
HPDrainRate:6
CircleSize:4
OverallDifficulty:8
ApproachRate:9
SliderMultiplier:1.4
SliderTickRate:1

[Events]
//Background and Video events
0,0,"hectopascal.jpg",0,0
//Break Periods
2,34581,47743
//Storyboard Layer 0 (Background)
//Storyboard Layer 1 (Fail)
//Storyboard Layer 2 (Pass)
//Storyboard Layer 3 (Foreground)
//Storyboard Sound Samples

[TimingPoints]
545,461.538461538462,4,1,0,100,1,0
4959,461.538461538462,4,1,0,100,1,0
4959,-66.6666666666667,4,1,0,100,0,0

[HitObjects]
344,201,545,5,0,0:0:0:0:
274,280,775,1,0,0:0:0:0:
178,236,1006,1,0,0:0:0:0:
344,201,1237,1,0,0:0:0:0:
189,132,1468,1,0,0:0:0:0:
274,279,1698,1,0,0:0:0:0:
292,110,1929,1,0,0:0:0:0:
292,110,2391,5,0,0:0:0:0:
274,279,2621,1,0,0:0:0:0:
189,132,2852,1,0,0:0:0:0:
344,201,3314,5,0,0:0:0:0:
178,236,3429,1,0,0:0:0:0:
274,279,3545,1,0,0:0:0:0:
344,201,3775,1,0,0:0:0:0:
256,192,4006,12,0,4929,0:0:0:0:
297,70,5074,6,0,B|270:38|226:31|226:31|243:54,1,105.000004005432
294,190,5420,1,0,0:0:0:0:
408,231,5651,1,0,0:0:0:0:
482,132,5881,1,0,0:0:0:0:
411,32,6112,1,0,0:0:0:0:
411,32,6459,1,0,0:0:0:0:
408,231,6689,1,0,0:0:0:0:
296,69,6920,1,0,0:0:0:0:
482,131,7151,1,0,0:0:0:0:
293,189,7382,6,0,B|316:187|316:187|286:220|245:226,1,105.000004005432,0|0,0:0|0:3,0:0:0:0:
231,217,7959,1,0,0:0:0:0:
64,150,8189,1,0,0:0:0:0:
239,107,8420,1,0,0:0:0:0:
124,245,8651,6,0,B|72:305|72:305|76:339|76:339|113:297,1,157.500006008148,0|0,0:0|0:3,0:0:0:0:
64,150,9112,1,0,0:0:0:0:
231,217,9343,1,0,0:0:0:0:
231,217,9805,1,0,0:0:0:0:
239,107,10035,1,0,0:0:0:0:
136,65,10266,1,0,0:0:0:0:
64,150,10497,6,0,B|57:107|57:107|85:125|85:125|98:205,1,157.500006008148,0|0,0:0|0:3,0:0:0:0:
124,245,10958,1,0,0:0:0:0:
231,217,11189,1,0,0:0:0:0:
231,217,11651,1,0,0:0:0:0:
124,245,11766,1,0,0:0:0:0:
64,150,11882,1,0,0:0:0:0:
136,65,12112,1,0,0:0:0:0:
239,107,12343,1,0,0:0:0:0:
303,80,12805,1,0,0:0:0:0:
348,133,13266,1,0,0:0:0:0:
311,194,13728,1,0,0:0:0:0:
243,176,14189,1,0,0:0:0:0:
147,174,14650,1,0,0:0:0:0:
116,263,15112,1,0,0:0:0:0:
192,320,15574,1,0,0:0:0:0:
269,266,15920,1,0,0:0:0:0:
260,201,16035,1,0,0:0:0:0:
192,196,16266,1,0,0:0:0:0:
133,196,16497,1,0,0:0:0:0:
152,137,16728,1,0,0:0:0:0:
216,131,16959,1,0,0:0:0:0:
270,129,17189,1,0,0:0:0:0:
241,237,17420,1,0,0:0:0:0:
276,238,17535,1,0,0:0:0:0:
304,238,17651,1,0,0:0:0:0:
327,239,17766,1,0,0:0:0:0:
343,241,17882,1,0,0:0:0:0:
272,197,18343,1,0,0:0:0:0:
200,275,18805,1,0,0:0:0:0:
242,286,18920,1,0,0:0:0:0:
289,288,19035,1,0,0:0:0:0:
334,291,19151,1,0,0:0:0:0:
356,293,19266,1,0,0:0:0:0:
160,111,19728,5,0,0:0:0:0:
192,180,19959,1,0,0:0:0:0:
234,114,20189,1,0,0:0:0:0:
271,180,20305,1,0,0:0:0:0:
310,117,20420,1,0,0:0:0:0:
88,270,20651,1,0,0:0:0:0:
152,273,20882,1,0,0:0:0:0:
267,269,21112,1,0,0:0:0:0:
219,212,21805,1,0,0:0:0:0:
304,225,22035,1,0,0:0:0:0:
142,228,22266,1,0,0:0:0:0:
105,200,23420,1,0,0:0:0:0:
176,210,23651,1,0,0:0:0:0:
176,210,23882,1,0,0:0:0:0:
176,210,23997,1,0,0:0:0:0:
176,210,24112,1,0,0:0:0:0:
130,318,24343,1,0,0:0:0:0:
153,301,24574,1,0,0:0:0:0:
265,284,24805,1,0,0:0:0:0:
265,284,25035,1,0,0:0:0:0:
159,165,25497,1,0,0:0:0:0:
225,169,25728,1,0,0:0:0:0:
262,175,25959,1,0,0:0:0:0:
287,176,26074,1,0,0:0:0:0:
276,224,26189,1,0,0:0:0:0:
278,258,26305,1,0,0:0:0:0:
227,262,26420,1,0,0:0:0:0:
201,263,26535,1,0,0:0:0:0:
193,209,26651,1,0,0:0:0:0:
193,162,26766,1,0,0:0:0:0:
242,157,26882,1,0,0:0:0:0:
260,157,26997,1,0,0:0:0:0:
296,156,27112,1,0,0:0:0:0:
20,152,27343,1,0,0:0:0:0:
61,291,27574,1,0,0:0:0:0:
70,296,27689,1,0,0:0:0:0:
116,300,27805,1,0,0:0:0:0:
244,293,28035,1,0,0:0:0:0:
27,233,28266,1,0,0:0:0:0:
27,233,28497,1,0,0:0:0:0:
47,242,28612,1,0,0:0:0:0:
89,249,29189,1,0,0:0:0:0:
154,268,29421,1,0,0:0:0:0:
221,289,29651,1,0,0:0:0:0:
243,258,29766,1,0,0:0:0:0:
243,258,29882,1,0,0:0:0:0:
254,216,29997,1,0,0:0:0:0:
251,212,30112,1,0,0:0:0:0:
254,186,30228,1,0,0:0:0:0:
258,186,30343,1,0,0:0:0:0:
78,114,30689,1,0,0:0:0:0:
61,184,30920,1,0,0:0:0:0:
73,270,31151,1,0,0:0:0:0:
109,270,31266,1,0,0:0:0:0:
136,274,31382,1,0,0:0:0:0:
172,282,31497,1,0,0:0:0:0:
309,289,31728,1,0,0:0:0:0:
227,176,31959,1,0,0:0:0:0:
102,154,32189,1,0,0:0:0:0:
34,299,32651,1,0,0:0:0:0:
100,306,32882,1,0,0:0:0:0:
160,309,33112,1,0,0:0:0:0:
160,309,33228,1,0,0:0:0:0:
196,296,33343,1,0,0:0:0:0:
234,297,33459,1,0,0:0:0:0:
283,298,33574,1,0,0:0:0:0:
290,242,33689,1,0,0:0:0:0:
279,204,33805,1,0,0:0:0:0:
267,181,33920,1,0,0:0:0:0:
262,166,34035,1,0,0:0:0:0:
251,134,34151,2,0,L|147:76,1,105
139,172,48343,5,0,0:0:0:0:
139,172,48574,1,0,0:0:0:0:
218,171,48805,1,0,0:0:0:0:
218,171,49035,1,0,0:0:0:0:
218,171,49151,1,0,0:0:0:0:
218,171,49266,1,0,0:0:0:0:
218,171,49382,1,0,0:0:0:0:
305,177,49612,1,0,0:0:0:0:
305,177,49728,1,0,0:0:0:0:
303,255,49959,1,0,0:0:0:0:
303,255,50074,1,0,0:0:0:0:
296,252,50189,1,0,0:0:0:0:
297,255,50305,1,0,0:0:0:0:
296,254,50420,1,0,0:0:0:0:
303,255,50535,1,0,0:0:0:0:
69,204,50766,1,0,0:0:0:0:
69,204,50882,1,0,0:0:0:0:
69,204,50997,1,0,0:0:0:0:
69,204,51112,1,0,0:0:0:0:
71,161,51228,1,0,0:0:0:0:
100,134,51343,1,0,0:0:0:0:
100,134,51459,1,0,0:0:0:0:
145,118,51574,1,0,0:0:0:0:
185,106,51689,1,0,0:0:0:0:
190,103,51805,2,0,L|220:105,1,17.5
257,113,51920,1,0,0:0:0:0:
197,210,52151,1,0,0:0:0:0:
222,213,52266,1,0,0:0:0:0:
227,293,52728,1,0,0:0:0:0:
321,278,52959,1,0,0:0:0:0:
415,217,53189,1,0,0:0:0:0:
111,144,53535,1,0,0:0:0:0:
32,215,53766,1,0,0:0:0:0:
92,310,53997,1,0,0:0:0:0:
149,169,54459,1,0,0:0:0:0:
268,169,54689,1,0,0:0:0:0:
266,275,54920,1,0,0:0:0:0:
112,272,55151,1,0,0:0:0:0:
201,212,55382,2,0,L|425:175,1,210
215,186,56420,1,0,0:0:0:0:
259,192,56535,1,0,0:0:0:0:
293,191,56651,1,0,0:0:0:0:
356,203,56882,1,0,0:0:0:0:
105,275,57112,1,0,0:0:0:0:
152,278,57228,1,0,0:0:0:0:
180,279,57343,1,0,0:0:0:0:
232,282,57459,1,0,0:0:0:0:
280,288,57574,1,0,0:0:0:0:
332,294,57805,1,0,0:0:0:0:
354,294,57920,1,0,0:0:0:0:
200,160,58266,1,0,0:0:0:0:
131,153,58497,1,0,0:0:0:0:
77,220,58728,1,0,0:0:0:0:
153,278,58959,1,0,0:0:0:0:
211,277,59074,1,0,0:0:0:0:
265,279,59189,1,0,0:0:0:0:
300,281,59305,1,0,0:0:0:0:
353,227,59420,1,0,0:0:0:0:
407,288,59651,1,0,0:0:0:0:
334,283,59766,1,0,0:0:0:0:
