osu file format v14

[General]
AudioFilename: audio.mp3
AudioLeadIn: 0
PreviewTime: -1
Countdown: 1
SampleSet: None
StackLeniency: 0.7
Mode: 0
LetterboxInBreaks: 0
WidescreenStoryboard: 1

[Editor]
DistanceSpacing: 0.5
BeatDivisor: 8
GridSize: 32
TimelineZoom: 1.6

[Metadata]
Title:Fatto Shite Tougenkyou
TitleUnicode:ファッとして桃源郷
Artist:(CV: )
ArtistUnicode:新庄 かなえ (CV: 三森すずこ)
Creator:TTL
Version:ALTENNIS MASTER
Source:tennis animu
Tags:
BeatmapID:1730533
BeatmapSetID:825669

[Difficulty]
HPDrainRate:10
CircleSize:5
OverallDifficulty:10
ApproachRate:10
SliderMultiplier:2
SliderTickRate:1

[Events]
//Background and Video events
//Break Periods
//Storyboard Layer 0 (Background)
//Storyboard Layer 1 (Fail)
//Storyboard Layer 2 (Pass)
//Storyboard Layer 3 (Foreground)
//Storyboard Sound Samples

[TimingPoints]
677,375,4,1,0,100,1,0
677,-133.333333333333,4,1,0,100,0,0
2177,-66.6666666666667,4,1,0,100,0,0
2927,-100,4,1,0,100,0,0
3864,-1000,4,1,0,100,0,0
4427,-100,4,1,0,100,0,0
7052,-1000,4,1,0,100,0,0
8552,-100,4,1,0,100,0,0
13052,-133.333333333333,4,1,0,100,0,0
13802,-181.818181818181,4,1,0,100,0,0
14739,-100,4,1,0,100,0,0
18677,-66.6666666666667,4,1,0,100,0,0
18770,-100,4,1,0,100,0,0
28052,-66.6666666666667,4,1,0,100,0,0

[HitObjects]
64,44,677,6,0,L|180:132,1,112.500004291535
174,127,1052,1,0,0:0:0:0:
204,149,1145,1,0,0:0:0:0:
234,171,1239,1,0,0:0:0:0:
264,194,1333,1,0,0:0:0:0:
294,216,1427,2,0,L|373:271,2,75.0000028610231
174,127,1989,1,0,0:0:0:0:
157,276,2177,6,0,L|45:47,1,225.000008583069
92,52,2552,5,8,0:0:0:0:
139,61,2645,1,0,0:0:0:0:
183,75,2739,1,0,0:0:0:0:
225,100,2833,1,0,0:0:0:0:
256,132,2927,2,0,L|196:44,1,100,4|0,0:0|0:0,0:0:0:0:
276,135,3302,2,0,L|250:32,1,100,8|0,0:0|0:0,0:0:0:0:
294,146,3677,1,4,0:0:0:0:
299,96,3770,1,0,0:0:0:0:
304,46,3864,2,0,L|305:42,1,5
362,43,4052,5,8,0:0:0:0:
376,77,4145,1,0,0:0:0:0:
409,95,4239,1,0,0:0:0:0:
443,119,4333,1,0,0:0:0:0:
466,146,4427,2,0,P|481:197|471:247,1,100,4|0,0:0|0:0,0:0:0:0:
385,200,4802,1,8,0:0:0:0:
285,146,4989,5,0,0:0:0:0:
271,193,5082,1,0,0:0:0:0:
280,242,5176,1,4,0:0:0:0:
310,281,5270,1,0,0:0:0:0:
354,303,5364,2,0,P|386:313|432:319,1,50
455,232,5552,5,8,0:0:0:0:
408,215,5645,1,0,0:0:0:0:
360,225,5739,1,0,0:0:0:0:
319,244,5833,1,0,0:0:0:0:
285,273,5927,2,0,P|241:297|171:296,1,100,4|0,0:0|0:0,0:0:0:0:
119,235,6302,2,0,P|176:205|239:214,1,100,8|0,0:0|0:0,0:0:0:0:
312,208,6677,1,0,0:0:0:0:
359,194,6770,1,4,0:0:0:0:
392,157,6864,1,0,0:0:0:0:
401,109,6958,1,0,0:0:0:0:
384,73,7052,2,8,L|366:42,1,35
355,23,7802,5,12,0:0:0:0:
322,37,7989,1,12,0:0:0:0:
286,54,8177,1,12,0:0:0:0:
250,72,8364,1,12,0:0:0:0:
87,142,8552,5,8,0:0:0:0:
119,179,8645,1,0,0:0:0:0:
164,201,8739,1,0,0:0:0:0:
213,203,8833,1,0,0:0:0:0:
260,186,8927,2,0,P|309:169|355:192,1,100,4|0,0:0|0:0,0:0:0:0:
408,268,9302,6,0,L|271:290,1,100,8|0,0:0|0:0,0:0:0:0:
210,297,9677,1,4,0:0:0:0:
217,248,9770,1,0,0:0:0:0:
247,208,9864,1,0,0:0:0:0:
292,187,9958,1,0,0:0:0:0:
341,190,10052,6,0,L|393:202,1,50,8|0,0:0|0:0,0:0:0:0:
421,226,10239,1,0,0:0:0:0:
454,251,10333,1,0,0:0:0:0:
487,282,10427,2,0,L|358:309,2,100,4|0|8,0:0|0:0|0:0,0:0:0:0:
341,190,10989,2,0,L|374:69,1,100,0|4,0:0|0:0,0:0:0:0:
165,86,11364,5,8,0:0:0:0:
155,266,11552,2,0,P|182:216|229:173,1,100,8|0,0:0|0:0,0:0:0:0:
247,155,11833,1,0,0:0:0:0:
291,134,11927,2,0,P|363:171|397:200,1,100,12|0,0:0|0:0,0:0:0:0:
406,212,12208,1,0,0:0:0:0:
441,249,12302,2,0,P|435:317|436:355,2,100,8|0|12,0:0|0:0|0:0,0:0:0:0:
458,147,12864,1,0,0:0:0:0:
394,54,13052,6,12,P|332:75|238:122,1,150.000005722046
394,54,13802,2,12,P|332:75|271:102,1,110.000003356934
394,54,14552,1,0,0:0:0:0:
394,54,14739,2,0,L|340:74,2,50
116,159,15114,1,0,0:0:0:0:
245,107,15302,1,0,0:0:0:0:
363,296,15489,6,0,P|328:244|333:197,1,100,0|8,0:0|0:0,0:0:0:0:
124,60,16052,5,8,0:0:0:0:
146,90,16145,1,0,0:0:0:0:
165,119,16239,1,0,0:0:0:0:
186,151,16333,1,0,0:0:0:0:
206,181,16427,2,0,L|250:252,1,50
319,338,16614,2,0,L|300:280,1,50
307,146,16802,2,0,L|327:196,1,50,8|0,0:0|0:0,0:0:0:0:
431,318,16989,2,0,L|410:245,1,50
445,154,17177,2,0,L|422:91,1,50
333,24,17364,2,0,L|274:35,1,50
148,58,17552,5,8,0:0:0:0:
119,72,17645,1,0,0:0:0:0:
93,93,17739,1,0,0:0:0:0:
71,116,17833,1,0,0:0:0:0:
53,142,17927,2,0,P|37:160|23:181,1,50
154,276,18114,2,0,P|170:257|184:236,1,50
25,241,18302,2,0,P|38:262|55:280,1,50,8|0,0:0|0:0,0:0:0:0:
174,176,18489,2,0,P|160:154|143:136,1,50
113,86,18677,2,0,L|225:85,1,75.0000028610231
294,52,18864,5,0,0:0:0:0:
332,82,18958,1,0,0:0:0:0:
364,117,19052,2,0,P|373:133|375:180,1,50,8|0,0:0|0:0,0:0:0:0:
310,244,19239,5,0,0:0:0:0:
271,277,19333,1,0,0:0:0:0:
228,297,19427,2,0,P|173:312|145:317,1,50
157,310,19614,2,0,L|130:308,1,25
63,253,19708,5,0,0:0:0:0:
47,228,19802,2,0,L|65:160,1,50,8|0,0:0|0:0,0:0:0:0:
91,66,19989,2,0,L|103:18,1,50
296,161,20177,6,0,L|311:89,1,50
43,93,20364,2,0,L|54:31,1,50
326,58,20552,6,0,L|340:0,1,50,8|0,0:0|0:0,0:0:0:0:
112,163,20739,2,0,L|131:83,1,50
390,190,20927,2,0,P|319:172|270:143,1,100
159,110,21208,5,0,0:0:0:0:
133,115,21302,2,0,P|107:163|100:205,1,50,8|0,0:0|0:0,0:0:0:0:
70,232,21489,2,0,P|60:255|54:279,1,50
117,321,21630,2,0,L|163:326,1,25
220,341,21770,2,0,P|214:252|195:201,1,100
184,139,22005,5,0,0:0:0:0:
159,110,22052,2,0,P|217:105|267:109,1,100,8|0,0:0|0:0,0:0:0:0:
348,122,22333,2,0,L|342:84,1,25
329,21,22427,6,0,P|401:36|413:49,1,75
452,91,22614,2,0,L|423:180,1,75
405,192,22802,2,0,L|366:81,2,100,8|0|0,0:0|0:0|0:0,0:0:0:0:
436,313,23364,2,0,P|381:313|349:310,1,75
254,303,23552,5,8,0:0:0:0:
212,292,23645,1,0,0:0:0:0:
174,274,23739,1,0,0:0:0:0:
142,251,23833,1,0,0:0:0:0:
111,227,23927,2,0,P|77:200|53:188,1,50
184,158,24114,2,0,P|150:131|126:119,1,50
255,82,24302,2,0,L|289:124,1,50,8|0,0:0|0:0,0:0:0:0:
311,129,24489,2,0,L|294:67,1,50
289,48,24677,1,0,0:0:0:0:
120,310,24864,5,0,0:0:0:0:
130,251,24958,1,0,0:0:0:0:
138,198,25052,2,0,L|155:110,1,75,8|0,0:0|0:0,0:0:0:0:
152,124,25239,5,0,0:0:0:0:
166,182,25333,1,0,0:0:0:0:
179,234,25427,2,0,L|122:308,1,75
120,310,25614,5,0,0:0:0:0:
149,257,25708,1,0,0:0:0:0:
175,210,25802,2,0,L|217:139,1,75,8|0,0:0|0:0,0:0:0:0:
232,122,25989,2,0,L|258:84,2,25
303,32,26177,6,0,P|336:85|332:132,1,100
394,262,26552,6,14,L|382:293,1,25
347,249,26645,1,0,0:0:0:0:
302,237,26739,1,0,0:0:0:0:
262,232,26833,1,0,0:0:0:0:
216,236,26927,1,0,0:0:0:0:
166,264,27020,2,14,L|145:300,1,25
179,211,27114,1,0,0:0:0:0:
214,159,27208,1,0,0:0:0:0:
264,117,27302,1,0,0:0:0:0:
319,74,27395,1,0,0:0:0:0:
374,39,27489,1,0,0:0:0:0:
442,31,27583,1,0,0:0:0:0:
421,93,27677,2,14,L|453:108,1,25
371,144,27770,2,14,L|406:158,1,25
324,198,27864,2,14,L|359:213,1,25
277,256,27958,2,14,L|309:269,1,25
212,330,28052,6,8,P|178:241|300:163,1,262.500010013581
277,256,28427,2,8,L|-12:257,1,262.500010013581
277,256,28802,2,8,L|36:132,1,262.500010013581
142,83,29177,2,8,L|31:142,1,112.500004291535
58,247,29364,2,8,L|42:132,1,112.500004291535
27,40,29552,2,8,P|73:35|137:98,1,112.500004291535
277,254,29739,1,8,0:0:0:0:
307,211,29833,1,8,0:0:0:0:
339,169,29927,2,8,L|422:56,1,112.500004291535
57,159,30114,2,8,L|141:50,1,112.500004291535
314,186,30302,2,8,L|397:73,1,112.500004291535
32,176,30489,2,8,L|116:67,1,112.500004291535
292,201,30677,2,8,B|256:306|153:290|153:290|199:242|186:227,1,225.000008583069
209,168,31006,5,4,0:0:0:0:
234,123,31052,2,4,P|291:99|364:131,1,112.500004291535
346,122,31239,2,4,P|291:111|241:134,1,112.500004291535
249,149,31427,2,4,P|299:125|353:136,1,112.500004291535
365,155,31614,2,4,P|310:144|260:167,1,112.500004291535
270,178,31802,2,4,P|320:154|374:165,1,112.500004291535
386,184,31989,2,4,P|331:173|281:196,1,112.500004291535
255,219,32177,2,4,P|205:249|121:261,1,112.500004291535
125,261,32364,2,4,P|145:192|176:129,1,112.500004291535
175,125,32552,6,2,L|121:91,1,37.5000014305115
114,85,32645,2,2,L|154:53,1,37.5000014305115
166,48,32739,2,2,L|316:81,2,150.000005722046
65,34,33302,2,2,L|50:208,2,150.000005722046
326,100,34052,6,8,L|275:118,1,37.5000014305115
139,151,34239,5,8,0:0:0:0:
388,217,34333,1,8,0:0:0:0:
167,283,34427,1,8,0:0:0:0:
396,86,34614,5,8,0:0:0:0:
396,86,34989,1,14,0:0:0:0:
256,192,35177,12,0,36627,0:0:0:0:
