osu file format v14

[General]
AudioFilename: audio.mp3
AudioLeadIn: 0
PreviewTime: -1
Countdown: 0
SampleSet: Normal
StackLeniency: 1
Mode: 0
LetterboxInBreaks: 1
WidescreenStoryboard: 1

[Editor]
Bookmarks: 27255
DistanceSpacing: 3.4
BeatDivisor: 4
GridSize: 32
TimelineZoom: 1.1

[Metadata]
Title:Spider's Blood
TitleUnicode:Spider's Blood
Artist:(A-ONE) Rute
ArtistUnicode:(A-ONE) 越田Rute隆人
Creator:spicy_sausage
Version:Spicy's Insane
Source:Touhou Project
Tags:
BeatmapID:1645638
BeatmapSetID:783689

[Difficulty]
HPDrainRate:6.5
CircleSize:3.2
OverallDifficulty:7
ApproachRate:9
SliderMultiplier:1.5
SliderTickRate:1

[Events]
//Background and Video events
0,0,"osubackground.png",0,0
//Break Periods
2,71175,76005
2,148736,153760
//Storyboard Layer 0 (Background)
//Storyboard Layer 1 (Fail)
//Storyboard Layer 2 (Pass)
//Storyboard Layer 3 (Foreground)
//Storyboard Sound Samples

[TimingPoints]
49023.8780487805,365.853658536585,4,1,0,100,1,0

[Colours]
Combo1 : 164,250,22
Combo2 : 0,255,255
Combo3 : 0,255,0
Combo4 : 4,252,128

[HitObjects]
256,192,32926,12,4,35853,0:0:0:0:
96,288,38048,5,2,0:0:0:0:
256,64,38322,1,0,0:0:0:0:
416,288,38597,1,8,0:0:0:0:
256,288,38779,1,0,0:0:0:0:
303,66,40243,6,0,P|243:38|201:88,2,112.5,8|0|8,0:0|0:0|0:0,0:0:0:0:
352,160,40975,1,0,0:0:0:0:
96,160,41249,1,8,0:0:0:0:
192,320,41523,1,0,0:0:0:0:
256,192,41706,1,4,0:0:0:0:
384,160,43718,5,0,0:0:0:0:
384,160,43810,1,0,0:0:0:0:
384,160,43901,2,0,B|416:192|413:250|352:256,2,112.5,4|0|0,0:0|0:0|0:0,0:0:0:0:
164,112,44633,1,12,0:0:0:0:
160,128,46097,6,0,L|96:160,4,37.5
160,128,46554,2,0,L|209:172,4,37.5
288,224,47103,5,0,0:0:0:0:
296,230,47194,1,0,0:0:0:0:
305,237,47286,1,0,0:0:0:0:
467,190,47560,5,0,0:0:0:0:
389,114,47743,2,0,B|356:83|311:84,1,75
197,73,48109,1,0,0:0:0:0:
95,125,48292,1,0,0:0:0:0:
96,247,48475,6,0,P|126:276|168:288,1,75
292,300,48840,2,0,P|333:284|354:254,1,75
437,171,49206,5,0,0:0:0:0:
375,71,49389,1,0,0:0:0:0:
256,64,49572,1,0,0:0:0:0:
96,64,49755,5,0,0:0:0:0:
256,320,50029,1,0,0:0:0:0:
416,64,50304,1,0,0:0:0:0:
256,64,50487,5,0,0:0:0:0:
259,163,50670,2,0,P|257:215|233:234,1,75
126,276,51036,2,0,P|77:279|42:259,1,75
48,145,51401,5,0,0:0:0:0:
135,67,51584,1,0,0:0:0:0:
175,172,51767,1,0,0:0:0:0:
96,256,51950,6,0,P|128:288|192:256,2,112.5
96,160,52682,5,0,0:0:0:0:
288,64,52956,1,0,0:0:0:0:
384,256,53231,1,0,0:0:0:0:
256,192,53414,1,0,0:0:0:0:
343,293,53597,5,0,0:0:0:0:
468,252,53779,1,0,0:0:0:0:
469,127,53962,2,0,P|457:85|419:69,1,75
309,43,54328,2,0,P|260:41|215:54,1,75
126,113,54694,5,0,0:0:0:0:
113,252,54877,1,0,0:0:0:0:
270,226,55060,1,0,0:0:0:0:
220,107,55243,1,0,0:0:0:0:
85,96,55426,5,0,0:0:0:0:
81,107,55517,1,0,0:0:0:0:
77,118,55609,2,0,B|64:160|64:192|96:224,1,112.5
224,256,56158,2,0,P|320:224|320:224,1,75
422,197,56523,5,0,0:0:0:0:
449,76,56706,1,0,0:0:0:0:
309,56,56889,1,0,0:0:0:0:
134,62,57072,2,0,P|94:79|42:92,2,75
223,48,57621,1,0,0:0:0:0:
314,93,57804,5,0,0:0:0:0:
160,128,58078,1,0,0:0:0:0:
261,231,58353,1,0,0:0:0:0:
256,96,58536,1,0,0:0:0:0:
138,170,58810,1,0,0:0:0:0:
264,231,59084,1,0,0:0:0:0:
402,244,59267,6,0,L|344:324,4,75
352,128,60182,5,0,0:0:0:0:
256,96,60365,1,0,0:0:0:0:
160,128,60548,1,0,0:0:0:0:
147,259,60731,5,0,0:0:0:0:
153,272,60822,1,0,0:0:0:0:
255,241,61005,5,0,0:0:0:0:
256,256,61097,1,0,0:0:0:0:
352,256,61279,5,0,0:0:0:0:
345,268,61371,1,0,0:0:0:0:
160,160,61554,6,0,L|128:96,1,37.5
352,160,61828,2,0,L|373:91,3,37.5
364,95,62194,6,0,B|288:32|224:32|138:107,1,225
153,224,62926,2,0,B|217:288|281:288|377:224,1,225
256,192,63658,12,0,65121,0:0:0:0:
256,128,65304,5,0,0:0:0:0:
160,192,65487,1,0,0:0:0:0:
256,128,65670,1,0,0:0:0:0:
403,170,65853,2,0,P|424:223|360:255,2,112.5
352,96,66584,5,0,0:0:0:0:
192,192,66767,1,0,0:0:0:0:
288,192,66950,1,0,0:0:0:0:
192,192,67133,1,0,0:0:0:0:
96,224,67316,2,0,L|32:192,5,37.5
121,238,67865,2,0,L|185:270,1,37.5
256,192,68048,5,0,0:0:0:0:
320,96,68231,1,0,0:0:0:0:
192,96,68414,1,0,0:0:0:0:
320,96,68597,1,0,0:0:0:0:
305,254,68779,2,0,B|256:318|198:248,2,112.5
407,179,69603,5,0,0:0:0:0:
407,179,69694,1,0,0:0:0:0:
407,179,69786,2,0,L|354:145,1,37.5
288,128,70243,5,0,0:0:0:0:
288,256,70517,1,0,0:0:0:0:
128,224,70792,1,0,0:0:0:0:
288,128,70975,1,0,0:0:0:0:
64,128,76828,6,0,B|32:192|64:224|64:224,1,75
128,288,77194,1,0,0:0:0:0:
224,224,77377,1,0,0:0:0:0:
307,133,77560,5,0,0:0:0:0:
302,127,77651,1,0,0:0:0:0:
298,121,77743,1,0,0:0:0:0:
408,201,77926,1,0,0:0:0:0:
288,288,78109,6,0,P|224:320|160:256,1,150
128,192,78658,1,0,0:0:0:0:
224,160,78840,1,0,0:0:0:0:
320,192,79023,5,0,0:0:0:0:
320,192,79115,1,0,0:0:0:0:
320,192,79206,1,0,0:0:0:0:
454,253,79389,1,0,0:0:0:0:
416,128,79572,6,0,B|384:96|352:64|256:64,1,150
192,96,80121,1,0,0:0:0:0:
128,160,80304,1,0,0:0:0:0:
201,245,80487,5,0,0:0:0:0:
201,245,80578,1,0,0:0:0:0:
201,245,80670,1,0,0:0:0:0:
201,245,80761,1,0,0:0:0:0:
201,245,80853,1,0,0:0:0:0:
256,192,81036,12,0,82499,0:0:0:0:
416,256,82682,6,0,P|450:216|433:186,1,75
384,128,83048,1,0,0:0:0:0:
288,192,83231,1,0,0:0:0:0:
192,288,83414,5,0,0:0:0:0:
192,288,83505,1,0,0:0:0:0:
192,288,83597,1,0,0:0:0:0:
256,192,83779,1,0,0:0:0:0:
118,96,83962,5,0,0:0:0:0:
240,47,84145,1,0,0:0:0:0:
340,128,84328,1,0,0:0:0:0:
416,192,84511,2,0,P|384:224|352:224,1,75
256,256,84877,5,0,0:0:0:0:
256,256,84968,1,0,0:0:0:0:
256,256,85060,1,0,0:0:0:0:
256,128,85243,1,0,0:0:0:0:
480,192,85426,5,0,0:0:0:0:
384,64,85609,1,0,0:0:0:0:
224,96,85792,2,0,P|192:128|160:160,1,75
64,224,86158,1,0,0:0:0:0:
256,256,86340,5,0,0:0:0:0:
256,256,86432,1,0,0:0:0:0:
256,256,86523,1,0,0:0:0:0:
256,256,86615,1,0,0:0:0:0:
256,256,86706,2,0,P|320:256|352:192,2,112.5
256,192,87438,5,0,0:0:0:0:
96,288,87621,1,0,0:0:0:0:
256,192,87804,1,0,0:0:0:0:
416,288,87987,1,0,0:0:0:0:
256,192,88170,1,0,0:0:0:0:
256,64,88353,1,0,0:0:0:0:
256,192,88536,2,0,L|256:256,4,37.5
256,352,89084,6,0,B|161:367|96:320|96:224,1,225
256,192,89816,1,0,0:0:0:0:
97,110,89999,1,0,0:0:0:0:
365,51,90182,1,0,0:0:0:0:
256,192,90365,1,0,0:0:0:0:
416,160,90548,2,0,P|384:224|320:256,1,112.5
223,265,91097,1,0,0:0:0:0:
160,192,91462,5,0,0:0:0:0:
160,192,91554,1,0,0:0:0:0:
160,192,91645,1,0,0:0:0:0:
160,192,91737,1,0,0:0:0:0:
160,192,91828,2,0,B|224:160|288:128|288:128|288:128|384:256,1,300
288,320,92743,5,0,0:0:0:0:
121,335,92926,1,0,0:0:0:0:
160,192,93109,1,0,0:0:0:0:
0,224,93292,1,0,0:0:0:0:
64,128,93475,2,0,B|96:64|160:64|192:96,1,150
302,171,94023,1,0,0:0:0:0:
128,128,94389,5,0,0:0:0:0:
32,256,94572,1,0,0:0:0:0:
128,128,94755,1,0,0:0:0:0:
32,256,94938,2,0,B|64:288|96:320|128:320|192:320|256:288,1,225
384,192,95670,5,0,0:0:0:0:
224,128,95853,1,0,0:0:0:0:
384,192,96036,1,0,0:0:0:0:
224,128,96218,1,0,0:0:0:0:
75,135,96401,2,0,B|-19:211|-19:211|-20:204|99:283,1,225
277,262,97316,5,0,0:0:0:0:
277,262,97408,1,0,0:0:0:0:
277,262,97499,2,0,B|309:294|405:294|437:230|424:231|386:130|303:135,1,300
192,160,98414,5,0,0:0:0:0:
97,300,98597,1,0,0:0:0:0:
192,160,98779,1,0,0:0:0:0:
97,300,98962,1,0,0:0:0:0:
192,160,99145,2,0,P|223:132|265:142,2,75
128,224,99694,5,0,0:0:0:0:
54,315,99877,1,0,0:0:0:0:
128,224,100060,1,0,0:0:0:0:
192,288,100243,6,0,L|288:288,1,75
352,224,100609,2,0,L|353:142,1,75
288,64,100975,2,0,L|192:64,1,75
122,146,101340,2,0,L|122:242,1,75
256,192,101706,5,0,0:0:0:0:
448,96,101981,1,0,0:0:0:0:
256,192,102255,1,0,0:0:0:0:
352,288,102438,1,0,0:0:0:0:
224,288,102621,2,0,L|128:288,1,75
64,192,102987,5,0,0:0:0:0:
64,192,103078,1,0,0:0:0:0:
64,192,103170,2,0,B|64:128|64:128|128:96,1,112.5
188,164,103627,5,0,0:0:0:0:
188,164,103718,1,0,0:0:0:0:
256,96,103901,6,0,B|320:96|320:96|352:160,1,112.5
256,192,104450,1,0,0:0:0:0:
160,256,104633,1,0,0:0:0:0:
395,295,104908,1,0,0:0:0:0:
256,192,105182,1,0,0:0:0:0:
160,256,105365,5,0,0:0:0:0:
64,192,105548,1,0,0:0:0:0:
207,63,105731,1,0,0:0:0:0:
64,192,105914,1,0,0:0:0:0:
192,192,106097,6,0,P|224:256|256:288,1,112.5
384,288,106645,1,0,0:0:0:0:
418,210,106828,1,0,0:0:0:0:
352,128,107103,2,0,B|320:64|320:64|256:96|256:96,1,112.5
151,171,107560,5,0,0:0:0:0:
333,267,107743,1,0,0:0:0:0:
151,171,107926,1,0,0:0:0:0:
333,267,108109,1,0,0:0:0:0:
333,267,108292,1,0,0:0:0:0:
96,288,108840,5,0,0:0:0:0:
96,288,108932,1,0,0:0:0:0:
96,288,109023,2,0,P|64:256|64:192,1,112.5
160,64,109572,1,0,0:0:0:0:
242,99,109755,2,0,B|274:131|274:163|242:227,1,112.5
192,320,110304,1,0,0:0:0:0:
288,320,110487,2,0,P|352:320|384:288,1,112.5
352,160,111036,1,0,0:0:0:0:
256,128,111218,5,0,0:0:0:0:
256,128,111310,1,0,0:0:0:0:
256,128,111401,1,0,0:0:0:0:
256,128,111493,1,0,0:0:0:0:
256,128,111584,1,0,0:0:0:0:
256,128,111676,1,0,0:0:0:0:
256,128,111767,1,0,0:0:0:0:
256,128,111859,1,0,0:0:0:0:
256,128,111950,1,0,0:0:0:0:
264,156,112042,1,0,0:0:0:0:
270,192,112133,1,0,0:0:0:0:
264,231,112225,1,0,0:0:0:0:
239,255,112316,1,0,0:0:0:0:
204,278,112408,1,0,0:0:0:0:
150,276,112499,1,0,0:0:0:0:
110,242,112590,1,0,0:0:0:0:
90,191,112682,1,0,0:0:0:0:
108,140,112773,1,0,0:0:0:0:
154,100,112865,1,0,0:0:0:0:
208,89,112956,2,0,L|252:90,4,37.5
256,192,113414,12,0,114877,0:0:0:0:
337,106,115151,5,0,0:0:0:0:
498,201,115426,1,0,0:0:0:0:
429,280,115609,2,0,P|366:295|310:279,1,112.5
186,182,116158,1,0,0:0:0:0:
234,96,116340,2,0,L|351:72,1,112.5
459,169,116889,1,0,0:0:0:0:
367,251,117072,2,0,L|283:275,1,75
151,285,117438,2,0,L|87:221,1,75
52,137,117804,2,0,L|125:86,1,75
252,107,118170,5,0,0:0:0:0:
324,218,118353,1,0,0:0:0:0:
183,209,118536,1,0,0:0:0:0:
252,107,118718,1,0,0:0:0:0:
332,215,118901,1,0,0:0:0:0:
234,312,119084,6,0,P|180:316|147:297,1,75
83,216,119450,1,0,0:0:0:0:
76,108,119633,2,0,P|107:62|155:67,1,75
233,96,119999,2,0,L|279:111,3,37.5
233,96,120365,2,0,L|209:127,3,37.5
210,125,120731,6,0,P|263:166|317:174,1,112.5
400,244,121279,1,0,0:0:0:0:
333,285,121462,2,0,B|261:276|198:319,1,112.5
98,253,122011,1,0,0:0:0:0:
160,160,122194,1,0,0:0:0:0:
352,64,122468,1,0,0:0:0:0:
476,258,122743,5,0,0:0:0:0:
356,322,122926,2,0,B|276:352|207:322|201:302,1,150
97,265,123475,2,0,P|53:230|45:194,1,75
25,112,123840,2,0,P|42:70|84:71,1,75
183,79,124206,5,0,0:0:0:0:
291,150,124389,1,0,0:0:0:0:
390,71,124572,1,0,0:0:0:0:
504,126,124755,2,0,P|546:153|550:192,1,75
500,282,125121,2,0,P|463:332|423:336,1,75
292,324,125487,2,0,L|238:319,5,37.5
292,324,126036,2,0,L|303:255,4,37.5
326,157,126584,6,0,L|344:69,1,75
228,33,126950,2,0,L|128:32,1,75
64,64,127316,2,0,L|64:160,1,75
76,293,127682,1,0,0:0:0:0:
223,210,127865,1,0,0:0:0:0:
347,304,128048,1,0,0:0:0:0:
483,241,128231,1,0,0:0:0:0:
483,241,128322,1,0,0:0:0:0:
483,241,128414,1,0,0:0:0:0:
426,106,128597,5,0,0:0:0:0:
306,71,128779,2,0,P|251:53|207:51,1,75
103,117,129145,2,0,P|62:168|66:200,1,75
125,293,129511,5,0,0:0:0:0:
286,267,129694,1,0,0:0:0:0:
417,191,129877,1,0,0:0:0:0:
417,191,129968,1,0,0:0:0:0:
417,191,130060,1,0,0:0:0:0:
361,96,130243,6,0,P|311:68|275:64,1,75
164,84,130609,2,0,P|112:95|82:121,1,75
126,267,130975,1,0,0:0:0:0:
377,264,131158,1,0,0:0:0:0:
256,318,131340,1,0,0:0:0:0:
249,194,131523,2,0,L|251:152,5,37.5
249,194,132072,2,0,L|197:195,4,37.5
84,213,132621,5,0,0:0:0:0:
59,86,132804,1,0,0:0:0:0:
201,60,132987,2,0,L|298:59,1,75
404,78,133353,2,0,L|405:163,1,75
398,269,133718,5,0,0:0:0:0:
398,269,133810,1,0,0:0:0:0:
398,269,133901,1,0,0:0:0:0:
268,318,134084,5,0,0:0:0:0:
169,315,134267,1,0,0:0:0:0:
92,231,134450,1,0,0:0:0:0:
57,103,134633,2,0,P|108:74|145:72,1,75
255,59,134999,2,0,P|310:73|347:110,1,75
427,191,135365,5,0,0:0:0:0:
221,234,135548,1,0,0:0:0:0:
221,234,135639,1,0,0:0:0:0:
221,234,135731,1,0,0:0:0:0:
88,317,135914,6,0,P|123:347|168:348,1,75
293,347,136279,2,0,P|354:338|380:305,1,75
468,255,136645,2,0,P|504:207|493:171,1,75
429,92,137011,1,0,0:0:0:0:
279,54,137194,1,0,0:0:0:0:
139,123,137377,1,0,0:0:0:0:
45,242,137560,6,0,P|80:275|133:292,1,75
251,299,137926,2,0,P|310:298|342:277,1,75
450,195,138292,1,0,0:0:0:0:
256,192,138383,12,0,139847,0:0:0:0:
160,192,140029,5,0,0:0:0:0:
160,192,140121,1,0,0:0:0:0:
352,192,140304,1,0,0:0:0:0:
352,192,140395,1,0,0:0:0:0:
160,288,140578,6,0,L|128:320,1,37.5
352,288,140853,2,0,L|384:320,2,37.5
256,192,141218,2,0,L|256:256,6,37.5
256,192,141828,2,0,L|256:160,11,25
128,192,142682,5,0,0:0:0:0:
384,192,142865,1,0,0:0:0:0:
128,192,143048,1,0,0:0:0:0:
384,192,143231,1,0,0:0:0:0:
256,192,143414,6,0,L|256:320,2,112.5
256,192,144145,5,0,0:0:0:0:
128,192,144328,1,0,0:0:0:0:
384,192,144511,1,0,0:0:0:0:
256,192,144694,1,0,0:0:0:0:
256,192,144877,2,0,L|256:128,3,37.5
256,192,145243,2,0,L|192:192,3,37.5
71,193,145609,5,0,0:0:0:0:
257,77,145792,1,0,0:0:0:0:
455,202,145975,1,0,0:0:0:0:
257,76,146158,1,0,0:0:0:0:
145,172,146340,2,0,P|104:230|114:301,1,112.5
227,313,146889,1,0,0:0:0:0:
375,250,147072,5,0,0:0:0:0:
375,250,147164,1,0,0:0:0:0:
375,250,147255,2,0,B|398:204|388:159|385:151,1,75
252,176,147621,5,0,0:0:0:0:
109,66,147804,1,0,0:0:0:0:
385,68,147987,1,0,0:0:0:0:
252,176,148170,1,0,0:0:0:0:
254,305,148353,1,0,0:0:0:0:
256,192,148536,1,0,0:0:0:0:
468,126,154389,6,0,P|426:92|382:75,1,75
259,66,154755,2,0,P|200:71|154:84,1,75
90,181,155121,1,0,0:0:0:0:
90,181,155212,1,0,0:0:0:0:
90,181,155304,1,0,0:0:0:0:
189,287,155487,5,0,0:0:0:0:
338,250,155670,1,0,0:0:0:0:
346,258,155761,1,0,0:0:0:0:
346,258,155853,1,0,0:0:0:0:
466,307,156036,6,0,P|518:281|510:245,1,75
497,150,156401,2,0,P|455:97|421:95,1,75
451,95,156676,1,0,0:0:0:0:
451,95,156767,1,0,0:0:0:0:
340,72,156950,5,0,0:0:0:0:
238,85,157133,1,0,0:0:0:0:
126,159,157316,6,0,B|79:206|99:245,1,75
110,315,157682,2,0,P|170:344|204:340,1,75
347,316,158048,1,0,0:0:0:0:
302,207,158231,5,0,0:0:0:0:
302,207,158322,1,0,0:0:0:0:
302,207,158414,1,0,0:0:0:0:
302,207,158505,1,0,0:0:0:0:
302,207,158597,1,0,0:0:0:0:
256,192,158779,12,0,160243,0:0:0:0:
202,238,160426,6,0,B|163:271|113:278,1,75
15,295,160792,1,0,0:0:0:0:
37,173,160975,1,0,0:0:0:0:
37,173,161066,1,0,0:0:0:0:
37,173,161158,1,0,0:0:0:0:
124,92,161340,1,0,0:0:0:0:
258,69,161523,6,0,B|318:67|360:82|400:120,1,150
450,223,162072,5,0,0:0:0:0:
450,223,162164,1,0,0:0:0:0:
450,223,162255,1,0,0:0:0:0:
368,294,162438,5,0,0:0:0:0:
368,294,162529,1,0,0:0:0:0:
368,294,162621,1,0,0:0:0:0:
236,322,162804,6,0,P|172:331|147:319,1,75
53,267,163170,1,0,0:0:0:0:
41,161,163353,1,0,0:0:0:0:
115,73,163536,2,0,P|164:36|195:43,1,75
293,38,163901,2,0,P|336:43|365:85,1,75
300,151,164267,5,0,0:0:0:0:
155,184,164450,1,0,0:0:0:0:
251,277,164633,1,0,0:0:0:0:
379,260,164816,6,0,B|423:211|424:162|392:115,1,150
315,70,165365,1,0,0:0:0:0:
214,50,165548,2,0,B|161:44|105:54|56:112,1,150
37,241,166097,5,0,0:0:0:0:
190,143,166279,1,0,0:0:0:0:
194,329,166462,1,0,0:0:0:0:
259,172,166645,1,0,0:0:0:0:
357,339,166828,1,0,0:0:0:0:
334,183,167011,1,0,0:0:0:0:
447,170,167194,6,0,B|452:117|425:74|368:52,1,150
246,44,167743,5,0,0:0:0:0:
246,44,167834,1,0,0:0:0:0:
246,44,167926,1,0,0:0:0:0:
132,72,168109,6,0,B|83:100|69:125|52:156|58:198,1,150
109,285,168658,1,0,0:0:0:0:
268,285,168840,5,0,0:0:0:0:
404,235,169023,2,0,B|434:192|388:138,1,75
308,100,169389,1,0,0:0:0:0:
308,100,169481,1,0,0:0:0:0:
308,100,169572,1,0,0:0:0:0:
178,81,169755,6,0,P|136:78|94:96,1,75
51,195,170121,2,0,B|35:266|64:303|117:321,1,150
239,331,170670,1,0,0:0:0:0:
254,212,170853,6,0,L|259:172,2,37.5
273,52,171218,1,0,0:0:0:0:
273,52,171401,1,0,0:0:0:0:
262,171,171584,2,0,L|254:228,2,37.5
247,316,171950,5,0,0:0:0:0:
92,320,172133,1,0,0:0:0:0:
247,316,172316,1,0,0:0:0:0:
420,316,172499,2,0,B|451:255|475:219|432:152|401:107,1,225
286,72,173231,5,0,0:0:0:0:
286,72,173322,1,0,0:0:0:0:
286,72,173414,1,0,0:0:0:0:
175,85,173597,1,0,0:0:0:0:
114,161,173779,1,0,0:0:0:0:
101,255,173962,6,0,B|63:313|88:336|159:334|195:292,1,150
172,310,174420,1,0,0:0:0:0:
172,310,174511,1,0,0:0:0:0:
296,304,174694,1,0,0:0:0:0:
383,221,174877,2,0,B|416:178|418:143|400:109|359:90,1,150
263,52,175426,2,0,P|218:39|180:40,1,75
91,85,175792,2,0,P|55:118|54:149,1,75
87,246,176158,5,0,0:0:0:0:
213,181,176340,1,0,0:0:0:0:
211,310,176523,1,0,0:0:0:0:
215,179,176706,1,0,0:0:0:0:
86,245,176889,1,0,0:0:0:0:
86,245,176981,1,0,0:0:0:0:
86,245,177072,2,0,L|83:194,8,37.5
77,102,177987,5,0,0:0:0:0:
197,64,178170,1,0,0:0:0:0:
315,88,178353,2,0,L|394:104,1,75
444,202,178718,2,0,L|418:296,1,75
324,328,179084,2,0,L|243:301,1,75
106,257,179542,5,0,0:0:0:0:
90,61,179816,1,0,0:0:0:0:
175,48,179999,1,0,0:0:0:0:
268,54,180182,2,0,P|319:66|341:71,1,75
421,91,180548,5,0,0:0:0:0:
421,91,180639,1,0,0:0:0:0:
421,91,180731,2,0,P|473:131|485:164,1,75
439,239,181097,1,0,0:0:0:0:
372,324,181279,2,0,P|308:339|275:338,1,75
180,332,181645,1,0,0:0:0:0:
79,294,181828,2,0,P|42:259|38:218,1,75
50,92,182194,5,0,0:0:0:0:
187,197,182468,1,0,0:0:0:0:
384,64,182743,1,0,0:0:0:0:
256,64,182926,1,0,0:0:0:0:
259,191,183109,2,0,P|248:232|227:258,1,75
110,238,183475,5,0,0:0:0:0:
258,187,183658,1,0,0:0:0:0:
374,149,183840,2,0,P|412:183|413:212,1,75
476,203,184206,2,0,P|496:153|535:137,1,75
428,69,184572,5,0,0:0:0:0:
428,242,184755,1,0,0:0:0:0:
427,72,184938,1,0,0:0:0:0:
429,244,185121,1,0,0:0:0:0:
307,330,185304,6,0,P|252:342|218:339,1,75
97,265,185670,1,0,0:0:0:0:
97,265,185761,1,0,0:0:0:0:
97,265,185853,1,0,0:0:0:0:
66,150,186036,6,0,P|71:99|98:75,1,75
188,81,186401,2,0,P|213:114|207:168,1,75
196,266,186767,1,0,0:0:0:0:
196,266,186859,1,0,0:0:0:0:
196,266,186950,1,0,0:0:0:0:
331,270,187133,6,0,P|352:231|353:200,1,75
340,95,187499,1,0,0:0:0:0:
340,95,187590,1,0,0:0:0:0:
340,95,187682,1,0,0:0:0:0:
210,56,187865,6,0,P|162:52|136:77,1,75
101,166,188231,1,0,0:0:0:0:
101,166,188322,1,0,0:0:0:0:
101,166,188414,1,0,0:0:0:0:
164,269,188597,6,0,P|193:299|237:298,4,75
114,174,189511,5,0,0:0:0:0:
110,150,189603,1,0,0:0:0:0:
116,116,189694,1,0,0:0:0:0:
132,87,189786,1,0,0:0:0:0:
157,75,189877,1,0,0:0:0:0:
189,78,189968,2,0,L|241:101,6,37.5
189,78,190609,2,0,L|165:129,6,37.5
256,192,191249,12,0,192438,0:0:0:0:
393,245,192712,5,0,0:0:0:0:
341,74,192987,1,0,0:0:0:0:
243,85,193170,2,0,P|190:104|136:151,1,112.5
108,241,193718,1,0,0:0:0:0:
108,241,193810,1,0,0:0:0:0:
108,241,193901,1,0,0:0:0:0:
214,265,194176,6,0,B|262:262|292:233|313:194,1,112.5
323,117,194633,1,0,0:0:0:0:
430,75,194816,1,0,0:0:0:0:
512,158,194999,1,0,0:0:0:0:
490,275,195182,1,0,0:0:0:0:
361,316,195365,1,0,0:0:0:0:
231,289,195548,5,0,0:0:0:0:
231,289,195639,1,0,0:0:0:0:
231,289,195731,1,0,0:0:0:0:
104,263,195914,6,0,P|72:211|77:180,1,75
63,92,196279,2,0,P|98:59|143:61,1,75
226,58,196645,2,0,P|280:73|291:90,1,75
370,163,197011,1,0,0:0:0:0:
293,268,197194,1,0,0:0:0:0:
176,229,197377,6,0,L|124:202,5,37.5
176,229,197926,2,0,L|200:186,4,37.5
178,96,198475,6,0,P|137:75|91:79,1,75
17,158,198840,2,0,P|6:222|22:253,1,75
96,311,199206,1,0,0:0:0:0:
207,335,199389,1,0,0:0:0:0:
310,292,199572,1,0,0:0:0:0:
367,186,199755,6,0,B|383:142|364:111|317:91,1,112.5
193,76,200304,1,0,0:0:0:0:
193,76,200395,1,0,0:0:0:0:
193,76,200487,2,0,B|128:88|92:112|86:168,1,150
87,273,201036,2,0,P|124:312|166:318,1,75
262,324,201401,1,0,0:0:0:0:
366,288,201584,1,0,0:0:0:0:
433,214,201767,1,0,0:0:0:0:
415,107,201950,6,0,P|366:75|306:75,1,112.5
136,116,202499,2,0,P|85:132|66:172,1,75
80,288,202865,2,0,L|113:313,5,37.5
80,288,203414,2,0,L|91:234,4,37.5
106,130,203962,5,0,0:0:0:0:
106,130,204054,1,0,0:0:0:0:
106,130,204145,2,0,B|155:163|176:169|213:149,1,112.5
285,59,204694,1,0,0:0:0:0:
379,43,204877,2,0,B|432:72|437:98|427:147,1,112.5
334,261,205426,1,0,0:0:0:0:
254,312,205609,6,0,P|202:321|155:304,1,75
92,280,205975,2,0,P|65:251|61:203,1,75
49,117,206340,1,0,0:0:0:0:
176,172,206523,1,0,0:0:0:0:
285,115,206706,1,0,0:0:0:0:
180,173,206889,1,0,0:0:0:0:
82,263,207072,6,0,L|148:320,1,75
268,304,207438,1,0,0:0:0:0:
268,304,207529,1,0,0:0:0:0:
268,304,207621,1,0,0:0:0:0:
400,294,207804,6,0,L|427:210,1,75
425,126,208170,2,0,L|393:46,1,75
259,83,208536,2,0,L|199:132,2,75
304,180,209084,5,0,0:0:0:0:
288,220,209176,1,0,0:0:0:0:
257,247,209267,1,0,0:0:0:0:
215,262,209359,1,0,0:0:0:0:
168,262,209450,1,0,0:0:0:0:
131,250,209542,2,0,L|63:230,5,37.5
45,100,210182,5,0,0:0:0:0:
143,60,210365,1,0,0:0:0:0:
249,103,210548,1,0,0:0:0:0:
304,202,210731,6,0,P|300:240|280:275,1,75
170,327,211097,2,0,P|132:318|90:299,1,75
45,201,211462,1,0,0:0:0:0:
45,201,211554,1,0,0:0:0:0:
45,201,211645,2,0,P|54:132|80:104,1,75
159,82,212011,5,0,0:0:0:0:
159,82,212103,1,0,0:0:0:0:
159,82,212194,1,0,0:0:0:0:
272,72,212377,2,0,P|347:69|370:86,1,75
455,115,212743,2,0,P|496:149|500:179,1,75
389,279,213109,5,0,0:0:0:0:
389,279,213200,1,0,0:0:0:0:
389,279,213292,2,0,P|324:291|283:288,1,75
132,283,213658,5,0,0:0:0:0:
59,132,213840,1,0,0:0:0:0:
220,129,214023,1,0,0:0:0:0:
130,278,214206,1,0,0:0:0:0:
122,162,214389,6,0,P|147:101|175:93,1,75
271,82,214755,6,0,L|310:103,4,37.5
390,193,215487,1,0,0:0:0:0:
256,192,215853,1,0,0:0:0:0:
256,192,215944,12,0,216950,0:0:0:0:
352,256,217316,5,0,0:0:0:0:
384,288,217408,1,0,0:0:0:0:
256,256,217590,5,0,0:0:0:0:
256,288,217682,1,0,0:0:0:0:
160,256,217865,5,0,0:0:0:0:
128,288,217956,1,0,0:0:0:0:
256,128,218139,6,0,L|320:128,1,37.5
256,128,218414,2,0,L|192:128,2,37.5
128,64,218779,2,0,L|127:192,1,112.5
128,288,219237,1,0,0:0:0:0:
128,288,219328,1,0,0:0:0:0:
256,288,219511,2,0,L|256:160,1,112.5
256,96,219968,1,0,0:0:0:0:
256,96,220060,1,0,0:0:0:0:
252,278,220243,5,0,0:0:0:0:
256,96,220426,1,0,0:0:0:0:
251,276,220609,1,0,0:0:0:0:
141,143,220792,1,0,0:0:0:0:
141,143,220883,1,0,0:0:0:0:
141,143,220975,2,0,P|114:191|133:246,2,112.5
386,240,221706,5,0,0:0:0:0:
386,240,221798,1,0,0:0:0:0:
386,240,221889,1,0,0:0:0:0:
437,135,222072,1,0,0:0:0:0:
333,73,222255,1,0,0:0:0:0:
220,101,222438,1,0,0:0:0:0:
220,101,222529,1,0,0:0:0:0:
220,101,222621,2,0,B|187:147|173:184|165:177,3,75
294,178,223353,5,0,0:0:0:0:
179,164,223536,1,0,0:0:0:0:
294,178,223718,1,0,0:0:0:0:
364,274,223901,2,0,P|318:320|256:331,2,112.5
273,331,224633,5,0,0:0:0:0:
273,331,224725,1,0,0:0:0:0:
273,331,224816,1,0,0:0:0:0:
167,267,224999,1,0,0:0:0:0:
103,167,225182,2,0,P|103:109|116:91,1,75
217,64,225548,5,0,0:0:0:0:
217,64,225639,1,0,0:0:0:0:
345,82,225822,1,0,0:0:0:0:
345,82,225914,1,0,0:0:0:0:
256,192,226097,1,0,0:0:0:0:
257,304,226279,6,0,L|353:306,2,75
115,261,226828,1,0,0:0:0:0:
69,170,227103,1,0,0:0:0:0:
123,97,227377,1,0,0:0:0:0:
251,97,227560,6,0,L|301:114,2,37.5
224,217,227926,1,0,0:0:0:0:
342,268,228109,1,0,0:0:0:0:
422,174,228292,2,0,L|435:132,1,37.5
331,110,228566,2,0,L|315:153,1,37.5
223,118,228840,2,0,L|242:63,1,37.5
94,107,229023,5,0,0:0:0:0:
51,213,229206,1,0,0:0:0:0:
158,266,229389,1,0,0:0:0:0:
297,274,229572,1,0,0:0:0:0:
297,274,229664,1,0,0:0:0:0:
297,274,229755,2,0,P|354:238|365:190,1,112.5
345,97,230304,1,0,0:0:0:0:
218,104,230487,5,0,0:0:0:0:
218,104,230578,1,0,0:0:0:0:
218,104,230670,2,0,P|158:135|149:169,1,75
111,237,231036,1,0,0:0:0:0:
226,265,231218,5,0,0:0:0:0:
354,246,231401,1,0,0:0:0:0:
354,246,231493,1,0,0:0:0:0:
413,140,231676,1,0,0:0:0:0:
413,140,231767,1,0,0:0:0:0:
256,192,231950,1,0,0:0:0:0:
