osu file format v14

[General]
AudioFilename: mymidi1345.mp3
AudioLeadIn: 0
PreviewTime: 275692
Countdown: 0
SampleSet: None
StackLeniency: 0.7
Mode: 3
LetterboxInBreaks: 0
SpecialStyle: 0
WidescreenStoryboard: 0

[Editor]
DistanceSpacing: 0.8
BeatDivisor: 4
GridSize: 32
TimelineZoom: 1

[Metadata]
Title:over the wall of "Z"
TitleUnicode:over the wall of "Z"
Artist:(^^) ALL STARS ft. Akuma
ArtistUnicode:(^^) ALL STARS ft. Akuma
Creator:_underjoy
Version:Stepmania Etterna
Source:DDR foonmix
Tags:(^^) judge 4 life 4 mymidi1345 lastboss
BeatmapID:2029415
BeatmapSetID:970089

[Difficulty]
HPDrainRate:4
CircleSize:4
OverallDifficulty:4
ApproachRate:5
SliderMultiplier:1.4
SliderTickRate:1

[Events]
//Background and Video events
0,0,"lastboss-bg.png",0,0
//Break Periods
2,83542,88923
2,210865,225117
//Storyboard Layer 0 (Background)
//Storyboard Layer 1 (Fail)
//Storyboard Layer 2 (Pass)
//Storyboard Layer 3 (Foreground)
//Storyboard Sound Samples

[TimingPoints]
4640,521.73913,4,2,0,20,1,0
4640,-250,4,2,0,20,0,0
48466,840.571589,4,2,0,20,1,0
48466,-250,4,2,0,20,0,0
51828,431.654676,4,2,0,20,1,0
52908,293.800803,4,2,0,20,1,0
53330,600000000.571429,4,2,0,20,1,0
55168,521.73913,4,2,0,20,1,0
55168,-250,4,2,0,20,0,0
83505,17647.058824,4,2,0,20,1,0
83605,-250,4,2,0,20,0,0
92329,521.73913,4,2,0,20,1,0
92981,-250,4,2,0,20,0,0
115383,639.795266,4,2,0,20,1,0
115703,1509.81379,4,2,0,20,1,0
116080,14563.106796,4,2,0,20,1,0
116991,200,4,2,0,20,1,0
117728,1163.241566,4,2,0,20,1,0
118310,4310.344828,4,2,0,20,1,0
118310,-250,4,2,0,20,0,0
131241,521.73913,4,2,0,20,1,0
152893,-76.9230769230769,4,2,0,20,0,0
158110,-100,4,2,0,20,0,0
168545,-76.9230769230769,4,2,0,20,0,0
173893,-68.9655172413793,4,2,0,20,0,0
175719,-62.5,4,2,0,20,0,0
178197,-57.1428571428571,4,2,0,20,0,0
181327,-52.6315789473684,4,2,0,20,0,0
184328,600000000.571429,4,2,0,20,1,0
184719,521.73913,4,2,0,20,1,0
184849,521.73913,4,2,0,20,1,0
210675,600000000.571429,4,2,0,20,1,0
226327,521.73913,4,2,0,20,1,0
226587,521.73913,4,2,0,20,1,0
229456,-250,4,2,0,20,0,0
248491,198.268455,4,2,0,20,1,0
248590,2521.114333,4,2,0,20,1,0
264978,2521.114333,4,2,0,20,1,0
282961,562.851782,4,2,0,20,1,0

[HitObjects]
320,192,4640,5,0,0:0:0:0:
64,192,5162,1,0,0:0:0:0:
192,192,5683,1,0,0:0:0:0:
448,192,6205,1,0,0:0:0:0:
64,192,6727,1,0,0:0:0:0:
192,192,6727,1,0,0:0:0:0:
320,192,7249,1,0,0:0:0:0:
320,192,7770,128,0,8292:0:0:0:0:
448,192,8814,1,0,0:0:0:0:
192,192,9336,1,0,0:0:0:0:
320,192,9857,1,0,0:0:0:0:
64,192,10379,1,0,0:0:0:0:
192,192,10901,1,0,0:0:0:0:
448,192,10933,1,0,0:0:0:0:
320,192,11683,1,0,0:0:0:0:
64,192,12205,1,0,0:0:0:0:
448,192,12727,1,0,0:0:0:0:
192,192,12988,1,0,0:0:0:0:
64,192,13510,1,0,0:0:0:0:
192,192,14031,1,0,0:0:0:0:
192,192,14553,1,0,0:0:0:0:
448,192,14814,1,0,0:0:0:0:
192,192,15075,1,0,0:0:0:0:
448,192,15336,1,0,0:0:0:0:
192,192,15597,1,0,0:0:0:0:
320,192,17260,1,0,0:0:0:0:
64,192,17749,1,0,0:0:0:0:
192,192,18531,1,0,0:0:0:0:
448,192,18825,1,0,0:0:0:0:
320,192,19379,1,0,0:0:0:0:
448,192,19966,1,0,0:0:0:0:
64,192,20162,1,0,0:0:0:0:
192,192,20781,1,0,0:0:0:0:
320,192,21205,1,0,0:0:0:0:
64,192,21401,1,0,0:0:0:0:
192,192,21499,1,0,0:0:0:0:
448,192,22053,1,0,0:0:0:0:
192,192,22444,1,0,0:0:0:0:
64,192,23129,1,0,0:0:0:0:
448,192,23129,1,0,0:0:0:0:
192,192,23618,1,0,0:0:0:0:
64,192,24107,1,0,0:0:0:0:
320,192,24107,1,0,0:0:0:0:
64,192,24955,1,0,0:0:0:0:
192,192,25020,1,0,0:0:0:0:
448,192,25640,1,0,0:0:0:0:
192,192,25770,1,0,0:0:0:0:
320,192,26227,1,0,0:0:0:0:
64,192,26879,1,0,0:0:0:0:
192,192,27336,1,0,0:0:0:0:
192,192,27857,1,0,0:0:0:0:
192,192,28249,1,0,0:0:0:0:
192,192,28738,1,0,0:0:0:0:
192,192,29031,1,0,0:0:0:0:
192,192,29260,1,0,0:0:0:0:
320,192,29912,1,0,0:0:0:0:
64,192,30303,1,0,0:0:0:0:
448,192,30629,1,0,0:0:0:0:
192,192,30923,1,0,0:0:0:0:
320,192,31216,1,0,0:0:0:0:
64,192,31444,1,0,0:0:0:0:
192,192,31673,1,0,0:0:0:0:
448,192,31868,1,0,0:0:0:0:
192,192,32031,1,0,0:0:0:0:
192,192,32781,1,0,0:0:0:0:
64,192,33336,1,0,0:0:0:0:
320,192,33857,1,0,0:0:0:0:
64,192,34901,1,0,0:0:0:0:
448,192,35423,1,0,0:0:0:0:
192,192,35847,1,0,0:0:0:0:
64,192,36075,1,0,0:0:0:0:
192,192,36988,128,0,37314:0:0:0:0:
320,192,37379,1,0,0:0:0:0:
192,192,37477,1,0,0:0:0:0:
64,192,37640,1,0,0:0:0:0:
320,192,37803,1,0,0:0:0:0:
192,192,37999,1,0,0:0:0:0:
448,192,38227,1,0,0:0:0:0:
192,192,38455,1,0,0:0:0:0:
64,192,38618,1,0,0:0:0:0:
320,192,38749,1,0,0:0:0:0:
192,192,38912,1,0,0:0:0:0:
64,192,39075,1,0,0:0:0:0:
448,192,39270,1,0,0:0:0:0:
192,192,39433,1,0,0:0:0:0:
64,192,39629,1,0,0:0:0:0:
320,192,39792,1,0,0:0:0:0:
192,192,40314,1,0,0:0:0:0:
448,192,40999,1,0,0:0:0:0:
64,192,41488,1,0,0:0:0:0:
64,192,41814,1,0,0:0:0:0:
448,192,41814,1,0,0:0:0:0:
192,192,42270,1,0,0:0:0:0:
64,192,42694,1,0,0:0:0:0:
448,192,42694,1,0,0:0:0:0:
192,192,43086,1,0,0:0:0:0:
64,192,43347,1,0,0:0:0:0:
320,192,43347,1,0,0:0:0:0:
192,192,43673,1,0,0:0:0:0:
448,192,44129,1,0,0:0:0:0:
192,192,44814,1,0,0:0:0:0:
448,192,44814,1,0,0:0:0:0:
64,192,45662,1,0,0:0:0:0:
192,192,46183,1,0,0:0:0:0:
64,192,46444,1,0,0:0:0:0:
320,192,46705,1,0,0:0:0:0:
64,192,46966,1,0,0:0:0:0:
192,192,47162,1,0,0:0:0:0:
64,192,47423,1,0,0:0:0:0:
320,192,47618,1,0,0:0:0:0:
64,192,47879,1,0,0:0:0:0:
64,192,48624,1,0,0:0:0:0:
192,192,49097,1,0,0:0:0:0:
448,192,49569,1,0,0:0:0:0:
192,192,49832,1,0,0:0:0:0:
448,192,50042,1,0,0:0:0:0:
192,192,50252,1,0,0:0:0:0:
64,192,50462,1,0,0:0:0:0:
192,192,50725,1,0,0:0:0:0:
448,192,50935,1,0,0:0:0:0:
192,192,51145,1,0,0:0:0:0:
64,192,51408,1,0,0:0:0:0:
192,192,51671,1,0,0:0:0:0:
448,192,51909,1,0,0:0:0:0:
192,192,52044,1,0,0:0:0:0:
64,192,52206,1,0,0:0:0:0:
320,192,55168,1,0,0:0:0:0:
192,192,55723,1,0,0:0:0:0:
448,192,55853,1,0,0:0:0:0:
64,192,55983,1,0,0:0:0:0:
192,192,56505,1,0,0:0:0:0:
64,192,57255,128,0,60386:0:0:0:0:
448,192,57255,128,0,60386:0:0:0:0:
64,192,60940,1,0,0:0:0:0:
448,192,60940,1,0,0:0:0:0:
192,192,61527,1,0,0:0:0:0:
192,192,61820,1,0,0:0:0:0:
192,192,62179,1,0,0:0:0:0:
64,192,62342,1,0,0:0:0:0:
448,192,62701,1,0,0:0:0:0:
192,192,62929,1,0,0:0:0:0:
320,192,63483,1,0,0:0:0:0:
192,192,63875,1,0,0:0:0:0:
448,192,64299,1,0,0:0:0:0:
64,192,64723,1,0,0:0:0:0:
192,192,64723,1,0,0:0:0:0:
320,192,65310,1,0,0:0:0:0:
64,192,65733,1,0,0:0:0:0:
192,192,66190,1,0,0:0:0:0:
448,192,66679,1,0,0:0:0:0:
192,192,67233,1,0,0:0:0:0:
64,192,67755,1,0,0:0:0:0:
192,192,68277,1,0,0:0:0:0:
64,192,68766,1,0,0:0:0:0:
448,192,68766,128,0,69223:0:0:0:0:
192,192,69353,1,0,0:0:0:0:
64,192,69875,1,0,0:0:0:0:
320,192,69875,1,0,0:0:0:0:
320,192,70103,1,0,0:0:0:0:
192,192,70364,1,0,0:0:0:0:
64,192,70918,1,0,0:0:0:0:
448,192,70918,1,0,0:0:0:0:
448,192,71212,1,0,0:0:0:0:
192,192,71473,1,0,0:0:0:0:
192,192,72027,1,0,0:0:0:0:
320,192,72320,1,0,0:0:0:0:
448,192,72614,1,0,0:0:0:0:
192,192,72940,1,0,0:0:0:0:
64,192,73299,1,0,0:0:0:0:
320,192,73592,1,0,0:0:0:0:
448,192,73853,1,0,0:0:0:0:
192,192,74146,1,0,0:0:0:0:
64,192,74440,1,0,0:0:0:0:
320,192,74701,1,0,0:0:0:0:
448,192,74994,1,0,0:0:0:0:
192,192,75255,1,0,0:0:0:0:
192,192,75581,1,0,0:0:0:0:
320,192,75581,1,0,0:0:0:0:
192,192,75875,1,0,0:0:0:0:
320,192,75875,1,0,0:0:0:0:
192,192,76201,1,0,0:0:0:0:
320,192,76201,1,0,0:0:0:0:
192,192,76527,1,0,0:0:0:0:
320,192,76527,1,0,0:0:0:0:
192,192,76918,1,0,0:0:0:0:
320,192,76918,1,0,0:0:0:0:
192,192,77342,1,0,0:0:0:0:
320,192,77342,1,0,0:0:0:0:
192,192,77799,1,0,0:0:0:0:
320,192,77799,1,0,0:0:0:0:
64,192,78125,1,0,0:0:0:0:
448,192,78125,1,0,0:0:0:0:
64,192,78549,1,0,0:0:0:0:
192,192,78810,1,0,0:0:0:0:
448,192,79233,1,0,0:0:0:0:
320,192,79625,1,0,0:0:0:0:
64,192,80440,1,0,0:0:0:0:
448,192,80668,1,0,0:0:0:0:
64,192,80799,1,0,0:0:0:0:
192,192,80962,1,0,0:0:0:0:
64,192,81190,1,0,0:0:0:0:
320,192,81549,1,0,0:0:0:0:
64,192,82005,1,0,0:0:0:0:
192,192,82299,128,0,83342:0:0:0:0:
64,192,90123,5,0,0:0:0:0:
320,192,91226,1,0,0:0:0:0:
448,192,92329,1,0,0:0:0:0:
64,192,92948,1,0,0:0:0:0:
448,192,92948,1,0,0:0:0:0:
64,192,93470,1,0,0:0:0:0:
448,192,93470,1,0,0:0:0:0:
64,192,93731,1,0,0:0:0:0:
448,192,93731,1,0,0:0:0:0:
320,192,94285,1,0,0:0:0:0:
64,192,94774,1,0,0:0:0:0:
192,192,95198,1,0,0:0:0:0:
448,192,95753,1,0,0:0:0:0:
192,192,96013,1,0,0:0:0:0:
64,192,96274,1,0,0:0:0:0:
320,192,96535,1,0,0:0:0:0:
448,192,96829,1,0,0:0:0:0:
192,192,97090,1,0,0:0:0:0:
64,192,97318,1,0,0:0:0:0:
192,192,97579,1,0,0:0:0:0:
64,192,97840,1,0,0:0:0:0:
192,192,97840,1,0,0:0:0:0:
64,192,98524,1,0,0:0:0:0:
192,192,98524,1,0,0:0:0:0:
192,192,99111,1,0,0:0:0:0:
320,192,99111,1,0,0:0:0:0:
192,192,99731,1,0,0:0:0:0:
320,192,99731,1,0,0:0:0:0:
192,192,100448,1,0,0:0:0:0:
448,192,100448,1,0,0:0:0:0:
192,192,101100,1,0,0:0:0:0:
448,192,101100,1,0,0:0:0:0:
64,192,101687,128,0,102372:0:0:0:0:
192,192,102111,128,0,102731:0:0:0:0:
448,192,102600,128,0,103253:0:0:0:0:
320,192,103220,128,0,103709:0:0:0:0:
64,192,103677,128,0,104296:0:0:0:0:
448,192,104003,128,0,104785:0:0:0:0:
192,192,104394,128,0,104981:0:0:0:0:
64,192,104948,128,0,105405:0:0:0:0:
320,192,105372,128,0,105698:0:0:0:0:
192,192,105731,128,0,106253:0:0:0:0:
320,192,106253,128,0,106513:0:0:0:0:
448,192,106513,128,0,106774:0:0:0:0:
192,192,106742,1,0,0:0:0:0:
64,192,106937,1,0,0:0:0:0:
192,192,107100,1,0,0:0:0:0:
448,192,107296,1,0,0:0:0:0:
64,192,107557,128,0,107590:0:0:0:0:
64,192,107818,1,0,0:0:0:0:
192,192,107818,128,0,107850:0:0:0:0:
64,192,108340,1,0,0:0:0:0:
448,192,108340,1,0,0:0:0:0:
64,192,108861,1,0,0:0:0:0:
192,192,108861,1,0,0:0:0:0:
448,192,109481,1,0,0:0:0:0:
192,192,109807,1,0,0:0:0:0:
320,192,110166,1,0,0:0:0:0:
64,192,110524,1,0,0:0:0:0:
192,192,110948,1,0,0:0:0:0:
64,192,111568,128,0,112644:0:0:0:0:
192,192,111568,128,0,117028:0:0:0:0:
448,192,113003,128,0,114437:0:0:0:0:
320,192,114861,128,0,117028:0:0:0:0:
64,192,118310,1,0,0:0:0:0:
448,192,119387,1,0,0:0:0:0:
64,192,120465,1,0,0:0:0:0:
448,192,121542,1,0,0:0:0:0:
64,192,122620,1,0,0:0:0:0:
448,192,123698,1,0,0:0:0:0:
64,192,124775,1,0,0:0:0:0:
448,192,125853,1,0,0:0:0:0:
64,192,126930,1,0,0:0:0:0:
448,192,128547,128,0,130163:0:0:0:0:
64,192,129175,128,0,130163:0:0:0:0:
192,192,132023,1,0,0:0:0:0:
320,192,132284,1,0,0:0:0:0:
320,192,132676,1,0,0:0:0:0:
64,192,132806,1,0,0:0:0:0:
320,192,133067,1,0,0:0:0:0:
192,192,133328,1,0,0:0:0:0:
192,192,133719,1,0,0:0:0:0:
448,192,133849,1,0,0:0:0:0:
192,192,134110,1,0,0:0:0:0:
64,192,134371,128,0,134893:0:0:0:0:
192,192,134632,1,0,0:0:0:0:
192,192,134893,1,0,0:0:0:0:
64,192,135415,1,0,0:0:0:0:
192,192,135415,1,0,0:0:0:0:
64,192,135936,1,0,0:0:0:0:
192,192,136197,1,0,0:0:0:0:
64,192,136458,1,0,0:0:0:0:
192,192,136589,1,0,0:0:0:0:
320,192,136980,1,0,0:0:0:0:
448,192,137502,1,0,0:0:0:0:
192,192,137762,1,0,0:0:0:0:
448,192,137893,1,0,0:0:0:0:
448,192,138284,1,0,0:0:0:0:
320,192,138545,1,0,0:0:0:0:
64,192,139067,1,0,0:0:0:0:
192,192,139328,1,0,0:0:0:0:
64,192,139589,1,0,0:0:0:0:
64,192,140110,128,0,140632:0:0:0:0:
192,192,140371,1,0,0:0:0:0:
192,192,140632,1,0,0:0:0:0:
64,192,141154,1,0,0:0:0:0:
192,192,141415,1,0,0:0:0:0:
64,192,141676,1,0,0:0:0:0:
192,192,141806,1,0,0:0:0:0:
320,192,142197,1,0,0:0:0:0:
64,192,142458,1,0,0:0:0:0:
192,192,142719,1,0,0:0:0:0:
64,192,142980,1,0,0:0:0:0:
448,192,143241,1,0,0:0:0:0:
448,192,143502,1,0,0:0:0:0:
64,192,143762,1,0,0:0:0:0:
192,192,144023,1,0,0:0:0:0:
64,192,144284,1,0,0:0:0:0:
448,192,144545,1,0,0:0:0:0:
448,192,144806,1,0,0:0:0:0:
320,192,145067,1,0,0:0:0:0:
192,192,145328,1,0,0:0:0:0:
192,192,145849,1,0,0:0:0:0:
320,192,145849,1,0,0:0:0:0:
192,192,146371,1,0,0:0:0:0:
448,192,146632,1,0,0:0:0:0:
192,192,146893,1,0,0:0:0:0:
448,192,147154,1,0,0:0:0:0:
64,192,147415,1,0,0:0:0:0:
64,192,147676,1,0,0:0:0:0:
448,192,147936,1,0,0:0:0:0:
192,192,148197,1,0,0:0:0:0:
448,192,148458,1,0,0:0:0:0:
64,192,148719,1,0,0:0:0:0:
64,192,148980,1,0,0:0:0:0:
320,192,149241,1,0,0:0:0:0:
192,192,149502,1,0,0:0:0:0:
192,192,150023,1,0,0:0:0:0:
320,192,150023,1,0,0:0:0:0:
320,192,150545,1,0,0:0:0:0:
64,192,150806,1,0,0:0:0:0:
192,192,151067,1,0,0:0:0:0:
64,192,151328,1,0,0:0:0:0:
448,192,151589,1,0,0:0:0:0:
448,192,151849,1,0,0:0:0:0:
64,192,152110,1,0,0:0:0:0:
192,192,152371,1,0,0:0:0:0:
448,192,152893,1,0,0:0:0:0:
320,192,153023,1,0,0:0:0:0:
192,192,153154,1,0,0:0:0:0:
64,192,153284,1,0,0:0:0:0:
448,192,153415,1,0,0:0:0:0:
320,192,153545,1,0,0:0:0:0:
192,192,153676,1,0,0:0:0:0:
64,192,153806,1,0,0:0:0:0:
448,192,153936,1,0,0:0:0:0:
320,192,154067,1,0,0:0:0:0:
192,192,154197,1,0,0:0:0:0:
64,192,154328,1,0,0:0:0:0:
448,192,154458,1,0,0:0:0:0:
320,192,154589,1,0,0:0:0:0:
192,192,154719,1,0,0:0:0:0:
64,192,154849,1,0,0:0:0:0:
448,192,154980,1,0,0:0:0:0:
320,192,155110,1,0,0:0:0:0:
192,192,155241,1,0,0:0:0:0:
64,192,155371,1,0,0:0:0:0:
448,192,155502,1,0,0:0:0:0:
320,192,155632,1,0,0:0:0:0:
192,192,155762,1,0,0:0:0:0:
64,192,155893,1,0,0:0:0:0:
448,192,156023,1,0,0:0:0:0:
320,192,156154,1,0,0:0:0:0:
192,192,156284,1,0,0:0:0:0:
64,192,156415,1,0,0:0:0:0:
192,192,156545,1,0,0:0:0:0:
320,192,156676,1,0,0:0:0:0:
448,192,156806,1,0,0:0:0:0:
320,192,156936,1,0,0:0:0:0:
192,192,157067,1,0,0:0:0:0:
64,192,157197,1,0,0:0:0:0:
192,192,157328,1,0,0:0:0:0:
64,192,157458,1,0,0:0:0:0:
192,192,157589,1,0,0:0:0:0:
64,192,157719,1,0,0:0:0:0:
192,192,157849,1,0,0:0:0:0:
64,192,157980,1,0,0:0:0:0:
192,192,158110,1,0,0:0:0:0:
64,192,158502,1,0,0:0:0:0:
192,192,158632,1,0,0:0:0:0:
64,192,158893,1,0,0:0:0:0:
320,192,159154,1,0,0:0:0:0:
192,192,159415,1,0,0:0:0:0:
192,192,159806,1,0,0:0:0:0:
448,192,159936,1,0,0:0:0:0:
192,192,160197,1,0,0:0:0:0:
320,192,160458,1,0,0:0:0:0:
64,192,160980,1,0,0:0:0:0:
192,192,161241,128,0,161991:0:0:0:0:
64,192,161502,128,0,161991:0:0:0:0:
320,192,162023,1,0,0:0:0:0:
320,192,162415,1,0,0:0:0:0:
192,192,162545,1,0,0:0:0:0:
320,192,162806,1,0,0:0:0:0:
64,192,163067,1,0,0:0:0:0:
192,192,163328,1,0,0:0:0:0:
192,192,163719,1,0,0:0:0:0:
64,192,163849,1,0,0:0:0:0:
192,192,164110,1,0,0:0:0:0:
64,192,164371,1,0,0:0:0:0:
192,192,164893,1,0,0:0:0:0:
192,192,165284,1,0,0:0:0:0:
448,192,165415,1,0,0:0:0:0:
192,192,165676,1,0,0:0:0:0:
320,192,165936,1,0,0:0:0:0:
64,192,166197,128,0,166719:0:0:0:0:
192,192,166458,1,0,0:0:0:0:
192,192,166719,1,0,0:0:0:0:
320,192,167241,1,0,0:0:0:0:
64,192,167502,1,0,0:0:0:0:
192,192,167762,1,0,0:0:0:0:
192,192,168023,1,0,0:0:0:0:
448,192,168545,1,0,0:0:0:0:
320,192,168676,1,0,0:0:0:0:
192,192,168806,1,0,0:0:0:0:
64,192,168936,1,0,0:0:0:0:
448,192,169067,1,0,0:0:0:0:
320,192,169197,1,0,0:0:0:0:
192,192,169328,1,0,0:0:0:0:
64,192,169458,1,0,0:0:0:0:
448,192,169589,1,0,0:0:0:0:
320,192,169719,1,0,0:0:0:0:
192,192,169849,1,0,0:0:0:0:
64,192,169980,1,0,0:0:0:0:
448,192,170110,1,0,0:0:0:0:
320,192,170241,1,0,0:0:0:0:
192,192,170371,1,0,0:0:0:0:
64,192,170502,1,0,0:0:0:0:
448,192,170632,1,0,0:0:0:0:
320,192,170762,1,0,0:0:0:0:
192,192,170893,1,0,0:0:0:0:
64,192,171023,1,0,0:0:0:0:
448,192,171154,1,0,0:0:0:0:
320,192,171284,1,0,0:0:0:0:
192,192,171415,1,0,0:0:0:0:
64,192,171545,1,0,0:0:0:0:
448,192,171676,1,0,0:0:0:0:
320,192,171806,1,0,0:0:0:0:
192,192,171936,1,0,0:0:0:0:
64,192,172067,1,0,0:0:0:0:
192,192,172197,1,0,0:0:0:0:
320,192,172328,1,0,0:0:0:0:
448,192,172458,1,0,0:0:0:0:
320,192,172589,1,0,0:0:0:0:
192,192,172719,1,0,0:0:0:0:
64,192,172849,1,0,0:0:0:0:
192,192,172980,1,0,0:0:0:0:
64,192,173110,1,0,0:0:0:0:
192,192,173241,1,0,0:0:0:0:
64,192,173371,1,0,0:0:0:0:
192,192,173502,1,0,0:0:0:0:
64,192,173632,1,0,0:0:0:0:
192,192,173762,1,0,0:0:0:0:
64,192,173893,1,0,0:0:0:0:
448,192,174023,1,0,0:0:0:0:
64,192,174154,1,0,0:0:0:0:
448,192,174284,1,0,0:0:0:0:
64,192,174415,1,0,0:0:0:0:
448,192,174545,1,0,0:0:0:0:
64,192,174676,1,0,0:0:0:0:
448,192,174806,1,0,0:0:0:0:
64,192,174936,1,0,0:0:0:0:
448,192,175067,1,0,0:0:0:0:
64,192,175197,1,0,0:0:0:0:
448,192,175328,1,0,0:0:0:0:
64,192,175458,1,0,0:0:0:0:
448,192,175589,1,0,0:0:0:0:
64,192,175719,1,0,0:0:0:0:
192,192,175849,1,0,0:0:0:0:
64,192,175980,1,0,0:0:0:0:
192,192,176110,1,0,0:0:0:0:
64,192,176241,1,0,0:0:0:0:
192,192,176371,1,0,0:0:0:0:
64,192,176502,1,0,0:0:0:0:
192,192,176632,1,0,0:0:0:0:
64,192,176762,1,0,0:0:0:0:
192,192,176893,1,0,0:0:0:0:
64,192,177023,1,0,0:0:0:0:
192,192,177154,1,0,0:0:0:0:
64,192,177284,1,0,0:0:0:0:
192,192,177415,1,0,0:0:0:0:
64,192,177545,1,0,0:0:0:0:
192,192,177676,1,0,0:0:0:0:
64,192,177806,1,0,0:0:0:0:
192,192,177936,1,0,0:0:0:0:
64,192,178067,1,0,0:0:0:0:
192,192,178197,1,0,0:0:0:0:
320,192,178328,1,0,0:0:0:0:
448,192,178458,1,0,0:0:0:0:
320,192,178589,1,0,0:0:0:0:
192,192,178719,1,0,0:0:0:0:
64,192,178849,1,0,0:0:0:0:
192,192,178980,1,0,0:0:0:0:
320,192,179110,1,0,0:0:0:0:
448,192,179241,1,0,0:0:0:0:
320,192,179371,1,0,0:0:0:0:
192,192,179502,1,0,0:0:0:0:
64,192,179632,1,0,0:0:0:0:
192,192,179762,1,0,0:0:0:0:
320,192,179893,1,0,0:0:0:0:
448,192,180023,1,0,0:0:0:0:
320,192,180154,1,0,0:0:0:0:
192,192,180284,1,0,0:0:0:0:
64,192,180415,1,0,0:0:0:0:
192,192,180545,1,0,0:0:0:0:
320,192,180676,1,0,0:0:0:0:
448,192,180806,1,0,0:0:0:0:
320,192,180936,1,0,0:0:0:0:
192,192,181067,1,0,0:0:0:0:
64,192,181197,1,0,0:0:0:0:
192,192,181328,1,0,0:0:0:0:
320,192,181458,1,0,0:0:0:0:
448,192,181589,1,0,0:0:0:0:
64,192,181719,1,0,0:0:0:0:
192,192,181849,1,0,0:0:0:0:
320,192,181980,1,0,0:0:0:0:
448,192,182110,1,0,0:0:0:0:
64,192,182241,1,0,0:0:0:0:
192,192,182371,1,0,0:0:0:0:
320,192,182502,1,0,0:0:0:0:
448,192,182632,1,0,0:0:0:0:
64,192,182762,1,0,0:0:0:0:
192,192,182893,1,0,0:0:0:0:
448,192,183023,1,0,0:0:0:0:
64,192,183154,1,0,0:0:0:0:
448,192,183284,1,0,0:0:0:0:
64,192,183415,1,0,0:0:0:0:
448,192,183545,1,0,0:0:0:0:
64,192,183676,1,0,0:0:0:0:
448,192,183806,1,0,0:0:0:0:
64,192,183936,128,0,184328:0:0:0:0:
448,192,184067,128,0,184328:0:0:0:0:
320,192,184839,1,0,0:0:0:0:
64,192,185100,1,0,0:0:0:0:
192,192,185230,1,0,0:0:0:0:
64,192,185361,1,0,0:0:0:0:
320,192,185622,1,0,0:0:0:0:
192,192,185882,1,0,0:0:0:0:
192,192,186274,1,0,0:0:0:0:
448,192,186404,1,0,0:0:0:0:
192,192,186665,1,0,0:0:0:0:
320,192,186926,1,0,0:0:0:0:
64,192,187448,1,0,0:0:0:0:
192,192,187709,1,0,0:0:0:0:
64,192,187969,1,0,0:0:0:0:
192,192,188491,1,0,0:0:0:0:
64,192,188752,1,0,0:0:0:0:
192,192,189013,1,0,0:0:0:0:
448,192,189274,1,0,0:0:0:0:
192,192,189535,1,0,0:0:0:0:
64,192,189796,1,0,0:0:0:0:
192,192,190056,1,0,0:0:0:0:
448,192,190317,1,0,0:0:0:0:
192,192,190578,1,0,0:0:0:0:
64,192,190839,1,0,0:0:0:0:
192,192,191100,1,0,0:0:0:0:
448,192,191361,1,0,0:0:0:0:
192,192,191622,1,0,0:0:0:0:
64,192,191882,1,0,0:0:0:0:
192,192,192143,1,0,0:0:0:0:
320,192,192404,1,0,0:0:0:0:
192,192,192665,1,0,0:0:0:0:
192,192,192926,1,0,0:0:0:0:
320,192,192926,1,0,0:0:0:0:
192,192,193187,1,0,0:0:0:0:
64,192,193709,1,0,0:0:0:0:
192,192,193969,1,0,0:0:0:0:
64,192,194230,1,0,0:0:0:0:
192,192,194491,1,0,0:0:0:0:
448,192,194752,1,0,0:0:0:0:
192,192,195013,128,0,195535:0:0:0:0:
64,192,195535,1,0,0:0:0:0:
192,192,195796,128,0,196317:0:0:0:0:
64,192,196317,1,0,0:0:0:0:
192,192,196578,128,0,197100:0:0:0:0:
448,192,197100,1,0,0:0:0:0:
192,192,197230,1,0,0:0:0:0:
448,192,197361,1,0,0:0:0:0:
192,192,197622,1,0,0:0:0:0:
320,192,197882,1,0,0:0:0:0:
192,192,198143,1,0,0:0:0:0:
320,192,198404,1,0,0:0:0:0:
64,192,198665,1,0,0:0:0:0:
192,192,198926,128,0,199448:0:0:0:0:
64,192,199448,1,0,0:0:0:0:
192,192,199709,1,0,0:0:0:0:
64,192,199839,1,0,0:0:0:0:
192,192,199969,1,0,0:0:0:0:
192,192,200230,128,0,200752:0:0:0:0:
64,192,200752,1,0,0:0:0:0:
192,192,201013,128,0,201535:0:0:0:0:
320,192,201535,1,0,0:0:0:0:
192,192,201796,128,0,202317:0:0:0:0:
448,192,202317,1,0,0:0:0:0:
192,192,202448,1,0,0:0:0:0:
448,192,202578,1,0,0:0:0:0:
192,192,202839,1,0,0:0:0:0:
320,192,203100,1,0,0:0:0:0:
192,192,203361,1,0,0:0:0:0:
320,192,203622,1,0,0:0:0:0:
64,192,203882,1,0,0:0:0:0:
192,192,204143,128,0,204665:0:0:0:0:
64,192,204665,1,0,0:0:0:0:
192,192,204926,1,0,0:0:0:0:
64,192,205056,1,0,0:0:0:0:
192,192,205187,1,0,0:0:0:0:
192,192,205448,128,0,205969:0:0:0:0:
64,192,205969,1,0,0:0:0:0:
192,192,206230,128,0,206752:0:0:0:0:
448,192,206752,1,0,0:0:0:0:
192,192,207013,128,0,207535:0:0:0:0:
448,192,207535,1,0,0:0:0:0:
192,192,207665,1,0,0:0:0:0:
448,192,207796,1,0,0:0:0:0:
192,192,208056,1,0,0:0:0:0:
320,192,208317,1,0,0:0:0:0:
192,192,208578,1,0,0:0:0:0:
320,192,208839,1,0,0:0:0:0:
64,192,209100,1,0,0:0:0:0:
192,192,209361,128,0,209882:0:0:0:0:
64,192,209882,1,0,0:0:0:0:
192,192,210143,1,0,0:0:0:0:
64,192,210274,1,0,0:0:0:0:
192,192,210404,1,0,0:0:0:0:
320,192,210665,1,0,0:0:0:0:
320,192,226317,132,0,229448:0:0:0:0:
192,192,229448,1,0,0:0:0:0:
64,192,229969,1,0,0:0:0:0:
192,192,230230,1,0,0:0:0:0:
64,192,230752,1,0,0:0:0:0:
192,192,230752,1,0,0:0:0:0:
320,192,231013,1,0,0:0:0:0:
64,192,231274,1,0,0:0:0:0:
192,192,231535,1,0,0:0:0:0:
64,192,232056,1,0,0:0:0:0:
192,192,232317,1,0,0:0:0:0:
448,192,232839,1,0,0:0:0:0:
192,192,233100,1,0,0:0:0:0:
320,192,233622,1,0,0:0:0:0:
64,192,233882,1,0,0:0:0:0:
64,192,234404,1,0,0:0:0:0:
192,192,234665,1,0,0:0:0:0:
64,192,235187,1,0,0:0:0:0:
192,192,235187,1,0,0:0:0:0:
64,192,235448,1,0,0:0:0:0:
192,192,235448,1,0,0:0:0:0:
64,192,235969,128,0,236752:0:0:0:0:
192,192,236230,1,0,0:0:0:0:
192,192,236491,1,0,0:0:0:0:
192,192,236752,1,0,0:0:0:0:
448,192,237274,1,0,0:0:0:0:
192,192,237535,1,0,0:0:0:0:
320,192,238056,1,0,0:0:0:0:
192,192,238317,1,0,0:0:0:0:
64,192,238839,1,0,0:0:0:0:
448,192,238839,1,0,0:0:0:0:
64,192,239100,1,0,0:0:0:0:
448,192,239100,1,0,0:0:0:0:
64,192,239622,1,0,0:0:0:0:
192,192,239882,1,0,0:0:0:0:
448,192,240404,1,0,0:0:0:0:
192,192,240665,1,0,0:0:0:0:
64,192,241187,1,0,0:0:0:0:
192,192,241448,1,0,0:0:0:0:
64,192,241709,1,0,0:0:0:0:
64,192,241969,1,0,0:0:0:0:
192,192,241969,1,0,0:0:0:0:
320,192,242491,1,0,0:0:0:0:
192,192,242752,1,0,0:0:0:0:
64,192,243274,1,0,0:0:0:0:
448,192,243274,1,0,0:0:0:0:
192,192,243535,1,0,0:0:0:0:
64,192,244056,1,0,0:0:0:0:
320,192,244317,1,0,0:0:0:0:
192,192,244839,1,0,0:0:0:0:
192,192,245100,1,0,0:0:0:0:
448,192,245100,1,0,0:0:0:0:
320,192,245622,1,0,0:0:0:0:
64,192,245882,128,0,247187:0:0:0:0:
192,192,246404,1,0,0:0:0:0:
192,192,246665,1,0,0:0:0:0:
192,192,247187,1,0,0:0:0:0:
64,192,247709,1,0,0:0:0:0:
192,192,247969,1,0,0:0:0:0:
64,192,248590,128,0,251111:0:0:0:0:
448,192,248590,128,0,251111:0:0:0:0:
