osu file format v14

[General]
AudioFilename: audio.mp3
AudioLeadIn: 0
PreviewTime: 48376
Countdown: 0
SampleSet: Soft
StackLeniency: 0.3
Mode: 0
LetterboxInBreaks: 0
WidescreenStoryboard: 0

[Editor]
Bookmarks: 4324,15359,26393,37457,59497,70495,81541,92574,103603,128437
DistanceSpacing: 1.3
BeatDivisor: 6
GridSize: 8
TimelineZoom: 2.9

[Metadata]
Title:Novyj geroj
TitleUnicode:Новый герой
Artist:[AMATORY]
ArtistUnicode:[AMATORY]
Creator:Sieg
Version:TheMefisto's Hard
Source:
Tags:new hero [аматори] аматори amatory vii russian alternative rock cut version themefisto fcl marmowka slayed
BeatmapID:1047661
BeatmapSetID:487843

[Difficulty]
HPDrainRate:5.5
CircleSize:3.8
OverallDifficulty:6
ApproachRate:7.5
SliderMultiplier:1.4
SliderTickRate:1

[Events]
//Background and Video events
0,0,"bg.jpg",0,0
//Break Periods
//Storyboard Layer 0 (Background)
//Storyboard Layer 1 (Fail)
//Storyboard Layer 2 (Pass)
//Storyboard Layer 3 (Foreground)
//Storyboard Sound Samples

[TimingPoints]
4325,344.827586206897,4,2,1,50,1,0
10704,-100,4,2,1,40,0,0
13980,-100,4,2,1,70,0,0
15359,-86.9565217391304,4,2,1,70,0,1
15402,-86.9565217391304,4,2,1,70,0,0
25004,344.827586206897,4,2,1,70,1,0
25004,-76.9230769230769,4,2,1,70,0,0
26393,344.827586206897,4,2,1,70,1,0
26393,-111.111111111111,4,2,1,70,0,0
28461,-76.9230769230769,4,2,1,70,0,0
29151,-111.111111111111,4,2,1,70,0,0
33979,-76.9230769230769,4,2,1,70,0,0
34668,-111.111111111111,4,2,1,70,0,0
36048,-111.111111111111,4,2,1,70,0,0
36940,344.827586206897,4,2,1,70,1,0
37773,344.827586206897,4,2,1,70,1,0
37773,-86.9565217391304,4,2,1,70,0,0
38807,344.827586206897,4,2,1,70,1,0
38807,-86.9565217391304,4,2,1,70,0,0
39497,-76.9230769230769,4,2,1,70,0,0
40186,-86.9565217391304,4,2,1,70,0,0
45014,-76.9230769230769,4,2,1,70,0,0
45704,-86.9565217391304,4,2,1,70,0,0
47083,-111.111111111111,4,2,1,50,0,0
48462,-86.9565217391304,4,2,1,70,0,1
56035,344.827586206897,4,2,1,70,1,1
56035,-86.9565217391304,4,2,1,70,0,1
56566,344.827586206897,4,2,1,70,1,1
56566,-86.9565217391304,4,2,1,70,0,1
57428,344.827586206897,4,2,1,70,1,1
57428,-86.9565217391304,4,2,1,70,0,1
58117,344.827586206897,4,2,1,70,1,1
58117,-86.9565217391304,4,2,1,70,0,1
59453,-86.9565217391304,4,2,1,70,0,0
59496,-86.9565217391304,4,2,1,70,0,1
69884,-86.9565217391304,4,2,1,70,0,0
70495,344.827586206897,4,2,1,70,1,0
70860,344.827586206897,4,2,1,70,1,0
73276,344.827586206897,4,2,1,70,1,0
73625,344.827586206897,4,2,1,70,1,0
75998,344.827586206897,4,2,1,70,1,0
76362,344.827586206897,4,2,1,70,1,0
78755,344.827586206897,4,2,1,70,1,0
79118,344.827586206897,4,2,1,70,1,0
81049,344.827586206897,4,2,1,50,1,0
81049,-111.111111111111,4,2,1,50,0,0
81541,344.827586206897,4,2,1,70,1,0
81541,-111.111111111111,4,2,1,70,0,0
83942,344.827586206897,4,2,1,60,1,0
83942,-111.111111111111,4,2,1,60,0,0
84644,344.827586206897,4,2,1,70,1,0
84644,-111.111111111111,4,2,1,70,0,0
87560,344.827586206897,4,2,1,70,1,0
87560,-111.111111111111,4,2,1,70,0,0
87747,344.827586206897,4,2,1,70,1,0
87747,-111.111111111111,4,2,1,70,0,0
88437,344.827586206897,4,2,1,70,1,0
88437,-111.111111111111,4,2,1,70,0,0
89463,344.827586206897,4,2,1,70,1,0
89463,-111.111111111111,4,2,1,70,0,0
91195,344.827586206897,4,2,1,70,1,0
92574,-86.9565217391304,4,2,1,70,0,1
98048,-86.9565217391304,4,2,1,70,0,0
98091,-86.9565217391304,4,2,1,70,0,1
98430,344.827586206897,4,2,1,70,1,1
98430,-86.9565217391304,4,2,1,70,0,1
98770,344.827586206897,4,2,1,70,1,1
98770,-86.9565217391304,4,2,1,70,0,1
100500,344.827586206897,4,2,1,70,1,1
100500,-86.9565217391304,4,2,1,70,0,1
103560,-86.9565217391304,4,2,1,70,0,0
103603,-86.9565217391304,4,2,1,70,0,1
103646,-86.9565217391304,4,2,1,70,0,0
105478,344.827586206897,4,2,1,50,1,0
105655,344.827586206897,4,2,1,70,1,0
105655,-86.9565217391304,4,2,1,70,0,0
106349,344.827586206897,4,2,1,70,1,1
106349,-86.9565217391304,4,2,1,70,0,1
107226,344.827586206897,4,2,1,70,1,1
107226,-86.9565217391304,4,2,1,70,0,1
107743,344.827586206897,4,2,1,70,1,1
107743,-86.9565217391304,4,2,1,70,0,1
114596,-86.9565217391304,4,2,1,70,0,0
114639,-86.9565217391304,4,2,1,70,0,1
125630,-86.9565217391304,4,2,1,70,0,0
125664,344.827586206897,4,2,1,70,1,1
125664,-76.9230769230769,4,2,1,70,0,1
125707,-76.9230769230769,4,2,1,70,0,0
128240,344.827586206897,4,2,1,70,1,0
128240,-76.9230769230769,4,2,1,70,0,0
128437,344.827586206897,4,2,1,70,1,0

[Colours]
Combo1 : 209,63,49
Combo2 : 2,132,130
Combo3 : 56,52,54
Combo4 : 176,149,91

[HitObjects]
43,208,4324,6,0,L|63:281,1,70,4|0,1:0|0:0,0:0:0:0:
137,326,4669,1,0,0:0:0:0:
137,326,4842,1,0,0:0:0:0:
201,262,5014,2,0,P|228:240|284:232,1,70,0|0,0:0|0:0,0:0:0:0:
350,251,5359,2,0,P|383:241|410:219,1,70,0|0,0:0|0:0,0:0:0:0:
421,90,5704,6,0,B|450:55|450:55|497:40,2,70,0|0|0,0:0|0:0|0:0,0:0:0:0:
340,159,6221,1,0,0:0:0:0:
410,219,6393,2,0,P|418:254|413:287,1,70,0|0,0:0|0:0,0:0:0:0:
339,342,6738,2,0,P|304:334|271:339,1,70,0|0,0:0|0:0,0:0:0:0:
141,374,7083,6,0,L|100:286,1,70,0|0,0:0|0:0,0:0:0:0:
37,265,7428,1,0,0:0:0:0:
37,265,7600,1,0,0:0:0:0:
104,203,7773,2,0,P|145:206|175:227,1,70,0|0,0:0|0:0,0:0:0:0:
250,178,8118,2,0,P|291:175|321:154,1,70,0|0,0:0|0:0,0:0:0:0:
339,33,8462,5,0,0:0:0:0:
257,81,8635,1,0,0:0:0:0:
175,33,8807,2,0,B|147:36|147:36|92:68,1,70,0|0,0:0|0:0,0:0:0:0:
54,129,9152,1,0,0:0:0:0:
103,206,9325,1,0,0:0:0:0:
54,283,9497,2,0,P|48:314|66:363,1,70,0|0,0:0|0:0,0:0:0:0:
180,261,9842,6,0,L|131:311,2,70,0|0|0,0:0|0:0|0:0,0:0:0:0:
183,169,10359,1,0,0:0:0:0:
249,316,10531,2,0,P|269:333|332:334,1,70,12|0,1:3|0:0,0:0:0:0:
307,249,10876,2,0,P|286:221|282:186,1,70,0|0,0:0|0:0,0:0:0:0:
367,71,11221,6,0,L|442:37,2,70,0|0|0,0:0|0:0|0:0,0:0:0:0:
282,106,11738,1,0,0:0:0:0:
194,79,11911,2,0,L|119:45,1,70,0|0,0:0|0:0,0:0:0:0:
110,49,12169,1,0,0:0:0:0:
91,56,12256,2,0,P|80:96|93:139,1,70,0|0,0:0|0:0,0:0:0:0:
156,235,12600,6,0,P|167:275|154:318,1,70,0|0,0:0|0:0,0:0:0:0:
74,276,12945,1,0,0:0:0:0:
74,276,13118,1,0,0:0:0:0:
16,205,13290,2,0,L|9:117,1,70,0|0,0:0|0:0,0:0:0:0:
48,52,13635,2,0,P|80:26|121:23,1,70,0|0,0:0|0:0,0:0:0:0:
226,88,13980,5,12,1:3:0:0:
195,173,14152,1,12,1:3:0:0:
240,252,14325,2,0,P|249:286|236:340,1,70,12|12,1:3|1:3,0:0:0:0:
172,374,14669,1,12,1:3:0:0:
135,294,14842,1,0,1:0:0:0:
195,173,15014,2,0,L|286:146,1,70,8|0,1:0|1:0,0:0:0:0:
122,110,15359,6,0,L|41:133,1,80.5000015354157,4|0,1:0|0:0,0:0:0:0:
105,223,15704,2,0,P|126:246|126:316,1,80.5000015354157,10|0,1:0|0:0,0:0:0:0:
199,375,16049,2,0,P|203:335|228:304,1,80.5000015354157,2|0,1:0|0:0,0:0:0:0:
326,268,16393,1,10,1:0:0:0:
326,268,16566,1,0,0:0:0:0:
317,163,16738,6,0,B|287:124|287:124|234:115,2,80.5000015354157,2|0|10,1:0|0:0|1:0,0:0:0:0:
326,268,17256,1,0,0:0:0:0:
407,332,17428,2,0,P|446:348|499:340,1,80.5000015354157,2|0,1:0|0:0,0:0:0:0:
463,242,17773,2,0,L|455:137,1,80.5000015354157,10|0,1:0|0:0,0:0:0:0:
356,76,18118,5,2,1:0:0:0:
356,76,18290,1,0,0:0:0:0:
283,152,18462,2,0,P|259:169|179:175,1,80.5000015354157,10|0,1:0|0:0,0:0:0:0:
212,75,18807,2,0,B|236:40|236:40|235:1,1,80.5000015354157,2|0,1:0|0:0,0:0:0:0:
130,9,19152,2,0,B|106:44|106:44|107:83,1,80.5000015354157,10|0,1:0|0:0,0:0:0:0:
209,180,19497,5,2,1:0:0:0:
161,272,19669,1,0,1:0:0:0:
239,341,19842,2,0,L|328:359,1,80.5000015354157,10|0,1:0|1:0,0:0:0:0:
209,180,20359,1,0,1:0:0:0:
161,272,20531,2,0,L|82:256,1,80.5000015354157,10|0,1:0|1:0,0:0:0:0:
138,124,20876,6,0,P|174:97|236:92,1,80.5000015354157,4|0,1:0|0:0,0:0:0:0:
312,97,21221,2,0,P|350:86|382:62,1,80.5000015354157,10|0,1:0|0:0,0:0:0:0:
483,35,21566,2,0,L|470:137,1,80.5000015354157,2|0,1:0|0:0,0:0:0:0:
418,204,21911,2,0,L|431:306,1,80.5000015354157,10|0,1:0|0:0,0:0:0:0:
301,358,22256,6,0,P|261:352|228:330,2,80.5000015354157,2|0|10,1:0|0:0|1:0,0:0:0:0:
301,252,22773,1,0,0:0:0:0:
197,235,22945,2,0,P|168:249|131:311,1,80.5000015354157,2|0,1:0|0:0,0:0:0:0:
61,214,23290,2,0,P|32:200|-5:138,1,80.5000015354157,10|0,1:0|0:0,0:0:0:0:
24,29,23635,5,2,1:0:0:0:
24,29,23807,1,0,0:0:0:0:
91,116,23980,2,0,B|119:120|119:120|177:92,1,80.5000015354157,10|0,1:0|0:0,0:0:0:0:
247,30,24325,1,2,1:0:0:0:
346,61,24497,1,0,1:0:0:0:
372,161,24669,2,0,P|365:203|318:251,1,80.5000015354157,8|0,1:0|1:0,0:0:0:0:
193,261,25004,6,0,L|126:282,2,45.4999979171754,4|0|0,1:0|1:0|1:0,0:0:0:0:
239,149,25348,2,0,L|282:162,2,45.4999979171754,4|0|0,1:0|1:0|1:0,0:0:0:0:
193,37,25693,2,0,L|149:50,2,45.4999979171754,4|0|0,1:0|1:0|1:0,0:0:0:0:
150,147,26038,2,0,L|128:187,3,45.4999979171754,8|8|8|8,1:0|1:0|1:0|1:0,0:0:0:0:
180,195,26393,6,0,B|196:240|196:240|222:264|222:264|238:309,1,125.999996154785,4|0,1:0|0:0,0:0:0:0:
152,313,26910,1,0,0:0:0:0:
82,269,27082,2,0,B|62:240|13:214|13:214|52:199,1,125.999996154785,10|0,1:0|0:0,0:0:0:0:
128,186,27599,1,0,0:0:0:0:
193,136,27772,2,0,B|257:112|257:152|321:136,1,125.999996154785,2|0,3:0|0:0,0:0:0:0:
293,58,28289,1,0,0:0:0:0:
183,50,28461,2,0,L|126:77,1,45.4999979171754,10|0,1:0|0:0,0:0:0:0:
86,166,28720,2,0,L|127:185,1,45.4999979171754,0|0,1:0|1:0,0:0:0:0:
195,282,28979,1,0,1:0:0:0:
195,282,29065,1,0,1:0:0:0:
195,282,29151,6,0,B|216:322|276:338|276:338|271:298,1,125.999996154785,2|0,3:0|0:0,0:0:0:0:
273,231,29668,1,0,0:0:0:0:
337,180,29841,2,0,P|359:155|365:117,2,62.9999980773926,10|0|0,1:0|0:0|0:0,0:0:0:0:
285,116,30358,1,0,0:0:0:0:
333,49,30530,2,0,P|365:41|409:56,1,62.9999980773926,2|0,3:0|0:0,0:0:0:0:
450,106,30875,2,0,L|466:187,1,62.9999980773926,0|0,1:0|1:0,0:0:0:0:
426,241,31220,2,0,L|405:341,2,94.499997116089,10|0|0,1:0|1:0|1:0,0:0:0:0:
307,274,31910,6,0,B|246:270|253:316|185:307,1,125.999996154785,4|0,1:0|0:0,0:0:0:0:
111,279,32427,1,0,0:0:0:0:
84,201,32599,2,0,B|87:164|87:164|110:149|110:149|107:109|149:78,1,125.999996154785,10|0,1:0|0:0,0:0:0:0:
194,148,33117,1,0,0:0:0:0:
216,68,33289,2,0,P|182:21|98:12,1,125.999996154785,2|0,3:0|0:0,0:0:0:0:
40,33,33806,1,0,0:0:0:0:
53,141,33979,2,0,L|102:181,1,45.4999979171754,10|0,1:0|0:0,0:0:0:0:
194,148,34237,2,0,L|253:168,1,45.4999979171754,0|0,1:0|1:0,0:0:0:0:
341,96,34496,1,0,1:0:0:0:
341,96,34582,1,0,1:0:0:0:
341,96,34668,6,0,P|385:55|458:63,1,125.999996154785,2|0,3:0|0:0,0:0:0:0:
414,132,35186,1,0,0:0:0:0:
356,190,35358,2,0,B|323:221|323:221|338:261|312:315,1,125.999996154785,10|0,1:0|0:0,0:0:0:0:
261,358,35875,1,0,0:0:0:0:
163,320,36048,2,0,L|117:336,2,41.9999987182618,8|8|8,1:0|1:0|1:0,0:0:0:0:
119,285,36393,2,0,L|55:285,2,41.9999987182618,8|8|8,1:0|1:0|1:0,0:0:0:0:
101,233,36737,1,8,1:0:0:0:
117,127,36940,6,0,P|146:88|200:63,2,105,4|4|4,1:0|1:0|1:0,0:0:0:0:
163,320,37773,6,0,P|201:322|272:312,1,80.5000015354157,10|0,1:0|1:0,0:0:0:0:
297,228,38118,2,0,B|327:206|327:206|362:209|362:209|397:167|466:173,1,161.000003070831,0|10,0:0|1:0,0:0:0:0:
440,277,38635,1,0,1:0:0:0:
348,326,38807,2,0,B|300:353|220:337|220:337|259:304,1,161.000003070831,2|10,1:0|1:0,0:0:0:0:
297,228,39324,1,0,1:0:0:0:
203,179,39497,2,0,L|134:149,1,45.4999979171754,0|0,1:0|1:0,0:0:0:0:
69,86,39755,2,0,L|138:56,1,45.4999979171754,0|10,1:0|1:0,0:0:0:0:
229,77,40014,1,0,1:0:0:0:
229,77,40100,1,0,1:0:0:0:
229,77,40186,6,0,B|269:69|301:101|301:101|340:84|385:108,1,161.000003070831,2|10,3:0|1:0,0:0:0:0:
334,200,40704,2,0,P|408:229|399:318,1,161.000003070831,0|2,1:0|1:0,0:0:0:0:
317,349,41221,1,10,1:0:0:0:
214,368,41393,1,0,1:0:0:0:
170,272,41566,2,0,L|178:174,1,80.5000015354157,2|0,1:0|0:0,0:0:0:0:
130,97,41911,2,0,P|115:50|143:-6,1,80.5000015354157,2|0,1:0|1:0,0:0:0:0:
240,109,42255,2,0,B|283:133|283:133|354:125,1,120.750002303124,2|0,1:0|1:0,0:0:0:0:
375,109,42600,1,10,1:0:0:0:
305,29,42773,1,0,1:0:0:0:
451,26,42945,6,0,P|486:92|447:195,1,161.000003070831,4|10,1:0|1:0,0:0:0:0:
391,245,43462,1,0,1:0:0:0:
297,201,43635,2,0,B|257:198|257:198|226:227|226:227|186:222|186:222|153:254,1,161.000003070831,0|10,0:0|1:0,0:0:0:0:
224,330,44152,1,0,1:0:0:0:
123,358,44324,2,0,B|10:377|10:377|52:326,1,161.000003070831,2|10,1:0|1:0,0:0:0:0:
63,238,44842,1,0,1:0:0:0:
141,168,45014,2,0,L|216:142,1,45.4999979171754,2|0,1:0|1:0,0:0:0:0:
290,206,45273,2,0,L|332:220,1,45.4999979171754,0|10,1:0|1:0,0:0:0:0:
441,173,45531,1,0,1:0:0:0:
441,173,45618,1,0,1:0:0:0:
441,173,45704,6,0,B|478:223|442:297|442:297|395:254,1,161.000003070831,4|10,1:0|1:0,0:0:0:0:
332,220,46221,2,0,P|316:184|338:113,1,80.5000015354157,0|0,1:0|0:0,0:0:0:0:
368,51,46566,1,0,1:0:0:0:
265,71,46738,2,0,P|225:66|175:12,1,80.5000015354157,10|0,1:0|0:0,0:0:0:0:
93,31,47083,6,0,L|71:71,2,41.9999987182618,8|8|8,1:0|1:0|1:0,0:0:0:0:
106,84,47428,2,0,L|128:124,2,41.9999987182618,8|8|8,1:0|1:0|1:0,0:0:0:0:
99,138,47773,1,8,1:0:0:0:
456,355,48462,6,0,P|489:290|437:135,1,241.500004606247,4|0,1:0|1:0,0:0:0:0:
240,73,49324,1,0,1:0:0:0:
270,173,49497,2,0,B|265:241|214:279|214:279|196:219,1,161.000003070831,10|0,1:0|0:0,0:0:0:0:
143,157,50014,1,8,1:0:0:0:
92,248,50186,2,0,L|122:348,1,80.5000015354157,2|0,1:0|0:0,0:0:0:0:
210,369,50531,1,2,1:0:0:0:
298,312,50704,1,0,1:0:0:0:
390,361,50876,2,0,P|434:362|473:348,1,80.5000015354157,10|0,1:0|1:0,0:0:0:0:
413,222,51221,6,0,B|379:173|377:68|377:68|337:165,1,241.500004606247,4|0,1:0|1:0,0:0:0:0:
281,342,52083,1,0,1:0:0:0:
181,309,52255,2,0,B|138:275|133:207|133:207|126:126|81:98,1,241.500004606247,10|10,1:0|1:0,0:0:0:0:
259,213,53118,1,0,1:0:0:0:
311,302,53290,2,0,P|340:276|359:232,1,80.5000015354157,10|0,1:0|1:0,0:0:0:0:
329,136,53635,2,0,P|369:113|419:119,1,80.5000015354157,10|0,1:0|0:0,0:0:0:0:
479,184,53980,6,0,P|505:97|370:13,1,241.500004606247,4|0,1:0|1:0,0:0:0:0:
389,217,54842,1,0,1:0:0:0:
439,308,55014,2,0,B|409:348|409:348|285:365,1,161.000003070831,10|0,1:0|0:0,0:0:0:0:
205,316,55531,1,8,1:0:0:0:
389,217,55876,1,0,1:0:0:0:
295,191,56035,2,0,L|234:217,4,40.2500007677078,8|8|8|8|8,1:0|1:3|1:3|1:3|1:3,0:0:0:0:
368,104,56566,1,8,1:0:0:0:
368,104,56652,1,8,1:0:0:0:
368,104,56738,6,0,P|386:70|376:7,1,80.5000015354157,4|0,1:0|1:0,0:0:0:0:
286,45,57083,1,2,1:0:0:0:
219,125,57255,1,0,1:0:0:0:
119,92,57428,2,0,L|21:148,1,80.5000015354157,10|0,1:0|1:0,0:0:0:0:
65,235,57772,1,2,1:0:0:0:
165,265,57945,1,0,1:0:0:0:
248,202,58117,2,0,P|278:189|337:197,1,80.5000015354157,10|0,1:0|1:0,0:0:0:0:
294,292,58462,2,0,L|219:362,1,80.5000015354157,2|0,1:0|1:0,0:0:0:0:
165,265,58807,1,10,1:0:0:0:
211,128,58979,2,0,P|284:104|376:126,1,161.000003070831,0|0,1:0|1:0,0:0:0:0:
459,226,59496,6,0,B|508:281|506:381|506:381|484:340|436:328,1,241.500004606247,4|0,1:0|1:0,0:0:0:0:
235,346,60359,1,0,1:0:0:0:
134,317,60531,2,0,P|95:325|46:374,1,80.5000015354157,10|0,1:0|0:0,0:0:0:0:
33,247,60876,2,0,P|9:214|1:175,2,80.5000015354157,0|8|0,0:0|1:0|0:0,0:0:0:0:
104,169,61393,2,0,P|113:129|138:98,1,80.5000015354157,0|10,1:0|1:0,0:0:0:0:
206,178,61738,1,0,1:0:0:0:
306,150,61910,2,0,L|343:78,1,80.5000015354157,0|0,0:0|1:0,0:0:0:0:
356,236,62255,6,0,B|282:380|282:380|332:348|388:368,1,241.500004606247,4|0,1:0|1:0,0:0:0:0:
503,210,63117,1,0,1:0:0:0:
440,125,63290,2,0,B|409:92|409:92|344:79|344:79|306:37,1,161.000003070831,10|0,1:0|0:0,0:0:0:0:
208,17,63807,1,10,1:0:0:0:
124,79,63979,2,0,L|82:126,3,40.2500007677078,0|4|4|4,1:0|1:3|1:3|1:3,0:0:0:0:
146,128,64324,2,0,L|127:188,3,40.2500007677078,8|8|8|8,1:3|1:3|1:3|1:3,0:0:0:0:
186,163,64669,2,0,L|195:225,3,40.2500007677078,12|12|12|12,1:3|1:3|1:3|1:3,0:0:0:0:
237,177,65014,6,0,B|327:156|382:226|382:226|392:191|432:167,1,241.500004606247,4|0,1:0|1:0,0:0:0:0:
275,306,65876,1,0,1:0:0:0:
359,364,66048,2,0,B|454:380|511:325|511:325|477:298|474:225,1,241.500004606247,10|8,1:0|1:0,0:0:0:0:
501,59,66910,1,0,1:0:0:0:
403,97,67083,2,0,P|374:119|357:185,1,80.5000015354157,8|0,1:0|1:0,0:0:0:0:
271,97,67428,2,0,P|255:60|224:35,1,80.5000015354157,8|0,1:0|1:0,0:0:0:0:
222,187,67772,5,4,1:0:0:0:
256,192,67859,12,14,69841,1:0:0:0:
352,153,70495,5,4,1:0:0:0:
491,285,70860,1,4,1:0:0:0:
352,153,73276,5,4,1:0:0:0:
190,241,73625,1,4,1:0:0:0:
352,153,75998,5,4,1:0:0:0:
425,329,76362,1,4,1:0:0:0:
352,153,78755,5,4,1:0:0:0:
217,16,79118,1,4,1:0:0:0:
379,209,81049,6,0,L|341:129,1,62.9999980773926,0|0,1:3|1:3,0:0:0:0:
241,257,81541,6,0,P|206:315|127:347,1,125.999996154785,4|2,1:0|1:0,0:0:0:0:
75,325,82058,1,0,1:0:0:0:
41,250,82230,2,0,L|35:164,2,62.9999980773926,10|0|2,1:0|1:0|1:0,0:0:0:0:
136,116,82920,2,0,L|140:178,1,62.9999980773926,2|0,1:0|1:0,0:0:0:0:
261,289,83437,1,0,1:0:0:0:
323,236,83609,2,0,P|353:218|394:220,1,62.9999980773926,10|0,1:0|0:0,0:0:0:0:
445,264,83942,2,0,L|489:298,3,31.4999990386963,2|0|0|0,1:0|1:0|1:0|1:0,0:0:0:0:
478,232,84286,6,0,L|488:146,1,62.9999980773926,4|0,1:0|0:0,0:0:0:0:
438,94,84644,2,0,L|428:8,1,62.9999980773926,2|0,1:0|1:0,0:0:0:0:
353,57,84988,2,0,P|316:72|274:58,2,62.9999980773926,10|0|2,1:0|1:0|1:0,0:0:0:0:
239,175,85678,2,0,P|213:199|205:245,1,62.9999980773926,2|0,1:0|1:0,0:0:0:0:
58,144,86195,2,0,P|32:120|24:74,1,62.9999980773926,2|10,1:0|1:0,0:0:0:0:
179,45,86712,2,0,L|205:21,3,31.4999990386963,2|0|0|0,1:0|1:0|1:0|1:0,0:0:0:0:
223,71,87057,6,0,B|230:111|230:111|211:136|211:136|218:168|218:168|200:207,1,125.999996154785,6|2,1:0|1:0,0:0:0:0:
157,249,87560,1,2,1:0:0:0:
199,326,87747,2,0,P|216:340|282:349,1,62.9999980773926,10|2,1:0|1:0,0:0:0:0:
330,321,88091,1,2,1:0:0:0:
457,221,88437,2,0,L|470:288,1,62.9999980773926,2|0,1:0|1:0,0:0:0:0:
495,121,88954,2,0,L|482:59,1,62.9999980773926,2|10,1:0|1:0,0:0:0:0:
336,17,89463,2,0,L|291:-2,4,31.4999990386963,2|0|0|0|6,1:0|1:0|1:0|1:0|1:0,0:0:0:0:
256,192,89894,12,4,92229,1:0:0:0:
150,54,92574,6,0,P|190:51|242:74,1,80.5000015354157,12|0,1:0|1:0,0:0:0:0:
312,125,92919,2,0,P|349:137|389:134,1,80.5000015354157,2|0,1:0|1:0,0:0:0:0:
492,115,93263,2,0,L|474:204,2,80.5000015354157,12|0|2,1:0|1:0|1:0,0:0:0:0:
465,12,93781,1,0,1:0:0:0:
364,40,93953,1,12,1:0:0:0:
262,12,94126,1,0,1:0:0:0:
160,37,94298,2,0,L|79:82,1,80.5000015354157,2|0,1:0|1:0,0:0:0:0:
182,126,94643,2,0,L|263:171,1,80.5000015354157,12|0,1:0|1:0,0:0:0:0:
160,215,94988,2,0,L|79:260,1,80.5000015354157,2|0,1:0|1:0,0:0:0:0:
205,346,95332,5,12,1:0:0:0:
205,346,95505,1,0,1:0:0:0:
306,370,95677,2,0,P|357:364|399:329,1,80.5000015354157,2|0,1:0|1:0,0:0:0:0:
318,265,96022,2,0,P|274:238|251:188,1,80.5000015354157,12|0,1:0|1:0,0:0:0:0:
351,164,96367,2,0,P|394:137|417:87,1,80.5000015354157,2|0,1:0|1:0,0:0:0:0:
318,62,96712,2,0,L|231:24,1,80.5000015354157,12|0,1:0|1:0,0:0:0:0:
142,55,97057,1,2,1:0:0:0:
142,55,97229,1,0,1:0:0:0:
196,143,97401,2,0,P|192:187|155:226,1,80.5000015354157,12|0,1:0|1:0,0:0:0:0:
242,289,97746,2,0,P|246:333|283:372,1,80.5000015354157,2|0,1:0|1:0,0:0:0:0:
419,365,98091,5,12,1:0:0:0:
419,365,98263,1,0,1:0:0:0:
409,264,98430,2,0,L|447:181,1,80.5000015354157,2|0,1:0|1:0,0:0:0:0:
390,103,98770,2,0,L|356:176,2,80.5000015354157,12|0|2,1:0|1:0|1:0,0:0:0:0:
336,12,99287,1,0,1:0:0:0:
239,52,99459,1,12,1:0:0:0:
232,156,99632,1,0,1:0:0:0:
135,196,99804,2,0,P|86:200|40:169,1,80.5000015354157,2|0,1:0|1:0,0:0:0:0:
63,292,100149,2,0,P|48:329|51:372,1,80.5000015354157,12|0,1:0|1:0,0:0:0:0:
156,346,100500,2,0,L|248:283,1,80.5000015354157,2|0,1:0|1:0,0:0:0:0:
325,314,100844,1,12,1:0:0:0:
256,192,100931,12,4,103603,1:0:0:0:
49,338,105478,6,0,L|58:380,2,23.3333333333333,0|0|0,1:0|1:0|1:0,0:0:0:0:
20,316,105655,2,0,P|42:283|89:258,1,80.5000015354157,8|0,1:0|1:0,0:0:0:0:
400,327,106349,6,0,B|435:289|435:289|422:241|422:241|475:167|427:102,1,241.500004606247,4|0,1:0|1:0,0:0:0:0:
232,23,107226,1,0,1:0:0:0:
215,126,107398,2,0,P|166:170|59:154,1,161.000003070831,10|0,1:0|0:0,0:0:0:0:
126,77,107915,1,10,1:0:0:0:
38,267,108260,2,0,L|1:347,1,80.5000015354157,0|10,1:0|1:0,0:0:0:0:
101,379,108605,1,0,1:0:0:0:
184,315,108777,2,0,P|211:289|283:269,1,80.5000015354157,10|0,1:0|0:0,0:0:0:0:
312,187,109122,6,0,B|327:120|414:70|414:70|305:93,1,241.500004606247,4|0,1:0|1:0,0:0:0:0:
478,238,109984,1,0,1:0:0:0:
445,337,110156,2,0,P|392:364|301:320,1,161.000003070831,10|0,1:0|0:0,0:0:0:0:
270,225,110674,1,8,1:0:0:0:
424,83,111018,1,0,1:0:0:0:
322,56,111191,2,0,P|307:37|300:20,4,40.2500007677078,8|8|8|8|8,1:0|1:3|1:3|1:3|1:3,0:0:0:0:
325,170,111708,1,8,1:0:0:0:
325,170,111794,1,8,1:0:0:0:
325,170,111880,6,0,P|297:210|241:229,1,80.5000015354157,4|0,1:0|1:0,0:0:0:0:
166,210,112225,1,2,1:0:0:0:
225,123,112398,1,0,1:0:0:0:
183,27,112570,2,0,P|151:13|94:19,1,80.5000015354157,10|0,1:0|1:0,0:0:0:0:
129,116,112915,1,2,1:0:0:0:
166,210,113087,1,0,1:0:0:0:
120,304,113260,2,0,L|200:362,1,80.5000015354157,10|0,1:0|1:0,0:0:0:0:
267,286,113605,2,0,P|305:279|351:297,1,80.5000015354157,2|0,1:0|1:0,0:0:0:0:
399,380,113949,1,10,1:0:0:0:
355,212,114122,2,0,B|357:161|357:161|427:59,1,161.000003070831,0|4,1:0|1:0,0:0:0:0:
278,110,114639,6,0,B|187:243|187:243|187:189|150:166,1,241.500004606247,4|0,1:0|1:0,0:0:0:0:
20,22,115501,1,0,1:0:0:0:
40,124,115674,2,0,L|15:223,1,80.5000015354157,10|0,1:0|0:0,0:0:0:0:
84,284,116018,2,0,L|103:362,2,80.5000015354157,0|8|0,0:0|1:0|0:0,0:0:0:0:
180,316,116536,2,0,P|215:334|255:333,1,80.5000015354157,0|10,1:0|1:0,0:0:0:0:
339,271,116880,1,0,1:0:0:0:
238,246,117053,2,0,P|201:229|176:195,1,80.5000015354157,0|0,0:0|0:0,0:0:0:0:
283,125,117398,6,0,B|354:85|354:85|433:96|433:96|506:54,1,241.500004606247,4|0,1:0|1:0,0:0:0:0:
381,229,118260,1,0,1:0:0:0:
277,217,118432,2,0,P|226:197|200:87,1,161.000003070831,10|0,1:0|0:0,0:0:0:0:
234,5,118949,1,10,1:0:0:0:
130,20,119122,2,0,L|64:40,3,40.2500007677078,0|4|4|4,1:0|1:3|1:3|1:3,0:0:0:0:
114,79,119467,2,0,L|62:125,3,40.2500007677078,8|8|8|8,1:3|1:3|1:3|1:3,0:0:0:0:
124,139,119811,2,0,L|96:202,3,40.2500007677078,12|12|12|12,1:3|1:3|1:3|1:3,0:0:0:0:
158,189,120156,6,0,P|180:260|54:358,1,241.500004606247,4|0,1:0|1:0,0:0:0:0:
21,155,121018,1,0,1:0:0:0:
80,68,121191,2,0,B|136:51|190:89|190:89|255:136|309:116,1,241.500004606247,10|8,1:0|1:0,0:0:0:0:
496,28,122053,1,0,1:0:0:0:
440,116,122225,2,0,P|425:149|434:214,1,80.5000015354157,8|0,1:0|1:0,0:0:0:0:
473,286,122570,2,0,P|488:319|479:384,1,80.5000015354157,8|0,1:0|1:0,0:0:0:0:
365,277,122915,6,0,P|338:247|279:238,1,80.5000015354157,4|0,1:0|1:0,0:0:0:0:
203,275,123260,1,2,1:0:0:0:
118,213,123432,1,0,1:0:0:0:
18,245,123605,2,0,P|9:206|41:143,1,80.5000015354157,14|0,1:0|1:0,0:0:0:0:
82,84,123949,1,2,1:0:0:0:
174,133,124122,1,0,1:0:0:0:
263,78,124294,2,0,B|294:56|294:56|363:52,1,80.5000015354157,14|0,1:0|1:0,0:0:0:0:
328,158,124639,2,0,B|306:189|306:189|303:231,1,80.5000015354157,2|0,1:0|1:0,0:0:0:0:
408,226,124984,1,10,1:0:0:0:
388,326,125156,2,0,P|309:360|230:336,1,161.000003070831,0|10,1:0|1:0,0:0:0:0:
162,207,125664,6,0,L|159:89,1,90.9999958343508,4|0,1:0|1:0,0:0:0:0:
245,34,126008,2,0,L|247:124,1,90.9999958343508,10|0,1:0|1:0,0:0:0:0:
335,204,126353,1,2,1:0:0:0:
442,153,126526,1,0,1:0:0:0:
505,252,126698,2,0,P|492:302|451:328,1,90.9999958343508,10|0,1:0|1:0,0:0:0:0:
343,321,127043,2,0,P|298:322|264:351,1,90.9999958343508,2|0,1:0|1:0,0:0:0:0:
147,334,127388,1,10,1:0:0:0:
201,229,127560,1,0,1:0:0:0:
144,125,127732,2,0,P|107:100|35:101,1,90.9999958343508,2|0,1:0|1:0,0:0:0:0:
66,214,128077,1,10,1:0:0:0:
138,304,128240,6,0,L|152:352,2,30.3333319447836,0|0|0,1:0|1:0|1:0,0:0:0:0:
103,298,128437,1,12,1:3:0:0:
