osu file format v14

[General]
AudioFilename: audio.mp3
AudioLeadIn: 0
PreviewTime: 48376
Countdown: 0
SampleSet: Soft
StackLeniency: 0.3
Mode: 0
LetterboxInBreaks: 0
WidescreenStoryboard: 1

[Editor]
DistanceSpacing: 0.9
BeatDivisor: 4
GridSize: 8
TimelineZoom: 1.400001

[Metadata]
Title:Novyj geroj
TitleUnicode:Новый герой
Artist:[AMATORY]
ArtistUnicode:[AMATORY]
Creator:Sieg
Version:Slayed's Easy
Source:
Tags:new hero [аматори] аматори amatory vii russian alternative rock cut version themefisto fcl marmowka slayed
BeatmapID:1079971
BeatmapSetID:487843

[Difficulty]
HPDrainRate:2.9
CircleSize:3.1
OverallDifficulty:2.7
ApproachRate:3.7
SliderMultiplier:1
SliderTickRate:1

[Events]
//Background and Video events
0,0,"bg.jpg",0,0
//Break Periods
2,70860,80186
//Storyboard Layer 0 (Background)
//Storyboard Layer 1 (Fail)
//Storyboard Layer 2 (Pass)
//Storyboard Layer 3 (Foreground)
//Storyboard Sound Samples

[TimingPoints]
4325,344.827586206897,4,2,1,50,1,0
10531,-100,4,2,1,60,0,0
10704,-100,4,2,1,40,0,0
13980,-100,4,2,1,70,0,0
15359,-100,4,2,1,70,0,1
15402,-100,4,2,1,70,0,0
25004,344.827586206897,4,2,1,70,1,0
25004,-100,4,2,1,70,0,0
26393,344.827586206897,4,2,1,70,1,0
26393,-100,4,2,1,70,0,0
28461,-100,4,2,1,70,0,0
29151,-100,4,2,1,70,0,0
33979,-100,4,2,1,70,0,0
34668,-100,4,2,1,70,0,0
36048,-100,4,2,1,70,0,0
36940,344.827586206897,4,2,1,70,1,0
37773,344.827586206897,4,2,1,70,1,0
37773,-100,4,2,1,70,0,0
38807,344.827586206897,4,2,1,70,1,0
39497,-100,4,2,1,70,0,0
40186,-100,4,2,1,70,0,0
45014,-100,4,2,1,70,0,0
45704,-100,4,2,1,70,0,0
47083,-100,4,2,1,50,0,0
48462,-100,4,2,1,70,0,1
56035,344.827586206897,4,2,1,70,1,1
56035,-100,4,2,1,70,0,1
56566,344.827586206897,4,2,1,70,1,1
56566,-100,4,2,1,70,0,1
57428,344.827586206897,4,2,1,70,1,1
57428,-100,4,2,1,70,0,1
58117,344.827586206897,4,2,1,70,1,1
59453,-100,4,2,1,70,0,0
59496,-100,4,2,1,70,0,1
69884,-100,4,2,1,70,0,0
70495,344.827586206897,4,2,1,70,1,0
70860,344.827586206897,4,2,1,70,1,0
73276,344.827586206897,4,2,1,70,1,0
73625,344.827586206897,4,2,1,70,1,0
75998,344.827586206897,4,2,1,70,1,0
76362,344.827586206897,4,2,1,70,1,0
78755,344.827586206897,4,2,1,70,1,0
79118,344.827586206897,4,2,1,70,1,0
81049,344.827586206897,4,2,1,50,1,0
81049,-100,4,2,1,50,0,0
81541,344.827586206897,4,2,1,70,1,0
81541,-100,4,2,1,70,0,0
83942,344.827586206897,4,2,1,60,1,0
83942,-100,4,2,1,60,0,0
84644,344.827586206897,4,2,1,70,1,0
84644,-100,4,2,1,70,0,0
87560,344.827586206897,4,2,1,70,1,0
87560,-100,4,2,1,70,0,0
87747,344.827586206897,4,2,1,70,1,0
87747,-100,4,2,1,70,0,0
88437,344.827586206897,4,2,1,70,1,0
88437,-100,4,2,1,70,0,0
89463,344.827586206897,4,2,1,70,1,0
89463,-100,4,2,1,70,0,0
91195,344.827586206897,4,2,1,70,1,0
92574,-100,4,2,1,70,0,1
98048,-100,4,2,1,70,0,0
98091,-100,4,2,1,70,0,1
98430,344.827586206897,4,2,1,70,1,1
98430,-100,4,2,1,70,0,1
98770,344.827586206897,4,2,1,70,1,1
98770,-100,4,2,1,70,0,1
100500,344.827586206897,4,2,1,70,1,1
100500,-100,4,2,1,70,0,1
103560,-100,4,2,1,70,0,0
103603,-100,4,2,1,70,0,1
103646,-100,4,2,1,70,0,0
105478,344.827586206897,4,2,1,50,1,0
105655,344.827586206897,4,2,1,70,1,0
105655,-100,4,2,1,70,0,0
106349,344.827586206897,4,2,1,70,1,1
106349,-100,4,2,1,70,0,1
107226,344.827586206897,4,2,1,70,1,1
107226,-100,4,2,1,70,0,1
107743,344.827586206897,4,2,1,70,1,1
107743,-100,4,2,1,70,0,1
114596,-100,4,2,1,70,0,0
114639,-100,4,2,1,70,0,1
125630,-100,4,2,1,70,0,0
125664,344.827586206897,4,2,1,70,1,1
125664,-100,4,2,1,70,0,1
125707,-100,4,2,1,70,0,0
128240,344.827586206897,4,2,1,70,1,0
128240,-100,4,2,1,70,0,0
128437,344.827586206897,4,2,1,70,1,0

[Colours]
Combo1 : 209,63,49
Combo2 : 2,132,130
Combo3 : 56,52,54
Combo4 : 176,149,91

[HitObjects]
65,149,13980,6,0,P|126:134|175:124,1,100,12|12,1:3|1:3,0:0:0:0:
250,146,14669,1,12,1:3:0:0:
303,218,15014,1,8,1:0:0:0:
233,275,15359,6,0,P|174:290|112:268,1,100,4|10,1:0|1:0,0:0:0:0:
91,203,16049,2,0,P|95:154|99:95,1,100,2|10,1:0|1:0,0:0:0:0:
171,51,16738,2,0,P|225:38|286:47,1,100,2|10,1:0|1:0,0:0:0:0:
350,80,17428,2,0,P|428:92|467:85,1,100,2|10,1:0|1:0,0:0:0:0:
489,169,18118,6,0,P|482:223|472:288,2,100,2|10|2,1:0|1:0|1:0,0:0:0:0:
448,89,19152,1,10,1:0:0:0:
365,124,19497,2,0,P|293:137|250:125,1,100,2|10,1:0|1:0,0:0:0:0:
186,91,20187,2,0,P|179:150|175:202,1,100,2|10,1:0|1:0,0:0:0:0:
232,260,20876,5,4,1:0:0:0:
170,325,21221,1,10,1:0:0:0:
248,368,21566,2,0,P|325:373|364:359,1,100,2|10,1:0|1:0,0:0:0:0:
415,309,22256,2,0,P|417:253|420:180,1,100,2|10,1:0|1:0,0:0:0:0:
362,138,22945,1,2,1:0:0:0:
418,67,23290,1,10,1:0:0:0:
335,30,23635,6,0,P|260:20|220:28,1,100,2|10,1:0|1:0,0:0:0:0:
157,68,24325,2,0,P|163:120|172:184,1,100,2|8,1:0|1:0,0:0:0:0:
94,216,25004,2,0,B|276:176|196:310|405:263,1,300,4|8,1:0|1:0,0:0:0:0:
456,226,26393,6,0,P|475:169|355:116,1,200,4|10,1:0|1:0,0:0:0:0:
305,168,27427,1,0,0:0:0:0:
230,117,27772,2,0,P|224:68|216:2,2,100,2|0|10,3:0|0:0|1:0,0:0:0:0:
154,166,28806,1,0,1:0:0:0:
72,206,29151,6,0,P|140:257|239:196,1,200,2|10,3:0|1:0,0:0:0:0:
230,117,30186,1,0,0:0:0:0:
161,55,30530,2,0,P|105:57|39:61,2,100,2|0|10,3:0|1:0|1:0,0:0:0:0:
230,117,31565,1,0,0:0:0:0:
301,58,31910,6,0,P|364:63|359:198,1,200,4|10,1:0|1:0,0:0:0:0:
308,230,32944,1,0,0:0:0:0:
221,204,33289,2,0,P|152:194|97:211,1,100,2|0,3:0|0:0,0:0:0:0:
47,249,33979,2,0,P|34:189|21:127,1,100,10|0,1:0|1:0,0:0:0:0:
87,84,34668,6,0,P|153:77|213:91,1,100,2|0,3:0|0:0,0:0:0:0:
265,125,35358,2,0,P|346:132|390:119,1,100,10|0,1:0|0:0,0:0:0:0:
256,192,36048,12,4,37457,1:0:0:0:
42,161,38807,6,0,P|106:144|148:149,1,100,2|10,1:0|1:0,0:0:0:0:
217,191,39497,2,0,P|211:242|205:294,1,100,0|10,1:0|1:0,0:0:0:0:
274,348,40186,2,0,P|345:358|391:348,1,100,2|10,3:0|1:0,0:0:0:0:
444,299,40876,6,0,B|428:230|428:230|442:168|442:168|424:94,1,200,0|2,1:0|1:0,0:0:0:0:
356,46,41911,1,2,1:0:0:0:
272,78,42255,2,0,P|208:82|162:70,1,100,2|10,1:0|1:0,0:0:0:0:
87,45,42945,2,0,P|77:102|70:151,1,100,4|10,1:0|1:0,0:0:0:0:
116,221,43635,6,0,P|178:243|224:237,1,100,0|10,0:0|1:0,0:0:0:0:
290,197,44324,2,0,P|352:188|390:196,1,100,2|10,1:0|1:0,0:0:0:0:
465,241,45014,2,0,P|493:315|385:334,1,200,2|4,1:0|1:0,0:0:0:0:
323,297,46049,1,10,1:0:0:0:
238,326,46393,6,0,B|126:364|137:302|37:325,2,200,0|8|8,1:0|1:0|1:0,0:0:0:0:
402,253,48462,1,4,1:0:0:0:
287,180,48980,6,0,P|219:172|172:182,1,100,0|0,1:0|1:0,0:0:0:0:
151,202,49497,2,0,P|143:121|137:32,1,150,10|8,1:0|1:0,0:0:0:0:
268,16,50531,2,0,P|323:12|371:20,1,100,2|10,1:0|1:0,0:0:0:0:
443,67,51221,2,0,P|438:112|426:222,1,150,4|0,1:0|1:0,0:0:0:0:
351,265,52083,6,0,P|291:279|219:172,1,200,0|10,1:0|1:0,0:0:0:0:
295,135,53118,2,0,P|221:132|134:129,1,150,0|10,1:0|1:0,0:0:0:0:
78,189,53980,2,0,P|54:261|93:335,1,150,4|0,1:0|1:0,0:0:0:0:
166,359,54842,6,0,B|267:388|264:323|377:364,1,200,0|8,1:0|1:0,0:0:0:0:
434,304,55876,2,0,B|449:235|449:235|433:179|433:179|447:103,1,200.5,0|8,1:0|1:0,0:0:0:0:
324,49,57083,1,2,1:0:0:0:
241,84,57428,6,0,P|176:89|133:80,1,100,10|2,1:0|1:0,0:0:0:0:
61,42,58117,2,0,P|55:100|51:161,1,100,10|2,1:0|1:0,0:0:0:0:
87,224,58807,2,0,P|119:253|256:199,1,200,10|4,1:0|1:0,0:0:0:0:
283,78,60014,1,0,1:0:0:0:
206,30,60359,6,0,P|133:24|96:136,1,200,0|8,1:0|1:0,0:0:0:0:
165,179,61393,2,0,P|216:172|283:163,1,100,0|0,1:0|1:0,0:0:0:0:
306,150,61910,2,0,P|385:154|423:156,1,100,2|4,0:0|1:0,0:0:0:0:
496,255,62772,1,0,1:0:0:0:
419,303,63117,6,0,P|350:314|303:301,1,100,0|0,1:0|0:0,0:0:0:0:
278,294,63634,2,0,P|203:284|168:295,1,100,0|0,1:0|1:0,0:0:0:0:
101,333,64324,2,0,B|138:237|66:235|116:128,1,200,8|4,1:3|1:0,0:0:0:0:
187,25,65531,1,0,1:0:0:0:
263,73,65876,6,0,B|364:117|353:42|473:86,1,200,0|8,1:0|1:0,0:0:0:0:
495,210,67083,2,0,P|489:263|482:327,2,100,8|8|4,1:0|1:0|1:0,0:0:0:0:
417,164,68117,1,2,1:0:0:0:
332,195,68462,6,0,P|275:202|229:187,1,100,10|2,1:0|1:0,0:0:0:0:
156,145,69152,2,0,P|104:137|92:263,1,200,10|14,1:0|1:0,0:0:0:0:
61,164,81541,6,0,P|126:159|166:172,1,100,4|2,1:0|1:0,0:0:0:0:
239,208,82230,2,0,P|303:216|343:206,1,100,10|2,1:0|1:0,0:0:0:0:
420,172,82920,2,0,P|453:108|353:47,1,200,2|10,1:0|1:0,0:0:0:0:
201,108,84286,5,4,1:0:0:0:
133,172,84644,2,0,P|120:226|133:273,1,100,2|10,1:0|1:0,0:0:0:0:
201,324,85333,2,0,P|253:320|312:317,1,100,2|2,1:0|1:0,0:0:0:0:
381,276,86023,1,0,0:0:0:0:
432,202,86368,2,0,P|437:135|418:91,1,100,10|2,1:0|1:0,0:0:0:0:
346,64,87057,6,0,B|179:123|211:2|45:49|45:49|38:93|71:135,1,400,6|2,1:0|1:0,0:0:0:0:
127,200,88781,2,0,P|138:263|118:317,1,100,2|10,0:0|1:0,0:0:0:0:
51,251,89463,1,4,1:0:0:0:
256,192,89807,12,12,92574,1:0:0:0:
116,290,93953,6,0,P|98:232|109:178,1,100,12|2,1:0|1:0,0:0:0:0:
170,134,94643,2,0,P|221:133|272:134,1,100,12|2,1:0|1:0,0:0:0:0:
348,177,95332,5,12,1:0:0:0:
382,260,95677,1,2,1:0:0:0:
313,318,96022,2,0,P|248:322|207:308,1,100,12|2,1:0|1:0,0:0:0:0:
136,267,96712,2,0,P|142:217|148:163,1,100,12|2,1:0|1:0,0:0:0:0:
217,111,97401,2,0,P|272:96|332:108,1,100,12|2,1:0|1:0,0:0:0:0:
393,143,98091,5,12,1:0:0:0:
429,225,98430,1,2,1:0:0:0:
384,302,98770,1,12,1:0:0:0:
297,326,99114,2,0,P|221:328|180:310,1,100,2|12,1:0|1:0,0:0:0:0:
127,266,99804,2,0,P|130:214|134:151,1,100,2|12,1:0|1:0,0:0:0:0:
191,94,100500,5,2,1:0:0:0:
270,134,100844,2,0,B|380:166|361:91|483:137,2,200,12|12|12,1:0|1:0|1:0,0:0:0:0:
196,185,102568,2,0,P|188:235|211:283,2,100,2|12|0,1:0|1:0|0:0,0:0:0:0:
270,133,103603,6,0,P|326:135|368:263,1,200,12|0,1:0|0:0,0:0:0:0:
192,342,106349,6,0,P|131:326|112:243,1,150,4|0,1:0|1:0,0:0:0:0:
179,185,107226,2,0,B|281:227|277:152|388:196,1,200,0|10,1:0|1:0,0:0:0:0:
444,134,108260,2,0,P|457:89|362:52,1,150,0|10,1:0|1:0,0:0:0:0:
302,84,109122,6,0,P|255:80|186:75,1,100,4|0,1:0|0:0,0:0:0:0:
164,101,109639,2,0,P|137:166|166:246,1,150,0|10,1:0|1:0,0:0:0:0:
232,292,110501,2,0,P|301:299|341:287,1,100,0|0,0:0|0:0,0:0:0:0:
394,228,111191,2,0,P|396:159|397:117,1,100,8|8,1:0|1:3,0:0:0:0:
328,68,111880,6,0,P|260:46|193:139,1,200,4|10,1:0|1:0,0:0:0:0:
123,194,112915,1,2,1:0:0:0:
49,141,113260,2,0,P|43:88|39:35,1,100,10|2,1:0|1:0,0:0:0:0:
127,61,113949,2,0,P|186:67|233:49,1,100,10|0,1:0|0:0,0:0:0:0:
309,24,114639,6,0,B|297:92|297:92|316:152|316:152|302:237,1,200,4|0,1:0|0:0,0:0:0:0:
223,257,115674,2,0,P|146:260|101:206,1,150,10|8,1:0|1:0,0:0:0:0:
149,131,116536,2,0,P|221:135|309:140,1,150,0|0,1:0|0:0,0:0:0:0:
372,190,117398,6,0,P|381:255|361:296,1,100,4|0,1:0|0:0,0:0:0:0:
326,302,117915,2,0,P|259:297|174:291,1,150,0|10,1:0|1:0,0:0:0:0:
108,232,118777,1,0,0:0:0:0:
75,148,119122,2,0,P|67:102|87:35,1,100,0|8,1:0|1:3,0:0:0:0:
159,11,119811,1,12,1:3:0:0:
234,59,120156,6,0,B|344:97|329:27|448:69,1,200,4|0,1:0|0:0,0:0:0:0:
494,126,121191,2,0,P|488:191|480:289,1,150,10|8,1:0|1:0,0:0:0:0:
398,311,122053,2,0,P|333:311|278:240,1,150,0|8,1:0|1:0,0:0:0:0:
260,162,122915,6,0,P|257:109|254:43,1,100,4|2,1:0|1:0,0:0:0:0:
174,21,123605,2,0,P|116:12|63:24,1,100,10|2,1:0|1:0,0:0:0:0:
16,87,124294,2,0,B|26:116|33:149|33:149|65:183|65:183|46:221|33:259|33:259|125:321|227:261,1,397.5,10|4,1:0|1:0,0:0:0:0:
256,192,125836,12,12,128437,1:3:0:0:
