osu file format v14

[General]
AudioFilename: audio.mp3
AudioLeadIn: 0
PreviewTime: 48376
Countdown: 0
SampleSet: Soft
StackLeniency: 0.3
Mode: 0
LetterboxInBreaks: 0
WidescreenStoryboard: 1

[Editor]
Bookmarks: 4324,15359,26393,37457,44784,59497,70495,81541,92574,103603,128437
DistanceSpacing: 1.1
BeatDivisor: 4
GridSize: 8
TimelineZoom: 1.700001

[Metadata]
Title:Novyj geroj
TitleUnicode:Новый герой
Artist:[AMATORY]
ArtistUnicode:[AMATORY]
Creator:Sieg
Version:Marmo's Normal
Source:
Tags:new hero [аматори] аматори amatory vii russian alternative rock cut version themefisto fcl marmowka slayed
BeatmapID:1118002
BeatmapSetID:487843

[Difficulty]
HPDrainRate:3.5
CircleSize:3.8
OverallDifficulty:3.5
ApproachRate:5.5
SliderMultiplier:1.1
SliderTickRate:1

[Events]
//Background and Video events
0,0,"bg.jpg",0,0
//Break Periods
2,70695,80341
//Storyboard Layer 0 (Background)
//Storyboard Layer 1 (Fail)
//Storyboard Layer 2 (Pass)
//Storyboard Layer 3 (Foreground)
//Storyboard Sound Samples

[TimingPoints]
4325,344.827586206897,4,2,1,40,1,0
13980,-100,4,2,1,70,0,0
15359,-100,4,2,1,70,0,1
15402,-100,4,2,1,70,0,0
25004,344.827586206897,4,2,1,70,1,0
25004,-100,4,2,1,70,0,0
26393,344.827586206897,4,2,1,70,1,0
26393,-100,4,2,1,70,0,0
28461,-100,4,2,1,70,0,0
29151,-100,4,2,1,70,0,0
33979,-100,4,2,1,70,0,0
34668,-100,4,2,1,70,0,0
36048,-100,4,2,1,70,0,0
36940,344.827586206897,4,2,1,70,1,0
37773,344.827586206897,4,2,1,70,1,0
37773,-100,4,2,1,70,0,0
38807,344.827586206897,4,2,1,70,1,0
39497,-100,4,2,1,70,0,0
40186,-100,4,2,1,70,0,0
45014,-100,4,2,1,70,0,0
45704,-100,4,2,1,70,0,0
47083,-100,4,2,1,50,0,0
48462,-100,4,2,1,70,0,1
56035,344.827586206897,4,2,1,70,1,1
56035,-100,4,2,1,70,0,1
56566,344.827586206897,4,2,1,70,1,1
56566,-100,4,2,1,70,0,1
57428,344.827586206897,4,2,1,70,1,1
57428,-100,4,2,1,70,0,1
58117,344.827586206897,4,2,1,70,1,1
59453,-100,4,2,1,70,0,0
59496,-100,4,2,1,70,0,1
69884,-100,4,2,1,70,0,0
70495,344.827586206897,4,2,1,70,1,0
70860,344.827586206897,4,2,1,70,1,0
73276,344.827586206897,4,2,1,70,1,0
73625,344.827586206897,4,2,1,70,1,0
75998,344.827586206897,4,2,1,70,1,0
76362,344.827586206897,4,2,1,70,1,0
78755,344.827586206897,4,2,1,70,1,0
79118,344.827586206897,4,2,1,70,1,0
81049,344.827586206897,4,2,1,50,1,0
81049,-100,4,2,1,50,0,0
81541,344.827586206897,4,2,1,70,1,0
81541,-100,4,2,1,70,0,0
83942,344.827586206897,4,2,1,60,1,0
83942,-100,4,2,1,60,0,0
84644,344.827586206897,4,2,1,70,1,0
84644,-100,4,2,1,70,0,0
87560,344.827586206897,4,2,1,70,1,0
87560,-100,4,2,1,70,0,0
87747,344.827586206897,4,2,1,70,1,0
87747,-100,4,2,1,70,0,0
88437,344.827586206897,4,2,1,70,1,0
88437,-100,4,2,1,70,0,0
89463,344.827586206897,4,2,1,70,1,0
89463,-100,4,2,1,70,0,0
91195,344.827586206897,4,2,1,70,1,0
92574,-100,4,2,1,70,0,1
98048,-100,4,2,1,70,0,0
98091,-100,4,2,1,70,0,1
98430,344.827586206897,4,2,1,70,1,1
98430,-100,4,2,1,70,0,1
98770,344.827586206897,4,2,1,70,1,1
98770,-100,4,2,1,70,0,1
100500,344.827586206897,4,2,1,70,1,1
100500,-100,4,2,1,70,0,1
103560,-100,4,2,1,70,0,0
103603,-100,4,2,1,70,0,1
103646,-100,4,2,1,70,0,0
105478,344.827586206897,4,2,1,50,1,0
105655,344.827586206897,4,2,1,70,1,0
105655,-100,4,2,1,70,0,0
106349,344.827586206897,4,2,1,70,1,1
106349,-100,4,2,1,70,0,1
107226,344.827586206897,4,2,1,70,1,1
107226,-100,4,2,1,70,0,1
107743,344.827586206897,4,2,1,70,1,1
107743,-100,4,2,1,70,0,1
114596,-100,4,2,1,70,0,0
114639,-100,4,2,1,70,0,1
125630,-100,4,2,1,70,0,0
125664,344.827586206897,4,2,1,70,1,1
125664,-100,4,2,1,70,0,1
125707,-100,4,2,1,70,0,0
128240,344.827586206897,4,2,1,70,1,0
128240,-100,4,2,1,70,0,0
128437,344.827586206897,4,2,1,70,1,0

[Colours]
Combo1 : 209,63,49
Combo2 : 2,132,130
Combo3 : 56,52,54
Combo4 : 176,149,91

[HitObjects]
157,297,4324,6,0,P|227:260|320:264,1,165,4|0,1:0|0:0,0:0:0:0:
366,285,5014,1,0,0:0:0:0:
460,207,5359,2,0,P|477:157|470:98,2,110
358,143,6393,2,0,B|294:123|294:123|250:135,1,110
174,228,7083,6,0,P|117:279|23:264,1,165,0|0,0:0|0:0,0:0:0:0:
0,219,7773,1,0,0:0:0:0:
11,106,8118,2,0,P|36:53|95:22,2,110
127,136,9152,2,0,P|187:151|238:132,1,110,0|0,0:0|0:0,0:0:0:0:
338,79,9842,6,0,B|379:44|449:40|449:40|439:98,1,165,0|0,0:0|0:0,0:0:0:0:
429,143,10531,1,12,1:3:0:0:
428,264,10876,2,0,P|440:310|487:356,2,110,0|0|0,0:0|0:0|0:0,0:0:0:0:
327,196,11911,2,0,P|275:179|219:198,1,110,0|0,0:0|0:0,0:0:0:0:
133,275,12600,6,0,P|105:179|129:119,1,165
173,82,13290,1,0,0:0:0:0:
223,194,13635,1,0,0:0:0:0:
284,298,13980,2,0,B|343:298|343:298|383:233|383:233|384:170|384:170|341:113|341:113|271:113,1,330,12|8,1:3|1:0,0:0:0:0:
173,70,15359,6,0,B|114:69|114:69|68:93,1,110,4|10,1:0|1:0,0:0:0:0:
18,203,16049,2,0,L|6:262,1,55,2|0,1:0|0:0,0:0:0:0:
17,316,16393,1,10,1:0:0:0:
137,298,16738,2,0,P|189:280|255:285,1,110,2|10,1:0|1:0,0:0:0:0:
362,306,17428,2,0,P|391:309|418:302,1,55,2|0,1:0|0:0,0:0:0:0:
460,262,17773,1,10,1:0:0:0:
455,141,18118,6,0,P|440:88|440:26,1,110,2|10,1:0|1:0,0:0:0:0:
324,71,18807,2,0,P|274:91|206:87,1,110,2|10,1:0|1:0,0:0:0:0:
103,51,19497,2,0,P|73:46|46:52,2,55,2|0|10,1:0|1:0|1:0,0:0:0:0:
53,162,20187,2,0,P|24:166|-1:162,2,55,2|0|10,0:0|1:0|1:0,0:0:0:0:
112,267,20876,6,0,P|158:279|212:242,1,110,4|10,1:0|1:0,0:0:0:0:
261,141,21566,2,0,P|290:133|319:137,1,55,2|0,1:0|0:0,0:0:0:0:
374,144,21911,1,10,1:0:0:0:
446,241,22256,2,0,P|442:297|398:338,1,110,2|10,1:0|1:0,0:0:0:0:
287,312,22945,2,0,P|266:304|220:305,1,55,2|0,1:0|0:0,0:0:0:0:
175,317,23290,1,10,1:0:0:0:
96,224,23635,6,0,L|86:164,1,55,2|0,1:0|0:0,0:0:0:0:
54,118,23980,1,10,1:0:0:0:
149,44,24325,2,0,B|205:29|205:29|256:44,1,110,2|8,1:0|1:0,0:0:0:0:
323,136,25004,6,0,P|328:160|322:192,1,55,4|0,1:0|1:0,0:0:0:0:
293,242,25348,2,0,P|288:268|296:303,1,55,4|0,1:0|1:0,0:0:0:0:
336,338,25693,2,0,P|369:345|395:336,1,55,4|0,1:0|1:0,0:0:0:0:
441,311,26038,1,8,1:0:0:0:
441,311,26210,1,8,1:0:0:0:
463,254,26393,6,0,L|448:134,1,110,4|0,1:0|0:0,0:0:0:0:
356,60,27082,2,0,L|349:173,1,110,10|0,1:0|0:0,0:0:0:0:
321,223,27599,1,0,0:0:0:0:
261,236,27772,2,0,P|206:206|175:108,1,165,2|0,3:0|0:0,0:0:0:0:
139,64,28461,2,0,P|110:58|77:69,1,55,10|0,1:0|0:0,0:0:0:0:
46,110,28806,2,0,B|39:136|39:136|43:173,1,55,0|0,1:0|1:0,0:0:0:0:
46,224,29151,6,0,P|57:274|104:311,1,110,2|0,3:0|0:0,0:0:0:0:
215,268,29841,2,0,P|257:256|334:268,1,110,10|0,1:0|0:0,0:0:0:0:
369,298,30358,1,0,0:0:0:0:
413,257,30530,2,0,L|407:196,1,55,2|0,3:0|0:0,0:0:0:0:
356,92,31048,2,0,P|324:97|295:94,1,55,0|10,1:0|1:0,0:0:0:0:
246,67,31393,2,0,P|187:57|135:72,1,110
90,106,31910,6,0,B|63:181|63:181|77:215,1,110,4|0,1:0|0:0,0:0:0:0:
195,217,32599,2,0,B|276:201|276:201|366:221,1,165,10|0,1:0|0:0,0:0:0:0:
405,254,33289,2,0,P|381:296|320:313,1,110,2|0,3:0|0:0,0:0:0:0:
207,289,33979,2,0,P|177:287|143:292,1,55,10|0,1:0|0:0,0:0:0:0:
102,324,34324,2,0,P|70:324|43:316,1,55,0|0,1:0|1:0,0:0:0:0:
5,275,34668,6,0,P|-8:222|5:156,1,110,2|0,3:0|0:0,0:0:0:0:
74,71,35358,2,0,B|105:76|105:76|146:64|146:64|189:72,1,110,10|0,1:0|0:0,0:0:0:0:
256,192,36048,12,4,37457,1:0:0:0:
257,190,38118,6,0,B|284:138|350:140,1,110,0|10,0:0|1:0,0:0:0:0:
449,205,38807,2,0,P|494:304|356:257,1,330,2|10,1:0|1:0,0:0:0:0:
254,195,40186,2,0,B|182:194|182:194|138:215,1,110,2|10,3:0|1:0,0:0:0:0:
37,261,40876,6,0,P|24:233|27:197,1,55,0|0,0:0|1:0,0:0:0:0:
43,151,41221,1,10,1:0:0:0:
133,68,41566,2,0,B|263:58|263:58|306:77,1,165,2|0,1:0|1:0,0:0:0:0:
340,111,42255,2,0,P|267:254|219:188,1,330,2|10,1:0|1:0,0:0:0:0:
235,65,43635,6,0,L|298:62,1,55,0|0,0:0|1:0,0:0:0:0:
345,36,43980,2,0,L|416:39,1,55,10|0,1:0|1:0,0:0:0:0:
448,74,44324,2,0,P|460:128|448:190,1,110,2|10,1:0|1:0,0:0:0:0:
371,272,45014,1,2,1:0:0:0:
261,219,45359,1,10,1:0:0:0:
157,282,45704,6,0,L|38:311,1,110,4|10,1:0|1:0,0:0:0:0:
1,271,46221,1,0,1:0:0:0:
0,211,46393,2,0,P|-2:150|17:90,1,110,0|10,0:0|1:0,0:0:0:0:
113,38,47083,2,0,L|150:26,6,36.6666666666667,8|8|8|8|8|8|8,1:0|1:0|1:0|1:0|1:0|1:0|1:0,0:0:0:0:
224,253,48462,6,0,L|234:131,1,110,4|0,1:0|0:0,0:0:0:0:
260,88,48980,1,0,1:0:0:0:
313,59,49152,2,0,P|368:51|424:77,1,110,0|10,0:0|1:0,0:0:0:0:
450,187,49842,2,0,L|432:301,2,110,0|2|2,0:0|1:0|1:0,0:0:0:0:
329,192,50876,2,0,B|273:161|221:187|221:187|167:211|111:183,1,220,10|0,1:0|0:0,0:0:0:0:
51,84,51911,1,0,0:0:0:0:
170,70,52255,2,0,L|176:6,1,55,10|0,1:0|0:0,0:0:0:0:
295,28,52773,2,0,L|291:88,1,55,10|0,1:0|0:0,0:0:0:0:
329,192,53290,5,10,1:0:0:0:
276,301,53635,1,10,1:0:0:0:
159,335,53980,2,0,L|44:338,2,110,4|0|0,1:0|0:0|0:0,0:0:0:0:
255,261,55014,2,0,B|294:200|293:139|293:139|324:209|361:231|361:231|390:139|368:24|234:48|223:126,1,550,10|4,1:0|1:0,0:0:0:0:
256,192,57083,12,4,59496,1:0:0:0:
164,315,60186,6,0,P|143:271|135:203,1,110,0|10,1:0|1:0,0:0:0:0:
200,109,60876,2,0,P|253:92|307:105,2,110,0|0|10,0:0|0:0|1:0,0:0:0:0:
258,214,61910,2,0,P|373:252|434:178,1,220,2|0,0:0|0:0,0:0:0:0:
426,68,62945,1,0,0:0:0:0:
311,29,63290,2,0,L|252:40,1,55,10|0,1:0|0:0,0:0:0:0:
197,46,63634,2,0,B|72:33|72:33|132:96|132:96|111:145|111:145|121:183|121:183|105:224|105:224|120:268|120:268|111:316,1,440,0|4,1:0|1:0,0:0:0:0:
352,338,65703,6,0,L|413:322,1,55,0|0,0:0|1:0,0:0:0:0:
452,285,66048,1,10,1:0:0:0:
352,133,66565,2,0,L|294:128,1,55,8|0,1:0|0:0,0:0:0:0:
219,221,67083,2,0,P|193:229|164:227,1,55,8|0,1:0|1:0,0:0:0:0:
114,194,67428,2,0,L|86:130,1,55,8|0,1:0|1:0,0:0:0:0:
129,96,67772,2,0,L|142:30,1,55,4|0,1:0|1:0,0:0:0:0:
256,192,68117,12,4,70495,1:0:0:0:
65,243,81541,6,0,P|126:259|178:239,1,110,4|2,1:0|1:0,0:0:0:0:
222,216,82058,1,0,1:0:0:0:
280,200,82230,2,0,L|398:207,1,110,10|2,1:0|1:0,0:0:0:0:
310,114,82920,2,0,L|188:120,1,110,2|0,1:0|0:0,0:0:0:0:
81,141,83609,6,0,B|38:144|17:183|17:183|33:221|33:221|24:255|24:255|29:290|29:290|25:320,1,216,10|4,1:0|1:0,0:0:0:0:
150,332,84644,2,0,P|217:330|267:295,1,110,2|8,1:0|1:0,0:0:0:0:
178,212,85333,1,2,1:0:0:0:
181,90,85678,2,0,B|173:53|195:24|195:24|224:60|271:72|271:72|322:57|322:57|375:72|375:72|435:57,1,330,2|2,1:0|1:0,0:0:0:0:
485,166,87057,6,0,B|474:230|474:230|482:285|482:285|474:351|474:351|429:337,1,220.5,6|10,1:0|1:0,0:0:0:0:
328,294,88091,2,0,P|282:290|218:307,1,110,2|2,1:0|1:0,0:0:0:0:
105,343,88781,1,0,0:0:0:0:
28,248,89126,2,0,B|23:211|23:211|42:132,1,108,10|2,1:0|1:0,0:0:0:0:
256,192,89807,12,4,91884,1:0:0:0:
95,102,92574,6,0,B|150:119|150:119|259:103,1,165,12|0,1:0|1:0,0:0:0:0:
307,135,93263,2,0,L|296:249,1,110,12|2,1:0|1:0,0:0:0:0:
184,292,93953,2,0,P|127:265|110:214,1,110,12|2,1:0|1:0,0:0:0:0:
95,102,94643,2,0,L|95:46,2,55,12|0|2,1:0|1:0|1:0,0:0:0:0:
196,36,95332,6,0,P|260:48|317:34,1,110,12|2,1:0|1:0,0:0:0:0:
419,75,96022,2,0,L|444:196,1,110,12|2,1:0|1:0,0:0:0:0:
398,296,96712,2,0,B|345:351|345:351|315:272|350:198,2,220,12|12|12,1:0|1:0|1:0,0:0:0:0:
441,182,98430,5,2,1:0:0:0:
336,124,98770,2,0,L|219:135,1,110,12|2,1:0|1:0,0:0:0:0:
111,172,99459,2,0,B|88:201|88:201|103:282,1,110,12|2,1:0|1:0,0:0:0:0:
200,342,100149,2,0,P|301:317|348:206,1,222,12|12,1:0|1:0,0:0:0:0:
256,192,101017,12,12,103603,1:0:0:0:
252,93,106349,5,4,1:0:0:0:
252,93,107398,6,0,L|241:161,1,55,10|0,1:0|0:0,0:0:0:0:
135,195,107915,2,0,L|123:130,1,55,10|0,1:0|0:0,0:0:0:0:
174,30,108432,2,0,L|229:25,1,55,10|0,1:0|1:0,0:0:0:0:
289,30,108777,2,0,B|346:15|379:54|379:54|340:84|387:111|350:151|350:151|400:185|479:139,2,330,10|0|0,1:0|1:0|1:0,0:0:0:0:
205,116,111191,2,0,L|217:287,1,165,8|8,1:0|1:0,0:0:0:0:
187,333,111880,6,0,P|132:319|101:266,1,110,4|2,1:0|1:0,0:0:0:0:
42,171,112570,2,0,L|34:62,1,110,10|2,1:0|1:0,0:0:0:0:
150,26,113260,2,0,B|175:20|202:31|202:31|232:22|267:29,1,110,10|2,1:0|1:0,0:0:0:0:
377,63,113949,2,0,P|413:120|403:174,1,110,10|0,1:0|0:0,0:0:0:0:
314,236,114639,6,0,P|378:153|368:286,1,330,4|10,1:0|1:0,0:0:0:0:
262,325,116018,2,0,L|151:307,1,110,0|0,1:0|0:0,0:0:0:0:
59,230,116708,2,0,P|53:201|59:175,1,55,10|0,1:0|1:0,0:0:0:0:
93,127,117053,2,0,P|97:100|92:67,1,55,0|0,0:0|0:0,0:0:0:0:
148,46,117398,6,0,B|198:55|198:55|230:39|276:38|276:38|312:52|312:52|343:36|343:36|403:57|403:57|469:42,1,330,4|10,1:0|1:0,0:0:0:0:
425,157,118777,2,0,B|374:173|374:173|314:163,1,110,0|0,1:0|1:0,0:0:0:0:
203,124,119467,2,0,P|173:121|144:130,1,55,8|8,1:3|1:3,0:0:0:0:
115,177,119811,2,0,P|85:183|56:180,1,55,12|12,1:3|1:3,0:0:0:0:
18,224,120156,6,0,B|5:353|5:353|46:347|80:319|113:346|113:346|154:327|202:356,2,330,4|10|8,1:0|1:0|1:0,0:0:0:0:
82,121,122570,1,8,1:0:0:0:
179,49,122915,6,0,B|217:36|217:36|297:41,1,110,4|2,1:0|1:0,0:0:0:0:
349,144,123605,2,0,B|312:157|312:157|238:151,1,110,10|2,1:0|1:0,0:0:0:0:
133,206,124294,2,0,P|170:257|219:277,1,110,10|2,1:0|1:0,0:0:0:0:
329,283,124984,2,0,L|395:275,1,55,10|0,1:0|1:0,0:0:0:0:
478,201,125501,1,10,1:0:0:0:
486,144,125664,6,0,B|469:100|434:89|401:102|401:102|375:82|357:50|357:50|340:95|301:112|256:110|220:84,1,330,4|10,1:0|1:0,0:0:0:0:
125,33,127043,2,0,B|71:38|71:38|44:92,1,110,2|10,1:0|1:0,0:0:0:0:
87,201,127732,2,0,P|85:248|64:308,1,110,2|10,1:0|1:0,0:0:0:0:
21,344,128240,1,0,1:0:0:0:
21,344,128437,1,0,0:0:0:0:
