osu file format v14

[General]
AudioFilename: audio.mp3
AudioLeadIn: 0
PreviewTime: 48376
Countdown: 0
SampleSet: Soft
StackLeniency: 0.7
Mode: 0
LetterboxInBreaks: 0
WidescreenStoryboard: 0

[Editor]
Bookmarks: 4324,15359,26393,37457,59497,70495,81541,92574,103603,128437
DistanceSpacing: 1.6
BeatDivisor: 4
GridSize: 32
TimelineZoom: 2.300001

[Metadata]
Title:Novyj geroj
TitleUnicode:Новый герой
Artist:[AMATORY]
ArtistUnicode:[AMATORY]
Creator:Sieg
Version:Insane
Source:
Tags:new hero [аматори] аматори amatory vii russian alternative rock cut version themefisto fcl marmowka slayed
BeatmapID:1039995
BeatmapSetID:487843

[Difficulty]
HPDrainRate:6.9
CircleSize:4.4
OverallDifficulty:7.5
ApproachRate:9
SliderMultiplier:1.4
SliderTickRate:1

[Events]
//Background and Video events
0,0,"bg.jpg",0,0
//Break Periods
//Storyboard Layer 0 (Background)
//Storyboard Layer 1 (Fail)
//Storyboard Layer 2 (Pass)
//Storyboard Layer 3 (Foreground)
//Storyboard Sound Samples

[TimingPoints]
4325,344.827586206897,4,2,1,50,1,0
5359,-100,4,2,1,40,0,0
10531,-100,4,2,1,60,0,0
10704,-100,4,2,1,40,0,0
13980,-76.9230769230769,4,2,1,70,0,0
14669,-76.9230769230769,4,2,1,70,0,0
15359,-50,4,2,1,70,0,1
15402,-50,4,2,1,70,0,0
16049,-76.9230769230769,4,2,1,70,0,0
20531,-50,4,2,1,70,0,0
20876,-76.9230769230769,4,2,1,70,0,0
25004,344.827586206897,4,2,1,70,1,0
25004,-76.9230769230769,4,2,1,70,0,0
26393,344.827586206897,4,2,1,70,1,0
26393,-111.111111111111,4,2,1,70,0,0
27082,-111.111111111111,4,2,1,70,0,0
28461,-76.9230769230769,4,2,1,70,0,0
28979,-76.9230769230769,4,2,1,60,0,0
29151,-66.6666666666667,4,2,1,70,0,0
29841,-111.111111111111,4,2,1,70,0,0
33979,-76.9230769230769,4,2,1,70,0,0
34496,-76.9230769230769,4,2,1,60,0,0
34668,-66.6666666666667,4,2,1,70,0,0
35358,-111.111111111111,4,2,1,70,0,0
35703,-76.9230769230769,4,2,1,70,0,0
36940,344.827586206897,4,2,1,70,1,0
37773,344.827586206897,4,2,1,70,1,0
37773,-76.9230769230769,4,2,1,70,0,0
38807,344.827586206897,4,2,1,70,1,0
38807,-76.9230769230769,4,2,1,70,0,0
40186,-66.6666666666667,4,2,1,70,0,0
40704,-76.9230769230769,4,2,1,70,0,0
47083,-76.9230769230769,4,2,1,50,0,0
48462,-76.9230769230769,4,2,1,70,0,1
53118,-76.9230769230769,4,2,1,60,0,1
53290,-76.9230769230769,4,2,1,70,0,1
53462,-76.9230769230769,4,2,1,60,0,1
53635,-76.9230769230769,4,2,1,70,0,1
56035,344.827586206897,4,2,1,70,1,1
56035,-76.9230769230769,4,2,1,70,0,1
56566,344.827586206897,4,2,1,70,1,1
56566,-76.9230769230769,4,2,1,70,0,1
57428,344.827586206897,4,2,1,70,1,1
57428,-76.9230769230769,4,2,1,70,0,1
58117,344.827586206897,4,2,1,70,1,1
58117,-76.9230769230769,4,2,1,70,0,1
59453,-76.9230769230769,4,2,1,70,0,0
59496,-76.9230769230769,4,2,1,70,0,1
61393,-76.9230769230769,4,2,1,60,0,1
61566,-76.9230769230769,4,2,1,70,0,1
69884,-76.9230769230769,4,2,1,70,0,0
70495,344.827586206897,4,2,1,70,1,0
70860,344.827586206897,4,2,1,70,1,0
73276,344.827586206897,4,2,1,70,1,0
73625,344.827586206897,4,2,1,70,1,0
75998,344.827586206897,4,2,1,70,1,0
76362,344.827586206897,4,2,1,70,1,0
78755,344.827586206897,4,2,1,70,1,0
79118,344.827586206897,4,2,1,70,1,0
81049,344.827586206897,4,2,1,50,1,0
81049,-76.9230769230769,4,2,1,50,0,0
81541,344.827586206897,4,2,1,70,1,0
81541,-76.9230769230769,4,2,1,70,0,0
83942,344.827586206897,4,2,1,60,1,0
83942,-76.9230769230769,4,2,1,60,0,0
84644,344.827586206897,4,2,1,70,1,0
84644,-76.9230769230769,4,2,1,70,0,0
87560,344.827586206897,4,2,1,70,1,0
87560,-76.9230769230769,4,2,1,70,0,0
87747,344.827586206897,4,2,1,70,1,0
87747,-76.9230769230769,4,2,1,70,0,0
88437,344.827586206897,4,2,1,70,1,0
88437,-76.9230769230769,4,2,1,70,0,0
89463,344.827586206897,4,2,1,70,1,0
89463,-100,4,2,1,70,0,0
90669,-76.9230769230769,4,2,1,50,0,0
91014,-76.9230769230769,4,2,1,70,0,0
91195,344.827586206897,4,2,1,70,1,0
91195,-76.9230769230769,4,2,1,70,0,0
92574,-66.6666666666667,4,2,1,70,0,1
98048,-66.6666666666667,4,2,1,70,0,0
98091,-66.6666666666667,4,2,1,70,0,1
98430,344.827586206897,4,2,1,70,1,1
98430,-66.6666666666667,4,2,1,70,0,1
98770,344.827586206897,4,2,1,70,1,1
98770,-66.6666666666667,4,2,1,70,0,1
100500,344.827586206897,4,2,1,70,1,1
100500,-66.6666666666667,4,2,1,70,0,1
103560,-66.6666666666667,4,2,1,70,0,0
103603,-66.6666666666667,4,2,1,70,0,1
103646,-66.6666666666667,4,2,1,70,0,0
105478,344.827586206897,4,2,1,50,1,0
105655,344.827586206897,4,2,1,70,1,0
105655,-76.9230769230769,4,2,1,70,0,0
106349,344.827586206897,4,2,1,70,1,1
106349,-76.9230769230769,4,2,1,70,0,1
107226,344.827586206897,4,2,1,70,1,1
107226,-76.9230769230769,4,2,1,70,0,1
107743,344.827586206897,4,2,1,70,1,1
107743,-76.9230769230769,4,2,1,70,0,1
114596,-76.9230769230769,4,2,1,70,0,0
114639,-76.9230769230769,4,2,1,70,0,1
125630,-66.6666666666667,4,2,1,70,0,0
125664,344.827586206897,4,2,1,70,1,1
125664,-66.6666666666667,4,2,1,70,0,1
125707,-66.6666666666667,4,2,1,70,0,0
128240,344.827586206897,4,2,1,70,1,0
128240,-66.6666666666667,4,2,1,70,0,0
128437,344.827586206897,4,2,1,70,1,0

[Colours]
Combo1 : 209,63,49
Combo2 : 2,132,130
Combo3 : 56,52,54
Combo4 : 176,149,91

[HitObjects]
297,337,4324,6,0,L|306:261,1,70,4|0,1:0|0:0,0:0:0:0:
385,199,4669,1,0,0:0:0:0:
394,129,4842,1,0,0:0:0:0:
350,74,5014,1,0,0:0:0:0:
280,68,5187,1,0,0:0:0:0:
144,118,5359,6,0,P|105:117|81:97,1,70,0|0,0:0|0:0,0:0:0:0:
211,134,5704,2,0,P|195:68|131:49,1,140,0|0,0:0|0:0,0:0:0:0:
144,118,6221,1,0,0:0:0:0:
59,208,6393,2,0,L|50:284,1,70,0|0,0:0|0:0,0:0:0:0:
139,357,6738,2,0,L|148:281,1,70,0|0,0:0|0:0,0:0:0:0:
226,218,7083,5,0,0:0:0:0:
286,182,7256,1,0,0:0:0:0:
355,190,7428,1,0,0:0:0:0:
404,238,7600,1,0,0:0:0:0:
415,307,7773,1,0,0:0:0:0:
377,366,7945,1,0,0:0:0:0:
277,251,8118,6,0,L|286:175,1,70,0|0,0:0|0:0,0:0:0:0:
171,83,8462,2,0,L|180:7,1,70,0|0,0:0|0:0,0:0:0:0:
72,113,8807,1,0,0:0:0:0:
96,178,8980,1,0,0:0:0:0:
155,214,9152,1,0,0:0:0:0:
225,217,9325,1,0,0:0:0:0:
285,181,9497,1,0,0:0:0:0:
326,124,9669,1,0,0:0:0:0:
418,48,9842,6,0,L|427:124,1,70,0|0,0:0|0:0,0:0:0:0:
501,206,10187,1,0,0:0:0:0:
509,275,10359,1,0,0:0:0:0:
383,182,10531,1,12,1:3:0:0:
380,344,10876,6,0,P|341:343|317:323,1,70
229,238,11222,2,0,P|221:272|119:294,1,140,0|0,0:0|0:0,0:0:0:0:
73,260,11739,1,0,0:0:0:0:
28,132,11911,2,0,P|29:93|49:69,1,70,0|0,0:0|0:0,0:0:0:0:
151,167,12256,2,0,L|160:243,1,70,0|0,0:0|0:0,0:0:0:0:
96,118,12600,5,0,0:0:0:0:
156,82,12773,1,0,0:0:0:0:
225,90,12945,1,0,0:0:0:0:
274,138,13117,1,0,0:0:0:0:
285,207,13290,1,0,0:0:0:0:
247,266,13462,1,0,0:0:0:0:
127,349,13635,6,0,L|203:358,1,70,0|0,0:0|0:0,0:0:0:0:
335,336,13980,1,12,1:3:0:0:
434,237,14152,1,12,1:3:0:0:
290,132,14325,1,12,1:3:0:0:
247,266,14497,1,12,1:3:0:0:
422,309,14669,2,0,P|473:304|498:269,1,90.9999958343508,12|0,1:3|1:0,0:0:0:0:
411,107,15014,1,8,1:0:0:0:
342,226,15187,1,0,1:0:0:0:
208,174,15359,6,0,P|170:109|182:194,1,210,4|0,1:0|0:0,0:0:0:0:
170,202,15704,2,0,P|199:277|158:326,1,140,10|0,1:0|0:0,0:0:0:0:
23,376,16049,1,2,1:0:0:0:
23,376,16221,1,0,0:0:0:0:
128,260,16393,5,10,1:0:0:0:
128,260,16566,1,0,0:0:0:0:
91,105,16738,2,0,P|48:107|1:87,1,90.9999958343508,2|0,1:0|0:0,0:0:0:0:
208,33,17083,2,0,P|245:53|296:56,1,90.9999958343508,10|0,1:0|0:0,0:0:0:0:
165,213,17428,2,0,P|122:221|82:252,1,90.9999958343508,2|0,1:0|0:0,0:0:0:0:
270,150,17773,2,0,P|311:136|361:144,1,90.9999958343508,10|0,1:0|0:0,0:0:0:0:
231,249,18118,5,2,1:0:0:0:
115,351,18290,1,0,0:0:0:0:
264,312,18462,1,10,1:0:0:0:
422,342,18634,1,0,0:0:0:0:
422,342,18808,2,0,P|431:296|411:242,1,90.9999958343508,2|0,1:0|0:0,0:0:0:0:
505,96,19152,2,0,P|487:52|441:18,1,90.9999958343508,10|0,1:0|0:0,0:0:0:0:
362,149,19497,5,2,1:0:0:0:
290,204,19669,1,0,1:0:0:0:
202,218,19841,1,10,1:0:0:0:
117,188,20014,1,0,1:0:0:0:
57,121,20186,1,2,0:0:0:0:
37,33,20359,1,0,1:0:0:0:
213,79,20531,2,0,B|206:140|206:140|210:157|210:157|199:234,1,140,10|0,1:0|1:0,0:0:0:0:
309,105,20877,5,4,1:0:0:0:
309,105,21049,1,0,0:0:0:0:
174,13,21221,1,10,1:0:0:0:
174,13,21393,1,0,0:0:0:0:
341,36,21566,2,0,L|450:50,1,90.9999958343508,2|0,1:0|0:0,0:0:0:0:
430,252,21911,2,0,P|384:243|340:205,1,90.9999958343508,10|0,1:0|0:0,0:0:0:0:
166,235,22256,2,0,P|196:270|206:327,1,90.9999958343508,2|0,1:0|0:0,0:0:0:0:
7,249,22600,2,0,P|19:203|62:164,1,90.9999958343508,10|0,1:0|0:0,0:0:0:0:
211,170,22945,2,0,L|325:153,1,90.9999958343508,2|0,1:0|0:0,0:0:0:0:
161,39,23290,2,0,L|47:56,1,90.9999958343508,10|0,1:0|0:0,0:0:0:0:
235,77,23635,5,2,1:0:0:0:
323,81,23807,1,0,0:0:0:0:
378,150,23979,1,10,1:0:0:0:
362,236,24152,1,0,0:0:0:0:
211,170,24325,1,2,1:0:0:0:
211,170,24497,1,0,1:0:0:0:
362,236,24669,2,0,P|410:232|450:202,1,90.9999958343508,8|0,1:0|1:0,0:0:0:0:
465,48,25004,5,4,1:0:0:0:
460,75,25090,1,0,1:0:0:0:
455,102,25176,1,0,1:0:0:0:
329,48,25349,1,4,1:0:0:0:
324,74,25435,1,0,1:0:0:0:
319,101,25521,1,0,1:0:0:0:
192,48,25694,1,4,1:0:0:0:
187,74,25780,1,0,1:0:0:0:
182,101,25866,1,0,1:0:0:0:
55,48,26039,5,8,1:0:0:0:
27,83,26125,1,8,1:0:0:0:
18,128,26211,1,8,1:0:0:0:
30,171,26297,1,8,1:0:0:0:
60,205,26393,1,4,1:0:0:0:
60,205,27082,6,0,B|79:222|109:199|109:199|122:218|122:218|177:251|229:215,1,188.999994232178,10|0,1:0|0:0,0:0:0:0:
305,338,27772,2,0,P|200:340|174:266,1,188.999994232178,2|0,3:0|0:0,0:0:0:0:
303,164,28461,2,0,L|311:96,1,45.4999979171754,10|0,1:0|0:0,0:0:0:0:
256,235,28720,2,0,L|248:303,1,45.4999979171754,0|0,1:0|1:0,0:0:0:0:
384,305,28979,1,0,1:0:0:0:
384,305,29065,1,0,1:0:0:0:
384,305,29151,2,0,P|426:295|365:289,1,210.000008010865,2|0,3:0|0:0,0:0:0:0:
472,72,29841,6,0,P|413:36|356:52,1,125.999996154785,10|0,1:0|0:0,0:0:0:0:
304,116,30358,1,0,0:0:0:0:
223,152,30530,2,0,L|152:141,1,62.9999980773926,2|0,3:0|0:0,0:0:0:0:
71,44,30875,1,0,1:0:0:0:
86,86,30961,1,0,1:0:0:0:
82,131,31047,1,0,1:0:0:0:
59,170,31133,1,0,1:0:0:0:
21,194,31219,1,10,1:0:0:0:
128,350,31479,1,0,1:0:0:0:
243,200,31737,1,0,1:0:0:0:
341,120,31910,2,0,P|377:165|359:235,1,125.999996154785,4|0,1:0|0:0,0:0:0:0:
318,335,32427,6,0,L|312:299,1,31.4999990386963
247,340,32599,2,0,B|224:353|191:330|191:330|164:358|125:362|84:349|72:316,1,188.999994232178,10|0,1:0|0:0,0:0:0:0:
4,205,33289,2,0,P|105:204|134:281,1,188.999994232178,2|0,3:0|0:0,0:0:0:0:
239,173,33979,2,0,L|296:182,1,45.4999979171754,10|0,1:0|0:0,0:0:0:0:
159,123,34237,2,0,L|102:114,1,45.4999979171754,0|0,1:0|1:0,0:0:0:0:
257,87,34496,1,0,1:0:0:0:
257,87,34582,1,0,1:0:0:0:
257,87,34668,2,0,P|299:77|238:71,1,210.000008010865,2|0,3:0|0:0,0:0:0:0:
83,41,35186,1,0,0:0:0:0:
123,190,35358,2,0,L|198:205,1,62.9999980773926,10|0,1:0|0:0,0:0:0:0:
367,121,35703,2,0,P|322:115|281:139,1,90.9999958343508
230,294,36048,5,8,1:0:0:0:
276,332,36163,1,8,1:0:0:0:
334,346,36278,1,8,1:0:0:0:
393,332,36393,1,8,1:0:0:0:
439,293,36507,1,8,1:0:0:0:
463,238,36622,1,8,1:0:0:0:
460,178,36737,1,8,1:0:0:0:
290,30,36940,5,4,1:0:0:0:
334,346,37198,1,4,1:0:0:0:
204,22,37457,1,4,1:0:0:0:
117,332,37773,5,10,1:0:0:0:
20,190,37945,2,0,P|39:175|74:177,1,45.4999979171754,0|0,1:0|0:0,0:0:0:0:
50,212,38118,2,0,B|74:209|94:229|94:229|113:196|139:184|178:180|212:211,1,181.999991668702,0|10,0:0|1:0,0:0:0:0:
297,332,38635,1,0,1:0:0:0:
158,263,38807,2,0,P|156:158|226:133,1,181.999991668702,2|10,1:0|1:0,0:0:0:0:
315,261,39324,1,0,1:0:0:0:
450,169,39497,2,0,L|455:123,1,45.4999979171754,0|0,1:0|1:0,0:0:0:0:
508,10,39755,2,0,L|502:55,1,45.4999979171754,0|10,1:0|1:0,0:0:0:0:
369,64,40014,1,0,1:0:0:0:
369,64,40100,1,0,1:0:0:0:
369,64,40186,2,0,B|330:92|280:69|280:69|265:82|265:82|226:36|178:46,1,210.000008010865,2|10,3:0|1:0,0:0:0:0:
28,107,40704,5,0,1:0:0:0:
186,130,40876,2,0,P|197:92|175:38,1,90.9999958343508,0|0,0:0|1:0,0:0:0:0:
111,190,41221,1,10,1:0:0:0:
84,25,41393,1,0,1:0:0:0:
21,186,41566,2,0,P|10:224|32:278,1,90.9999958343508,2|0,1:0|0:0,0:0:0:0:
186,130,41911,1,2,1:0:0:0:
228,115,41997,1,0,1:0:0:0:
273,119,42083,1,0,1:0:0:0:
312,142,42169,1,0,1:0:0:0:
341,177,42255,2,0,P|326:261|361:316,1,136.499993751526,2|0,1:0|1:0,0:0:0:0:
291,253,42600,1,10,1:0:0:0:
173,367,42773,1,0,1:0:0:0:
20,269,42945,2,0,P|82:253|87:353,1,181.999991668702,4|10,1:0|1:0,0:0:0:0:
245,258,43462,6,0,L|298:251,1,45.4999979171754,0|0,1:0|0:0,0:0:0:0:
339,317,43635,2,0,P|388:325|430:295,1,90.9999958343508,0|0,0:0|1:0,0:0:0:0:
504,162,43980,1,10,1:0:0:0:
372,255,44152,1,0,1:0:0:0:
464,96,44324,2,0,P|456:32|361:63,1,181.999991668702,2|10,1:0|1:0,0:0:0:0:
439,209,44842,1,0,1:0:0:0:
279,85,45014,2,0,L|222:76,1,45.4999979171754,2|0,1:0|1:0,0:0:0:0:
359,135,45273,2,0,L|416:144,1,45.4999979171754,0|10,1:0|1:0,0:0:0:0:
238,158,45531,1,0,1:0:0:0:
238,158,45618,1,0,1:0:0:0:
238,158,45704,2,0,P|201:151|175:25,1,181.999991668702,4|10,1:0|1:0,0:0:0:0:
11,62,46221,2,0,P|-2:106|5:157,1,90.9999958343508,0|0,1:0|0:0,0:0:0:0:
131,251,46566,2,0,P|144:295|137:346,2,90.9999958343508,0|10|0,1:0|1:0|0:0,0:0:0:0:
75,111,47083,5,8,1:0:0:0:
121,73,47198,1,8,1:0:0:0:
179,59,47313,1,8,1:0:0:0:
238,73,47428,1,8,1:0:0:0:
284,112,47543,1,8,1:0:0:0:
308,167,47658,1,8,1:0:0:0:
305,227,47773,1,8,1:0:0:0:
175,197,48462,5,4,1:0:0:0:
175,197,48980,2,0,P|165:268|185:308,1,90.9999958343508,0|0,1:0|0:0,0:0:0:0:
313,344,49325,1,0,1:0:0:0:
253,284,49497,2,0,P|319:259|398:336,1,181.999991668702,10|0,1:0|0:0,0:0:0:0:
162,339,50014,1,8,1:0:0:0:
26,360,50187,1,2,1:0:0:0:
165,54,50531,1,2,1:0:0:0:
12,24,50704,1,0,1:0:0:0:
103,167,50876,1,10,1:0:0:0:
249,113,51049,1,0,1:0:0:0:
62,86,51221,6,0,P|16:144|56:245,1,181.999991668702,4|0,1:0|0:0,0:0:0:0:
173,329,51738,2,0,P|208:301|268:310,1,90.9999958343508,0|0,1:0|0:0,0:0:0:0:
399,350,52083,1,0,1:0:0:0:
498,231,52256,2,0,B|511:151|454:89|454:89|444:125,1,181.999991668702,10|0,1:0|0:0,0:0:0:0:
407,262,52773,2,0,P|415:215|386:162,1,90.9999958343508,10|0,1:0|0:0,0:0:0:0:
297,58,53118,2,0,L|287:1,2,30.3333319447836,0|0|0,1:0|1:0|1:0,0:0:0:0:
329,98,53290,1,10,1:0:0:0:
281,244,53462,2,0,L|291:301,2,30.3333319447836,0|0|0,1:0|1:0|1:0,0:0:0:0:
249,204,53635,2,0,P|194:184|126:236,1,136.499993751526,10|0,1:0|0:0,0:0:0:0:
198,261,53980,6,0,P|141:146|96:154,1,181.999991668702,4|0,1:0|0:0,0:0:0:0:
35,283,54497,2,0,L|21:182,1,90.9999958343508,0|0,1:0|0:0,0:0:0:0:
47,39,54842,1,0,1:0:0:0:
175,152,55014,2,0,P|244:180|326:119,1,181.999991668702,10|0,1:0|0:0,0:0:0:0:
469,34,55531,2,0,P|428:17|379:32,1,90.9999958343508,8|0,1:0|0:0,0:0:0:0:
241,88,55876,1,0,1:0:0:0:
398,116,56035,5,8,1:0:0:0:
427,123,56121,1,8,1:3:0:0:
434,153,56207,1,8,1:3:0:0:
412,174,56293,1,8,1:3:0:0:
383,164,56379,1,8,1:3:0:0:
241,88,56566,2,0,P|232:66|212:46,2,45.4999979171754,8|8|4,1:0|1:0|1:0,0:0:0:0:
330,206,56910,5,0,1:0:0:0:
186,188,57082,1,2,1:0:0:0:
381,270,57255,1,0,1:0:0:0:
259,181,57427,1,10,1:0:0:0:
398,344,57599,1,0,1:0:0:0:
199,277,57773,2,0,L|183:174,1,90.9999958343508,2|0,1:0|1:0,0:0:0:0:
61,325,58117,5,10,1:0:0:0:
201,370,58289,1,0,1:0:0:0:
25,253,58462,1,2,1:0:0:0:
126,364,58634,1,0,1:0:0:0:
22,177,58806,1,10,1:0:0:0:
101,43,58980,2,0,P|54:35|5:53,1,90.9999958343508,0|0,1:0|0:0,0:0:0:0:
147,125,59323,1,2,1:0:0:0:
290,67,59497,6,0,B|334:12|423:29|423:29|377:55,1,181.999991668702,4|0,1:0|0:0,0:0:0:0:
232,137,60014,1,0,1:0:0:0:
456,350,60359,1,0,1:0:0:0:
325,267,60531,2,0,P|330:181|434:153,1,181.999991668702,10|0,1:0|0:0,0:0:0:0:
379,327,61049,2,0,P|327:348|282:333,1,90.9999958343508,8|0,1:0|0:0,0:0:0:0:
228,201,61393,2,0,L|225:167,2,30.3333319447836,0|0|0,1:0|1:0|1:0,0:0:0:0:
208,250,61566,2,0,P|191:290|194:341,1,90.9999958343508,10|0,1:0|1:0,0:0:0:0:
199,40,62083,5,0,1:0:0:0:
335,65,62254,2,0,P|246:53|152:96,1,181.999991668702,4|0,1:0|0:0,0:0:0:0:
19,158,62773,2,0,P|66:161|110:140,1,90.9999958343508,0|0,1:0|0:0,0:0:0:0:
13,28,63118,1,0,1:0:0:0:
185,156,63290,2,0,B|231:222|187:314|187:314|154:290,1,181.999991668702,10|0,1:0|0:0,0:0:0:0:
36,233,63807,1,10,1:0:0:0:
125,359,63980,5,0,1:0:0:0:
136,366,64066,1,4,1:3:0:0:
148,372,64152,1,4,1:3:0:0:
161,376,64238,1,4,1:3:0:0:
175,377,64324,1,8,1:3:0:0:
188,375,64411,1,8,1:3:0:0:
201,372,64497,1,8,1:3:0:0:
213,365,64583,1,8,1:3:0:0:
224,357,64669,1,12,1:3:0:0:
233,347,64755,1,12,1:3:0:0:
240,335,64842,1,12,1:3:0:0:
245,323,64928,1,12,1:3:0:0:
247,309,65014,6,0,P|242:229|325:171,1,181.999991668702,4|0,1:0|0:0,0:0:0:0:
441,266,65531,2,0,L|433:361,1,90.9999958343508,0|0,1:0|0:0,0:0:0:0:
397,195,65876,1,0,1:0:0:0:
237,217,66049,2,0,P|232:137|315:79,1,181.999991668702,10|0,1:0|0:0,0:0:0:0:
462,22,66566,2,0,L|454:117,1,90.9999958343508,8|0,1:0|0:0,0:0:0:0:
315,170,66910,5,0,1:0:0:0:
181,211,67083,1,8,1:0:0:0:
272,113,67254,1,0,1:0:0:0:
133,72,67428,1,8,1:0:0:0:
285,44,67600,1,0,1:0:0:0:
117,156,67773,1,4,1:0:0:0:
256,192,67859,12,14,69842,1:0:0:0:
256,288,70495,5,4,1:0:0:0:
486,229,70860,1,4,1:0:0:0:
256,96,73276,5,4,1:0:0:0:
26,155,73625,1,4,1:0:0:0:
256,288,75998,5,4,1:0:0:0:
486,229,76362,1,4,1:0:0:0:
256,96,78755,5,4,1:0:0:0:
26,155,79118,1,4,1:0:0:0:
99,341,80669,6,0,L|82:258,1,70,2|0,0:0|0:0,0:0:0:0:
267,337,81049,2,0,L|277:381,2,30.3333319447836,0|0|0,1:3|0:0|0:0,0:0:0:0:
253,286,81221,1,2,1:0:0:0:
78,79,81541,6,0,P|139:57|198:164,1,181.999991668702,4|2,1:0|1:0,0:0:0:0:
168,278,82058,1,0,1:0:0:0:
132,130,82230,1,10,1:0:0:0:
114,328,82403,1,0,1:0:0:0:
226,213,82575,2,0,P|270:197|329:216,1,90.9999958343508,2|0,1:0|0:0,0:0:0:0:
467,289,82920,5,2,1:0:0:0:
329,337,83092,1,0,1:0:0:0:
467,95,83437,1,0,1:0:0:0:
329,47,83609,1,10,1:0:0:0:
329,337,83942,5,2,1:0:0:0:
358,324,84028,1,0,1:0:0:0:
378,300,84114,1,0,1:0:0:0:
386,270,84200,1,0,1:0:0:0:
380,239,84286,2,0,L|278:250,1,90.9999958343508,4|0,1:0|0:0,0:0:0:0:
375,130,84644,2,0,L|477:119,1,90.9999958343508,2|0,1:0|1:0,0:0:0:0:
329,47,84988,1,10,1:0:0:0:
245,184,85161,2,0,P|201:200|142:181,1,90.9999958343508,0|2,1:0|1:0,0:0:0:0:
158,191,85678,5,2,1:0:0:0:
24,73,85850,2,0,P|58:41|119:35,1,90.9999958343508,0|0,1:0|0:0,0:0:0:0:
234,108,86195,1,2,1:0:0:0:
95,244,86368,2,0,L|-3:231,1,90.9999958343508,10|0,1:0|0:0,0:0:0:0:
158,191,86712,5,2,1:0:0:0:
175,222,86798,1,0,1:0:0:0:
177,258,86884,1,0,1:0:0:0:
163,291,86970,1,0,1:0:0:0:
138,317,87057,2,0,L|40:304,1,90.9999958343508,6|0,1:0|0:0,0:0:0:0:
204,370,87402,5,2,1:0:0:0:
321,308,87560,2,0,L|419:321,1,98.8,2|10,1:0|1:0,0:0:0:0:
254,257,87919,1,2,1:0:0:0:
392,211,88091,1,2,1:2:0:0:
278,122,88265,2,0,P|265:78|274:30,1,90.9999958343508,2|2,0:0|1:0,0:0:0:0:
322,183,88609,1,0,1:0:0:0:
434,63,88781,2,0,P|447:107|438:155,1,90.9999958343508,2|2,0:0|1:0,0:0:0:0:
272,34,89127,2,0,L|178:46,1,90.9999958343508,10|0,1:0|0:0,0:0:0:0:
51,126,89463,5,2,1:0:0:0:
82,130,89549,1,0,1:0:0:0:
113,135,89635,1,0,1:0:0:0:
145,140,89721,1,0,1:0:0:0:
176,145,89807,2,0,P|233:213|115:195,1,280,6|8,1:0|1:0,0:0:0:0:
299,133,90669,6,0,P|305:110|332:90,2,45.4999979171754,8|8|8,1:0|1:0|1:0,0:0:0:0:
357,256,91014,1,8,1:0:0:0:
250,344,91195,5,8,1:3:0:0:
239,352,91281,1,8,1:3:0:0:
227,358,91367,1,0,1:0:0:0:
214,363,91453,1,0,1:0:0:0:
201,366,91539,1,4,1:3:0:0:
187,367,91626,1,4,1:3:0:0:
173,367,91712,1,0,1:0:0:0:
160,364,91798,1,0,1:0:0:0:
147,360,91884,1,8,1:3:0:0:
135,354,91970,1,12,1:3:0:0:
123,347,92057,1,0,1:0:0:0:
113,338,92143,1,0,1:0:0:0:
104,327,92229,1,8,1:0:0:0:
97,316,92315,1,8,1:0:0:0:
91,303,92401,1,8,1:3:0:0:
87,290,92488,1,4,1:3:0:0:
85,277,92574,6,0,L|98:169,1,105.000004005432,12|0,1:0|1:0,0:0:0:0:
41,41,92920,1,2,1:0:0:0:
160,135,93092,1,0,1:0:0:0:
19,220,93264,2,0,L|6:328,1,105.000004005432,12|0,1:0|1:0,0:0:0:0:
97,172,93609,1,2,1:0:0:0:
210,63,93782,2,0,P|258:51|316:68,1,105.000004005432,0|12,1:0|1:0,0:0:0:0:
160,135,94127,1,0,1:0:0:0:
345,132,94299,2,0,P|391:148|431:193,1,105.000004005432,2|0,1:0|1:0,0:0:0:0:
332,339,94644,5,12,1:0:0:0:
279,191,94816,1,0,1:0:0:0:
260,348,94988,1,2,1:0:0:0:
207,200,95160,1,0,1:0:0:0:
41,291,95333,6,0,P|81:320|141:326,1,105.000004005432,12|0,1:0|1:0,0:0:0:0:
297,280,95678,2,0,L|189:266,1,105.000004005432,2|0,1:0|1:0,0:0:0:0:
332,339,96023,1,12,1:0:0:0:
460,245,96195,1,0,1:0:0:0:
260,348,96368,1,2,1:0:0:0:
388,254,96540,1,0,1:0:0:0:
387,27,96713,6,0,P|309:154|339:221,1,210.000008010865,12|2,1:0|1:0,0:0:0:0:
274,29,97230,1,0,1:0:0:0:
112,105,97401,2,0,P|261:106|303:46,1,210.000008010865,12|2,1:0|1:0,0:0:0:0:
118,166,97920,1,0,1:0:0:0:
274,29,98092,6,0,L|397:19,1,105.000004005432,12|0,1:0|1:0,0:0:0:0:
214,75,98430,1,2,1:0:0:0:
68,30,98602,1,0,1:0:0:0:
118,166,98770,2,0,P|124:215|100:270,1,105.000004005432,12|0,1:0|1:0,0:0:0:0:
48,125,99114,1,2,1:0:0:0:
178,285,99287,2,0,P|156:329|106:362,1,105.000004005432,0|12,1:0|1:0,0:0:0:0:
194,210,99632,1,0,1:0:0:0:
306,294,99804,2,0,L|411:278,1,105.000004005432,2|0,1:0|1:0,0:0:0:0:
480,133,100149,5,12,1:0:0:0:
324,97,100321,1,0,1:0:0:0:
246,245,100500,1,2,1:0:0:0:
392,172,100672,1,0,1:0:0:0:
238,316,100844,1,12,1:0:0:0:
256,192,100931,12,4,103603,1:0:0:0:
350,276,105478,6,0,L|360:240,2,23.3333333333333,0|0|0,1:0|1:0|1:0,0:0:0:0:
352,320,105655,2,0,P|400:345|451:336,1,90.9999958343508,8|0,1:0|1:0,0:0:0:0:
237,293,106349,6,0,P|194:349|76:325,1,181.999991668702,4|0,1:0|0:0,0:0:0:0:
22,211,106866,2,0,L|40:114,1,90.9999958343508,0|0,1:0|0:0,0:0:0:0:
149,270,107226,1,0,1:0:0:0:
131,27,107398,2,0,L|98:210,1,181.999991668702,10|0,1:0|0:0,0:0:0:0:
169,78,107915,1,10,1:0:0:0:
343,78,108260,2,0,L|353:21,2,30.3333319447836,0|0|0,1:0|1:0|1:0,0:0:0:0:
352,125,108432,1,10,1:0:0:0:
300,261,108605,2,0,L|308:311,2,30.3333319447836,0|0|0,1:0|1:0|1:0,0:0:0:0:
335,226,108777,2,0,P|390:206|458:258,1,136.499993751526,10|0,1:0|0:0,0:0:0:0:
386,286,109122,6,0,P|443:171|488:179,1,181.999991668702,4|0,1:0|0:0,0:0:0:0:
501,29,109639,2,0,P|443:23|400:43,1,90.9999958343508,0|0,1:0|0:0,0:0:0:0:
286,107,109984,1,0,1:0:0:0:
150,57,110156,2,0,B|96:17|12:35|12:35|38:70,1,181.999991668702,10|0,1:0|0:0,0:0:0:0:
134,171,110673,2,0,L|225:184,1,90.9999958343508,8|0,1:0|0:0,0:0:0:0:
70,129,111018,1,0,1:0:0:0:
203,58,111191,5,8,1:0:0:0:
234,53,111277,1,8,1:3:0:0:
265,60,111363,1,8,1:3:0:0:
292,76,111449,1,8,1:3:0:0:
312,101,111535,1,8,1:3:0:0:
178,177,111708,2,0,L|125:169,2,45.4999979171754,8|8|4,1:0|1:0|1:0,0:0:0:0:
323,187,112053,5,0,1:0:0:0:
462,148,112225,1,2,1:0:0:0:
251,149,112398,1,0,1:0:0:0:
398,183,112570,1,10,1:0:0:0:
206,87,112742,1,0,1:0:0:0:
125,218,112915,2,0,L|137:112,1,90.9999958343508,2|0,1:0|1:0,0:0:0:0:
251,149,113260,5,10,1:0:0:0:
140,52,113432,1,0,1:0:0:0:
256,229,113605,1,2,1:0:0:0:
206,87,113777,1,0,1:0:0:0:
229,300,113949,1,10,1:0:0:0:
58,169,114122,2,0,L|70:63,1,90.9999958343508,0|0,1:0|0:0,0:0:0:0:
185,189,114467,1,0,1:0:0:0:
115,316,114639,6,0,B|71:371|-18:354|-18:354|28:328,1,181.999991668702,4|0,1:0|0:0,0:0:0:0:
106,223,115156,1,0,1:0:0:0:
456,350,115501,1,0,1:0:0:0:
325,267,115673,2,0,P|330:181|434:153,1,181.999991668702,10|0,1:0|0:0,0:0:0:0:
379,327,116191,2,0,P|327:348|282:333,1,90.9999958343508,8|0,1:0|0:0,0:0:0:0:
228,201,116536,2,0,L|225:167,2,30.3333319447836,0|0|0,1:0|1:0|1:0,0:0:0:0:
208,250,116708,2,0,P|193:294|206:346,1,90.9999958343508,10|0,1:0|1:0,0:0:0:0:
199,40,117225,5,0,0:0:0:0:
199,40,117398,2,0,P|284:28|331:125,1,181.999991668702,4|0,1:0|0:0,0:0:0:0:
409,225,117915,2,0,L|504:217,1,90.9999958343508,0|0,1:0|0:0,0:0:0:0:
365,296,118260,1,0,1:0:0:0:
296,168,118432,2,0,B|230:122|138:166|138:166|162:199,1,181.999991668702,10|0,1:0|0:0,0:0:0:0:
222,304,118949,1,10,1:0:0:0:
92,370,119122,5,0,1:0:0:0:
79,370,119208,1,4,1:3:0:0:
66,369,119294,1,4,1:3:0:0:
53,366,119380,1,4,1:3:0:0:
40,359,119466,1,8,1:3:0:0:
30,351,119553,1,8,1:3:0:0:
21,342,119639,1,8,1:3:0:0:
14,329,119725,1,8,1:3:0:0:
10,317,119811,1,12,1:3:0:0:
10,304,119897,1,12,1:3:0:0:
10,290,119984,1,12,1:3:0:0:
10,277,120070,1,12,1:3:0:0:
14,264,120156,6,0,P|37:178|16:72,1,181.999991668702,4|0,1:0|0:0,0:0:0:0:
177,45,120673,2,0,P|160:82|169:140,1,90.9999958343508,0|0,1:0|0:0,0:0:0:0:
83,15,121018,1,0,1:0:0:0:
116,196,121191,2,0,P|193:207|242:109,1,181.999991668702,10|0,1:0|0:0,0:0:0:0:
360,39,121708,2,0,L|455:47,1,90.9999958343508,8|0,1:0|0:0,0:0:0:0:
299,83,122053,5,0,1:0:0:0:
286,227,122225,1,8,1:0:0:0:
420,309,122398,1,0,1:0:0:0:
388,168,122570,1,8,1:0:0:0:
208,183,122743,1,0,1:0:0:0:
270,313,122915,6,0,P|218:273|70:389,1,272.999987503052,4|0,1:0|1:0,0:0:0:0:
181,379,123605,2,0,B|184:349|215:335|215:335|192:303|192:303|237:231|162:121,1,272.999987503052,14|0,1:0|1:0,0:0:0:0:
40,79,124294,2,0,P|79:181|230:149,1,272.999987503052,14|0,1:0|1:0,0:0:0:0:
422,111,124984,2,0,P|316:125|251:66,1,181.999991668702,14|0,1:0|0:0,0:0:0:0:
354,20,125501,1,10,1:0:0:0:
142,95,125664,5,4,1:0:0:0:
294,200,125836,1,0,1:0:0:0:
125,173,126008,2,0,P|65:173|26:209,1,105.000004005432,10|0,1:0|1:0,0:0:0:0:
153,317,126353,2,0,P|206:342|257:328,1,105.000004005432,2|0,1:0|1:0,0:0:0:0:
426,319,126698,6,0,P|385:276|332:271,1,105.000004005432,10|0,1:0|1:0,0:0:0:0:
175,241,127043,1,2,1:0:0:0:
329,175,127215,1,0,1:0:0:0:
355,342,127388,1,10,1:0:0:0:
153,317,127560,1,0,1:0:0:0:
199,127,127732,2,0,P|158:84|105:79,1,105.000004005432,2|0,1:0|1:0,0:0:0:0:
307,47,128077,1,10,1:0:0:0:
461,243,128240,22,0,L|473:289,2,35.0000013351441,0|0|0,1:0|1:0|1:0,0:0:0:0:
430,201,128437,1,12,1:3:0:0:
