osu file format v14

[General]
AudioFilename: audio.mp3
AudioLeadIn: 0
PreviewTime: 48376
Countdown: 0
SampleSet: Soft
StackLeniency: 0.7
Mode: 0
LetterboxInBreaks: 0
WidescreenStoryboard: 1

[Editor]
Bookmarks: 4324,15359,26393,37457,59497,70495,81541,92574,103603,128437
DistanceSpacing: 2.8
BeatDivisor: 4
GridSize: 32
TimelineZoom: 3.899999

[Metadata]
Title:Novyj geroj
TitleUnicode:Новый герой
Artist:[AMATORY]
ArtistUnicode:[AMATORY]
Creator:Sieg
Version:FCL's Insane
Source:
Tags:new hero [аматори] аматори amatory vii russian alternative rock cut version themefisto fcl marmowka slayed
BeatmapID:1065491
BeatmapSetID:487843

[Difficulty]
HPDrainRate:6
CircleSize:4.3
OverallDifficulty:7.5
ApproachRate:9
SliderMultiplier:1.65
SliderTickRate:1

[Events]
//Background and Video events
0,0,"bg.jpg",0,0
//Break Periods
//Storyboard Layer 0 (Background)
//Storyboard Layer 1 (Fail)
//Storyboard Layer 2 (Pass)
//Storyboard Layer 3 (Foreground)
//Storyboard Sound Samples

[TimingPoints]
4325,344.827586206897,4,2,1,50,1,0
5359,-133.333333333333,4,2,1,40,0,0
10531,-100,4,2,1,60,0,0
10704,-133.333333333333,4,2,1,40,0,0
13980,-100,4,2,1,70,0,0
14669,-100,4,2,1,70,0,0
15359,-100,4,2,1,70,0,1
15402,-100,4,2,1,70,0,0
16049,-100,4,2,1,70,0,0
20531,-100,4,2,1,70,0,0
20876,-100,4,2,1,70,0,0
25004,344.827586206897,4,2,1,70,1,0
25004,-100,4,2,1,70,0,0
26393,344.827586206897,4,2,1,70,1,0
26393,-142.857142857143,4,2,1,70,0,0
27083,-142.857142857143,4,2,1,70,0,0
28461,-100,4,2,1,70,0,0
28980,-100,4,2,1,60,0,0
29151,-142.857142857143,4,2,1,70,0,0
29841,-142.857142857143,4,2,1,70,0,0
33979,-100,4,2,1,70,0,0
34496,-100,4,2,1,60,0,0
34668,-142.857142857143,4,2,1,70,0,0
35359,-142.857142857143,4,2,1,70,0,0
35704,-100,4,2,1,70,0,0
36940,344.827586206897,4,2,1,70,1,0
37457,-111.111111111111,4,2,1,70,0,0
37773,344.827586206897,4,2,1,70,1,0
37773,-100,4,2,1,70,0,0
38118,-111.111111111111,4,2,1,70,0,0
38807,344.827586206897,4,2,1,70,1,0
38807,-111.111111111111,4,2,1,70,0,0
39497,-100,4,2,1,70,0,0
40187,-111.111111111111,4,2,1,70,0,0
40704,-111.111111111111,4,2,1,70,0,0
45014,-100,4,2,1,70,0,0
45704,-111.111111111111,4,2,1,70,0,0
47083,-100,4,2,1,50,0,0
48462,-100,4,2,1,70,0,1
53118,-100,4,2,1,60,0,1
53290,-100,4,2,1,70,0,1
53462,-100,4,2,1,60,0,1
53635,-100,4,2,1,70,0,1
56035,344.827586206897,4,2,1,70,1,1
56035,-100,4,2,1,70,0,1
56566,344.827586206897,4,2,1,70,1,1
56566,-100,4,2,1,70,0,1
57428,344.827586206897,4,2,1,70,1,1
57428,-100,4,2,1,70,0,1
58117,344.827586206897,4,2,1,70,1,1
59453,-100,4,2,1,70,0,0
59496,-100,4,2,1,70,0,1
61393,-100,4,2,1,60,0,1
61566,-100,4,2,1,70,0,1
69884,-100,4,2,1,70,0,0
70495,344.827586206897,4,2,1,70,1,0
70860,344.827586206897,4,2,1,70,1,0
73276,344.827586206897,4,2,1,70,1,0
73625,344.827586206897,4,2,1,70,1,0
75998,344.827586206897,4,2,1,70,1,0
76362,344.827586206897,4,2,1,70,1,0
78755,344.827586206897,4,2,1,70,1,0
79118,344.827586206897,4,2,1,70,1,0
81049,344.827586206897,4,2,1,50,1,0
81049,-100,4,2,1,50,0,0
81541,344.827586206897,4,2,1,70,1,0
81541,-100,4,2,1,70,0,0
83942,344.827586206897,4,2,1,60,1,0
83942,-100,4,2,1,60,0,0
84644,344.827586206897,4,2,1,70,1,0
84644,-100,4,2,1,70,0,0
87560,344.827586206897,4,2,1,70,1,0
87560,-100,4,2,1,70,0,0
87747,344.827586206897,4,2,1,70,1,0
87747,-100,4,2,1,70,0,0
88437,344.827586206897,4,2,1,70,1,0
88437,-100,4,2,1,70,0,0
89463,344.827586206897,4,2,1,70,1,0
89463,-100,4,2,1,70,0,0
90669,-100,4,2,1,50,0,0
91014,-100,4,2,1,70,0,0
91195,344.827586206897,4,2,1,70,1,0
91195,-100,4,2,1,70,0,0
92574,-100,4,2,1,70,0,1
98048,-100,4,2,1,70,0,0
98091,-100,4,2,1,70,0,1
98430,344.827586206897,4,2,1,70,1,1
98430,-100,4,2,1,70,0,1
98770,344.827586206897,4,2,1,70,1,1
98770,-100,4,2,1,70,0,1
100500,344.827586206897,4,2,1,70,1,1
100500,-100,4,2,1,70,0,1
103517,-100,4,2,1,5,0,0
103560,-100,4,2,1,70,0,0
103603,-100,4,2,1,70,0,1
103646,-100,4,2,1,70,0,0
105478,344.827586206897,4,2,1,50,1,0
105655,344.827586206897,4,2,1,70,1,0
105655,-100,4,2,1,70,0,0
106349,344.827586206897,4,2,1,70,1,1
106349,-100,4,2,1,70,0,1
107226,344.827586206897,4,2,1,70,1,1
107226,-100,4,2,1,70,0,1
107743,344.827586206897,4,2,1,70,1,1
107743,-100,4,2,1,70,0,1
114596,-100,4,2,1,70,0,0
114639,-100,4,2,1,70,0,1
125630,-100,4,2,1,70,0,0
125664,344.827586206897,4,2,1,70,1,1
125664,-100,4,2,1,70,0,1
125707,-100,4,2,1,70,0,0
128240,344.827586206897,4,2,1,70,1,0
128240,-100,4,2,1,70,0,0
128437,344.827586206897,4,2,1,70,1,0

[Colours]
Combo1 : 209,63,49
Combo2 : 2,132,130
Combo3 : 56,52,54
Combo4 : 176,149,91

[HitObjects]
256,192,2687,12,0,3980,0:0:0:0:
93,296,4324,6,0,L|86:197,1,82.5,4|0,1:0|0:0,0:0:0:0:
143,152,4669,1,0,0:0:0:0:
159,148,4842,1,0,0:0:0:0:
175,144,5014,1,0,0:0:0:0:
191,141,5187,1,0,0:0:0:0:
262,114,5359,2,0,P|299:110|339:110,1,61.875002360344,0|0,0:0|0:0,0:0:0:0:
360,217,5704,6,0,L|356:296,1,61.875002360344,0|0,0:0|0:0,0:0:0:0:
485,326,6049,2,0,L|481:264,1,61.875002360344,0|0,0:0|0:0,0:0:0:0:
358,232,6393,2,0,L|360:311,1,61.875002360344,0|0,0:0|0:0,0:0:0:0:
492,330,6738,2,0,L|483:268,1,61.875002360344,0|0,0:0|0:0,0:0:0:0:
467,156,7083,5,0,0:0:0:0:
458,146,7256,2,0,L|369:143,1,61.875002360344,0|0,0:0|0:0,0:0:0:0:
279,141,7600,1,0,0:0:0:0:
333,196,7773,2,0,P|340:229|342:277,1,61.875002360344,0|0,0:0|0:0,0:0:0:0:
194,312,8118,2,0,P|188:281|187:250,1,61.875002360344,0|0,0:0|0:0,0:0:0:0:
173,140,8462,5,0,0:0:0:0:
162,129,8635,1,0,0:0:0:0:
173,118,8807,1,0,0:0:0:0:
183,129,8980,1,0,0:0:0:0:
118,206,9152,5,0,0:0:0:0:
116,218,9325,1,0,0:0:0:0:
114,230,9497,1,0,0:0:0:0:
112,242,9669,1,0,0:0:0:0:
187,250,9842,6,0,L|266:246,1,61.875002360344,0|0,0:0|0:0,0:0:0:0:
326,329,10187,2,0,L|387:332,1,61.875002360344
504,222,10531,1,12,1:3:0:0:
385,38,10876,2,0,L|391:117,1,61.875002360344
278,51,11221,6,0,P|240:48|202:59,1,61.875002360344,0|0,0:0|0:0,0:0:0:0:
181,169,11566,2,0,P|219:172|257:161,1,61.875002360344,0|0,0:0|0:0,0:0:0:0:
265,49,11911,2,0,P|227:49|190:64,1,61.875002360344,0|0,0:0|0:0,0:0:0:0:
179,175,12256,2,0,P|217:175|254:161,1,61.875002360344,0|0,0:0|0:0,0:0:0:0:
372,224,12600,5,0,0:0:0:0:
380,214,12773,2,0,L|383:130,1,61.875002360344,0|0,0:0|0:0,0:0:0:0:
386,37,13118,1,0,0:0:0:0:
432,93,13290,2,0,P|462:90|491:78,1,61.875002360344,0|0,0:0|0:0,0:0:0:0:
364,58,13635,2,0,P|333:60|303:54,1,61.875002360344,0|0,0:0|0:0,0:0:0:0:
163,98,13980,5,12,1:3:0:0:
243,204,14152,1,12,1:3:0:0:
178,75,14325,1,12,1:3:0:0:
138,262,14497,1,12,1:3:0:0:
301,152,14669,5,12,1:3:0:0:
108,111,14842,1,0,1:0:0:0:
333,38,15014,1,8,1:0:0:0:
283,252,15187,1,0,1:0:0:0:
209,67,15359,6,0,P|157:47|98:40,1,82.5,4|0,1:0|0:0,0:0:0:0:
19,142,15704,1,10,1:0:0:0:
120,24,15876,1,0,0:0:0:0:
85,191,16049,2,0,L|91:289,1,82.5,2|0,1:0|0:0,0:0:0:0:
274,314,16393,2,0,L|279:231,1,82.5,10|0,1:0|0:0,0:0:0:0:
201,88,16738,5,2,1:0:0:0:
361,51,16911,1,0,0:0:0:0:
227,169,17083,2,0,P|205:207|210:259,1,82.5,10|0,1:0|0:0,0:0:0:0:
125,126,17428,5,2,1:0:0:0:
259,160,17600,1,0,0:0:0:0:
131,224,17773,2,0,P|131:262|187:314,1,82.5,10|0,1:0|0:0,0:0:0:0:
288,350,18118,5,2,1:0:0:0:
206,209,18290,2,0,L|211:104,1,82.5,0|10,0:0|1:0,0:0:0:0:
154,298,18635,1,0,0:0:0:0:
288,160,18807,2,0,P|332:141|392:140,1,82.5,2|0,1:0|0:0,0:0:0:0:
451,291,19152,2,0,P|403:297|345:283,1,82.5,10|0,1:0|0:0,0:0:0:0:
274,157,19497,5,2,1:0:0:0:
240,285,19669,1,0,1:0:0:0:
198,108,19842,1,10,1:0:0:0:
146,298,20014,1,0,1:0:0:0:
302,228,20187,5,2,0:0:0:0:
163,192,20359,1,0,1:0:0:0:
371,141,20531,1,10,1:0:0:0:
155,81,20704,1,0,1:0:0:0:
382,67,20876,6,0,P|425:90|447:153,1,82.5,4|0,1:0|0:0,0:0:0:0:
388,300,21221,1,10,1:0:0:0:
371,141,21393,1,0,0:0:0:0:
296,224,21566,2,0,L|212:215,1,82.5,2|0,1:0|0:0,0:0:0:0:
150,59,21911,2,0,L|234:50,1,82.5,10|0,1:0|0:0,0:0:0:0:
395,108,22256,5,2,1:0:0:0:
395,108,22428,1,0,0:0:0:0:
296,224,22600,2,0,L|299:324,1,82.5,10|0,1:0|0:0,0:0:0:0:
295,109,22945,5,2,1:0:0:0:
189,164,23118,1,0,0:0:0:0:
329,238,23290,2,0,L|332:338,1,82.5,10|0,1:0|0:0,0:0:0:0:
184,377,23635,5,2,1:0:0:0:
254,212,23807,2,0,P|269:162|252:108,1,82.5,0|10,0:0|1:0,0:0:0:0:
154,18,24152,1,0,0:0:0:0:
56,137,24325,2,0,L|58:249,1,82.5,2|0,1:0|1:0,0:0:0:0:
126,320,24669,2,0,L|121:373,2,41.25,8|0|0,1:0|0:0|1:0,0:0:0:0:
310,320,25004,5,4,1:0:0:0:
312,299,25090,1,0,1:0:0:0:
315,279,25176,1,0,1:0:0:0:
204,265,25348,5,4,1:0:0:0:
202,248,25434,1,0,1:0:0:0:
201,231,25520,1,0,1:0:0:0:
335,187,25693,5,4,1:0:0:0:
337,174,25779,1,0,1:0:0:0:
339,161,25865,1,0,1:0:0:0:
192,138,26038,5,8,1:0:0:0:
189,109,26124,1,8,1:0:0:0:
186,80,26210,1,8,1:0:0:0:
183,51,26296,1,8,1:0:0:0:
180,23,26393,6,0,B|222:38|222:38|305:29,1,115.49999647522,4|0,1:0|0:0,0:0:0:0:
292,30,26910,1,0,0:0:0:0:
388,131,27082,2,0,L|383:265,1,115.49999647522,10|0,1:0|0:0,0:0:0:0:
383,246,27599,1,0,0:0:0:0:
328,351,27772,2,0,P|285:312|268:246,1,115.49999647522,2|0,3:0|0:0,0:0:0:0:
267,258,28289,1,0,0:0:0:0:
157,160,28461,6,0,L|152:108,1,41.25,10|0,1:0|0:0,0:0:0:0:
306,20,28720,2,0,L|353:41,1,41.25,0|0,1:0|1:0,0:0:0:0:
361,218,28979,2,0,L|318:248,1,41.25,0|0,1:0|1:0,0:0:0:0:
232,300,29151,6,0,P|266:332|356:349,1,115.49999647522,2|0,3:0|0:0,0:0:0:0:
330,351,29668,1,0,0:0:0:0:
327,241,29841,2,0,L|402:237,2,57.7499982376099,10|0|0,1:0|0:0|0:0,0:0:0:0:
235,184,30358,1,0,0:0:0:0:
235,184,30530,2,0,P|219:233|242:306,1,115.49999647522,2|0,3:0|1:0,0:0:0:0:
206,328,30961,1,0,1:0:0:0:
170,317,31047,1,0,1:0:0:0:
133,322,31133,1,0,1:0:0:0:
101,342,31219,5,10,1:0:0:0:
71,157,31479,1,0,1:0:0:0:
229,223,31737,1,0,1:0:0:0:
78,268,31910,6,0,B|61:223|61:223|72:143,1,115.49999647522,4|0,1:0|0:0,0:0:0:0:
70,156,32427,1,0,0:0:0:0:
166,95,32599,2,0,P|207:108|295:96,1,115.49999647522,10|0,1:0|0:0,0:0:0:0:
278,102,33117,1,0,0:0:0:0:
339,212,33289,2,0,L|217:204,1,115.49999647522,2|0,3:0|0:0,0:0:0:0:
223,204,33806,1,0,0:0:0:0:
70,296,33979,6,0,P|55:268|46:236,1,41.25,10|0,1:0|0:0,0:0:0:0:
171,123,34237,2,0,P|180:92|196:63,1,41.25,0|0,1:0|1:0,0:0:0:0:
365,103,34496,2,0,P|393:88|425:79,1,41.25,0|0,1:0|1:0,0:0:0:0:
505,152,34668,6,0,B|522:200|522:200|508:281,1,115.49999647522,2|0,3:0|0:0,0:0:0:0:
511,263,35186,1,0,0:0:0:0:
339,288,35358,1,10,1:0:0:0:
339,288,35530,2,0,L|350:206,1,57.7499982376099,0|0,0:0|0:0,0:0:0:0:
365,103,35875,1,0,0:0:0:0:
252,194,36048,5,8,1:0:0:0:
209,204,36162,1,8,1:0:0:0:
167,194,36277,1,8,1:0:0:0:
211,126,36393,5,8,1:0:0:0:
173,103,36507,1,8,1:0:0:0:
151,66,36622,1,8,1:0:0:0:
232,53,36737,5,8,1:0:0:0:
92,170,36940,1,4,1:0:0:0:
317,66,37198,1,4,1:0:0:0:
306,288,37457,1,4,1:0:0:0:
306,288,37773,5,10,1:0:0:0:
406,244,37945,1,0,1:0:0:0:
258,207,38118,2,0,B|199:226|199:226|95:202,1,148.49999546814,0|10,0:0|1:0,0:0:0:0:
79,143,38635,1,0,1:0:0:0:
287,120,38807,2,0,P|326:148|336:249,1,148.49999546814,2|10,1:0|1:0,0:0:0:0:
301,303,39324,1,0,1:0:0:0:
134,328,39497,6,0,L|128:278,1,41.25,0|0,1:0|1:0,0:0:0:0:
224,123,39755,2,0,L|228:163,1,41.25,0|10,1:0|1:0,0:0:0:0:
396,253,40014,2,0,L|391:212,1,41.25,0|0,1:0|1:0,0:0:0:0:
449,125,40186,6,0,P|391:106|293:175,1,165,2|10,3:0|1:0,0:0:0:0:
286,220,40704,1,0,1:0:0:0:
147,263,40876,2,0,L|149:138,1,111.374996601105,0|0,0:0|0:0,0:0:0:0:
166,128,41221,1,10,1:0:0:0:
37,79,41393,1,0,1:0:0:0:
78,194,41566,2,0,B|77:302|77:302|38:241,1,148.49999546814,2|2,1:0|1:0,0:0:0:0:
0,312,41997,1,0,1:0:0:0:
16,348,42083,1,0,1:0:0:0:
49,372,42169,1,0,1:0:0:0:
89,376,42255,6,0,P|132:349|150:300,1,74.2499977340699,2|0,1:0|0:0,0:0:0:0:
200,264,42514,1,0,1:0:0:0:
180,247,42600,2,0,L|183:169,1,74.2499977340699,10|0,1:0|1:0,0:0:0:0:
406,236,42945,6,0,L|226:244,1,148.49999546814,4|10,1:0|1:0,0:0:0:0:
180,247,43462,1,0,1:0:0:0:
301,315,43635,2,0,P|330:277|306:178,1,148.49999546814,0|10,0:0|1:0,0:0:0:0:
324,107,44152,1,0,1:0:0:0:
183,24,44324,2,0,B|174:85|174:85|186:122|186:122|178:175,1,148.49999546814,2|10,1:0|1:0,0:0:0:0:
168,242,44842,1,0,1:0:0:0:
261,120,45014,6,0,L|243:71,1,41.25,2|0,1:0|1:0,0:0:0:0:
56,89,45273,2,0,L|70:127,1,41.25,0|10,1:0|1:0,0:0:0:0:
293,121,45531,1,0,1:0:0:0:
281,94,45617,1,0,1:0:0:0:
270,67,45704,6,0,B|226:48|226:48|115:62,1,148.49999546814,4|10,1:0|1:0,0:0:0:0:
27,205,46221,2,0,L|121:194,1,74.2499977340699,0|0,1:0|0:0,0:0:0:0:
260,299,46566,2,0,L|186:307,1,74.2499977340699,0|10,1:0|1:0,0:0:0:0:
55,328,46911,1,0,0:0:0:0:
211,231,47083,5,8,1:0:0:0:
249,225,47197,1,8,1:0:0:0:
287,220,47312,1,8,1:0:0:0:
314,153,47428,5,8,1:0:0:0:
275,147,47542,1,8,1:0:0:0:
237,142,47657,1,8,1:0:0:0:
213,74,47773,5,8,1:0:0:0:
183,331,48462,6,0,B|86:330|56:221|56:221|77:250|124:257,1,247.5,4|0,1:0|1:0,0:0:0:0:
110,254,49324,1,0,1:0:0:0:
351,187,49497,2,0,B|235:178|235:178|268:192|296:211,1,165,10|0,1:0|0:0,0:0:0:0:
400,284,50014,1,8,1:0:0:0:
477,117,50186,2,0,P|477:71|464:24,1,82.5,2|0,1:0|0:0,0:0:0:0:
330,14,50531,1,2,1:0:0:0:
407,153,50704,1,0,1:0:0:0:
233,62,50876,2,0,L|146:60,1,82.5,10|0,1:0|1:0,0:0:0:0:
37,167,51221,6,0,P|82:202|214:188,1,165,4|0,1:0|0:0,0:0:0:0:
328,299,51738,2,0,B|366:251|366:251|378:126,1,165,0|0,1:0|1:0,0:0:0:0:
241,70,52255,2,0,P|196:105|64:91,1,165,10|0,1:0|0:0,0:0:0:0:
22,230,52773,2,0,P|14:277|18:333,1,82.5,10|0,1:0|0:0,0:0:0:0:
235,333,53118,6,0,L|275:338,2,27.5,0|0|0,1:0|1:0|1:0,0:0:0:0:
213,307,53290,1,10,1:0:0:0:
307,229,53462,2,0,L|331:260,2,27.5,0|0|0,1:0|1:0|1:0,0:0:0:0:
316,186,53635,1,10,1:0:0:0:
316,186,53980,6,0,L|137:171,1,165,4|0,1:0|0:0,0:0:0:0:
27,207,54497,2,0,P|46:255|158:301,1,165,0|0,1:0|1:0,0:0:0:0:
326,242,55014,2,0,P|337:195|328:142,2,82.5,10|0|0,1:0|0:0|0:0,0:0:0:0:
219,77,55531,2,0,L|325:69,1,82.5,8|0,1:0|0:0,0:0:0:0:
463,62,55876,1,0,1:0:0:0:
355,168,56035,5,8,1:0:0:0:
322,165,56121,1,8,1:3:0:0:
290,175,56207,1,8,1:3:0:0:
263,195,56293,1,8,1:3:0:0:
248,224,56379,1,8,1:3:0:0:
421,202,56566,1,8,1:0:0:0:
430,170,56652,1,8,1:0:0:0:
424,137,56738,6,0,P|399:109|343:98,1,82.5,4|0,1:0|1:0,0:0:0:0:
259,131,57083,1,2,1:0:0:0:
264,237,57255,1,0,1:0:0:0:
431,294,57428,2,0,L|422:185,1,82.5,10|0,1:0|1:0,0:0:0:0:
371,118,57772,1,2,1:0:0:0:
428,27,57945,1,0,1:0:0:0:
349,201,58117,6,0,B|310:209|310:209|246:198,1,82.5,10|0,1:0|1:0,0:0:0:0:
177,142,58462,1,2,1:0:0:0:
72,165,58634,1,0,1:0:0:0:
195,293,58807,1,10,1:0:0:0:
319,103,58979,2,0,L|229:99,1,82.5,0|0,1:0|0:0,0:0:0:0:
129,91,59324,1,4,1:0:0:0:
20,266,59496,6,0,B|84:295|128:261|128:261|164:281|214:254|214:254|183:315,1,247.5,4|0,1:0|1:0,0:0:0:0:
194,292,60359,1,0,1:0:0:0:
119,131,60531,2,0,L|129:20,2,82.5,10|0|0,1:0|0:0|0:0,0:0:0:0:
261,210,61048,2,0,P|311:195|374:206,1,82.5,8|0,1:0|0:0,0:0:0:0:
488,221,61393,2,0,L|493:263,2,27.5,0|0|0,1:0|1:0|1:0,0:0:0:0:
469,193,61565,1,10,1:0:0:0:
484,55,61738,1,0,1:0:0:0:
484,55,62083,5,0,1:0:0:0:
339,128,62255,2,0,P|284:143|186:74,1,165,4|0,1:0|0:0,0:0:0:0:
75,148,62772,2,0,B|48:202|48:202|59:331,1,165,0|0,1:0|1:0,0:0:0:0:
198,352,63290,2,0,L|293:348,1,82.5,10|0,1:0|0:0,0:0:0:0:
397,256,63634,1,0,0:0:0:0:
397,256,63807,1,10,1:0:0:0:
247,222,63979,5,0,1:0:0:0:
246,201,64065,1,4,1:3:0:0:
245,180,64151,1,4,1:3:0:0:
244,160,64237,1,4,1:3:0:0:
270,131,64324,5,8,1:3:0:0:
270,110,64410,1,8,1:3:0:0:
271,89,64496,1,8,1:3:0:0:
272,69,64582,1,8,1:3:0:0:
294,37,64669,5,12,1:3:0:0:
319,50,64755,1,12,1:3:0:0:
347,55,64841,1,12,1:3:0:0:
376,51,64927,1,12,1:3:0:0:
396,27,65014,6,0,B|467:15|467:15|428:57|448:121,1,165,4|0,1:0|0:0,0:0:0:0:
498,253,65531,2,0,B|441:241|441:241|304:273,1,165,0|0,1:0|1:0,0:0:0:0:
219,332,66048,2,0,P|177:307|59:338,1,165,10|0,1:0|0:0,0:0:0:0:
20,217,66565,2,0,B|14:99|14:99|45:152,1,165,8|0,1:0|1:0,0:0:0:0:
109,271,67083,1,8,1:0:0:0:
156,170,67255,1,0,1:0:0:0:
203,315,67428,1,8,1:0:0:0:
135,166,67600,1,0,1:0:0:0:
316,206,67772,5,4,1:0:0:0:
256,192,67859,12,14,69841,1:0:0:0:
118,82,70495,5,4,1:0:0:0:
88,257,70860,1,4,1:0:0:0:
162,73,73276,5,4,1:0:0:0:
170,283,73620,1,0,0:0:0:0:
221,82,75998,5,4,1:0:0:0:
244,328,76362,1,4,1:0:0:0:
303,92,78755,5,4,1:0:0:0:
372,343,79118,1,4,1:0:0:0:
153,171,81049,6,0,L|112:177,2,27.5,0|0|0,1:3|0:0|0:0,0:0:0:0:
179,146,81221,1,4,1:3:0:0:
179,146,81541,6,0,P|233:128|352:140,1,165,4|2,1:0|1:0,0:0:0:0:
457,202,82058,1,0,1:0:0:0:
346,337,82230,2,0,P|338:293|344:233,2,82.5,10|0|2,1:0|1:0|1:0,0:0:0:0:
346,337,82920,5,2,1:0:0:0:
359,138,83092,1,0,1:0:0:0:
359,138,83437,1,0,1:0:0:0:
346,337,83609,1,10,1:0:0:0:
216,217,83942,5,2,1:0:0:0:
218,188,84028,1,0,1:0:0:0:
220,159,84114,1,0,1:0:0:0:
222,130,84200,1,0,1:0:0:0:
225,101,84286,2,0,B|290:83|290:83|419:104,1,165,4|0,1:0|0:0,0:0:0:0:
459,214,84816,1,0,1:0:0:0:
324,141,84988,2,0,P|313:92|342:36,1,82.5,10|0,1:0|1:0,0:0:0:0:
286,231,85333,1,2,1:0:0:0:
286,231,85678,5,2,1:0:0:0:
254,21,85850,1,0,1:0:0:0:
254,21,86195,1,2,1:0:0:0:
286,231,86368,1,10,1:0:0:0:
143,306,86712,5,2,1:0:0:0:
112,317,86798,1,0,1:0:0:0:
79,314,86884,1,0,1:0:0:0:
50,299,86970,1,0,1:0:0:0:
29,274,87057,2,0,L|37:179,1,82.5,6|0,1:0|0:0,0:0:0:0:
15,372,87402,1,2,1:0:0:0:
105,233,87560,1,2,1:0:0:0:
193,371,87747,2,0,P|235:380|291:357,1,82.5,10|2,1:0|1:0,0:0:0:0:
395,271,88091,1,2,1:0:0:0:
395,271,88437,5,2,1:0:0:0:
166,249,88609,1,0,1:0:0:0:
166,249,88954,1,2,1:0:0:0:
395,271,89126,1,10,1:0:0:0:
197,60,89463,5,2,1:0:0:0:
200,92,89549,1,0,1:0:0:0:
203,125,89635,1,0,1:0:0:0:
206,158,89721,1,0,1:0:0:0:
209,191,89807,6,0,B|239:204|273:175|273:175|301:189|339:175|339:175|344:226|379:257|437:254|474:231|481:173,1,330,6|8,1:0|1:0,0:0:0:0:
290,287,90669,2,0,L|285:350,2,41.25,8|8|8,1:0|1:0|1:0,0:0:0:0:
304,107,91014,1,8,1:0:0:0:
409,172,91195,5,8,1:3:0:0:
415,195,91281,1,8,1:3:0:0:
412,220,91367,1,0,1:0:0:0:
399,241,91453,1,0,1:0:0:0:
379,255,91539,1,4,1:3:0:0:
355,260,91626,1,4,1:3:0:0:
331,255,91712,1,0,1:0:0:0:
311,241,91798,1,0,1:0:0:0:
298,220,91884,5,8,1:3:0:0:
283,239,91970,1,12,1:3:0:0:
263,253,92056,1,0,1:0:0:0:
239,260,92142,1,0,1:0:0:0:
214,260,92228,5,8,1:0:0:0:
221,301,92315,1,8,1:0:0:0:
227,341,92401,1,8,1:3:0:0:
227,341,92488,1,4,1:3:0:0:
227,341,92574,6,0,L|120:336,2,82.5,12|0|2,1:0|1:0|1:0,0:0:0:0:
397,339,93091,1,0,1:0:0:0:
214,260,93263,2,0,L|107:255,1,82.5,12|0,1:0|1:0,0:0:0:0:
330,266,93608,1,2,1:0:0:0:
190,158,93781,2,0,P|176:104|186:44,1,82.5,0|12,1:0|1:0,0:0:0:0:
156,256,94126,1,0,1:0:0:0:
271,142,94298,2,0,P|281:87|315:36,1,82.5,2|0,1:0|1:0,0:0:0:0:
452,21,94643,5,12,1:0:0:0:
293,63,94815,1,0,1:0:0:0:
444,169,94988,1,2,1:0:0:0:
333,2,95160,1,0,1:0:0:0:
347,179,95332,5,12,1:0:0:0:
347,179,95505,1,0,1:0:0:0:
220,301,95677,2,0,P|217:240|229:192,1,82.5,2|0,1:0|1:0,0:0:0:0:
284,75,96022,1,12,1:0:0:0:
152,135,96195,1,0,1:0:0:0:
307,215,96367,2,0,L|413:209,1,82.5,2|0,1:0|1:0,0:0:0:0:
220,301,96712,5,12,1:0:0:0:
201,196,96884,1,0,1:0:0:0:
310,325,97057,1,2,1:0:0:0:
310,325,97229,1,0,1:0:0:0:
194,328,97401,5,12,1:0:0:0:
283,235,97574,1,0,1:0:0:0:
183,358,97746,1,2,1:0:0:0:
188,221,97919,1,0,1:0:0:0:
68,284,98091,6,0,B|27:295|27:295|-40:291,1,82.5,12|0,1:0|1:0,0:0:0:0:
184,336,98430,1,0,0:0:0:0:
184,336,98602,1,0,1:0:0:0:
94,200,98770,2,0,L|-4:224,1,82.5,12|0,1:0|1:0,0:0:0:0:
183,170,99114,1,2,1:0:0:0:
120,295,99287,2,0,P|109:340|121:375,1,82.5,0|12,1:0|1:0,0:0:0:0:
94,200,99632,1,0,1:0:0:0:
242,260,99804,5,2,1:0:0:0:
242,260,99976,1,0,1:0:0:0:
176,102,100149,1,12,1:0:0:0:
317,169,100321,1,0,1:0:0:0:
122,200,100500,1,2,1:0:0:0:
289,157,100672,1,0,1:0:0:0:
256,192,100844,12,0,103517,0:0:0:0:
301,118,103603,5,4,1:0:0:0:
205,249,105478,6,0,L|199:287,2,27.5,0|0|0,1:0|1:0|1:0,0:0:0:0:
231,227,105655,1,8,1:0:0:0:
204,122,105827,1,0,1:0:0:0:
204,122,106349,6,0,B|264:153|316:112|316:112|368:142|368:142|445:123,1,247.5,4|0,1:0|1:0,0:0:0:0:
433,125,107226,1,0,1:0:0:0:
306,219,107398,2,0,B|283:278|283:278|303:382,1,165,10|0,1:0|0:0,0:0:0:0:
201,271,107915,2,0,L|237:186,1,82.5,10|0,1:0|0:0,0:0:0:0:
437,125,108260,6,0,L|476:122,2,27.5,0|0|0,1:0|1:0|1:0,0:0:0:0:
411,105,108432,1,10,1:0:0:0:
378,236,108605,2,0,L|407:261,2,27.5,0|0|0,1:0|1:0|1:0,0:0:0:0:
366,204,108777,1,10,1:0:0:0:
366,204,109122,6,0,L|178:210,1,165,4|0,1:0|0:0,0:0:0:0:
138,302,109639,2,0,P|97:250|114:136,1,165,0|0,1:0|1:0,0:0:0:0:
195,42,110156,2,0,B|257:73|257:73|372:49,1,165,10|0,1:0|0:0,0:0:0:0:
467,144,110674,2,0,B|494:191|472:255|472:255|468:221|437:188,1,165,8|0,1:0|1:0,0:0:0:0:
290,150,111191,5,8,1:0:0:0:
257,148,111277,1,8,1:3:0:0:
224,147,111363,1,8,1:3:0:0:
191,145,111449,1,8,1:3:0:0:
158,144,111535,1,8,1:3:0:0:
45,258,111708,1,8,1:0:0:0:
77,255,111794,1,8,1:0:0:0:
110,251,111880,6,0,L|201:255,1,82.5,4|0,1:0|1:0,0:0:0:0:
323,326,112225,1,2,1:0:0:0:
393,255,112398,1,0,1:0:0:0:
218,343,112570,2,0,P|207:303|227:239,1,82.5,10|0,1:0|1:0,0:0:0:0:
288,135,112915,1,2,1:0:0:0:
252,42,113087,1,0,1:0:0:0:
108,153,113260,6,0,P|154:160|215:145,1,82.5,10|0,1:0|1:0,0:0:0:0:
319,104,113605,1,2,1:0:0:0:
414,128,113777,1,0,1:0:0:0:
252,42,113949,1,10,1:0:0:0:
313,191,114122,2,0,B|332:246|332:246|306:360,1,165,0|0,1:0|1:0,0:0:0:0:
177,353,114639,6,0,B|157:298|186:228|186:228|233:201|233:201|229:166|257:131,1,247.5,4|0,1:0|1:0,0:0:0:0:
250,139,115501,1,0,1:0:0:0:
141,278,115674,2,0,P|90:293|10:219,1,165,10|0,1:0|0:0,0:0:0:0:
56,100,116191,1,8,1:0:0:0:
159,311,116536,2,0,L|193:316,2,27.5,0|0|0,1:0|1:0|1:0,0:0:0:0:
141,278,116708,1,10,1:0:0:0:
272,208,116880,2,0,P|323:201|383:209,2,82.5,0|0|0,1:0|0:0|0:0,0:0:0:0:
177,109,117398,6,0,B|223:130|269:108|269:108|301:117|301:117|371:99,1,165,4|0,1:0|0:0,0:0:0:0:
133,46,117915,2,0,P|106:80|149:179,1,165,0|0,1:0|1:0,0:0:0:0:
303,232,118432,2,0,P|334:303|286:365,1,165,10|0,1:0|0:0,0:0:0:0:
398,212,118949,1,10,1:0:0:0:
321,86,119122,5,0,1:0:0:0:
293,77,119208,1,4,1:3:0:0:
264,76,119294,1,4,1:3:0:0:
237,83,119380,1,4,1:3:0:0:
207,114,119466,5,8,1:3:0:0:
220,130,119553,1,8,1:3:0:0:
229,148,119639,1,8,1:3:0:0:
234,168,119725,1,8,1:3:0:0:
216,202,119811,5,12,1:3:0:0:
206,229,119897,1,12,1:3:0:0:
203,258,119983,1,12,1:3:0:0:
205,286,120069,1,12,1:3:0:0:
232,311,120156,6,0,P|252:344|380:352,1,165,4|0,1:0|0:0,0:0:0:0:
339,137,120674,2,0,B|308:191|308:191|317:293,1,165,0|0,1:0|1:0,0:0:0:0:
191,345,121191,2,0,B|97:312|115:374|11:334,1,165,10|0,1:0|0:0,0:0:0:0:
52,215,121708,2,0,B|73:200|85:167|85:167|66:273,1,165,8|0,1:0|1:0,0:0:0:0:
8,151,122225,1,8,1:0:0:0:
161,239,122398,1,0,1:0:0:0:
123,105,122570,1,8,1:0:0:0:
148,246,122743,1,0,1:0:0:0:
226,91,122915,6,0,L|318:85,1,82.5,4|0,1:0|1:0,0:0:0:0:
461,74,123260,1,2,1:0:0:0:
336,13,123432,1,0,1:0:0:0:
400,150,123605,2,0,L|406:242,1,82.5,14|0,1:0|1:0,0:0:0:0:
416,363,123949,1,2,1:0:0:0:
480,263,124122,1,0,1:0:0:0:
322,325,124294,6,0,P|268:331|226:322,1,82.5,14|0,1:0|1:0,0:0:0:0:
113,196,124639,2,0,P|167:202|209:193,1,82.5,2|0,1:0|1:0,0:0:0:0:
345,224,124984,1,10,1:0:0:0:
254,53,125156,1,0,1:0:0:0:
254,53,125501,1,10,1:0:0:0:
254,53,125664,6,0,P|261:109|261:161,1,82.5,4|0,1:0|1:0,0:0:0:0:
229,325,126008,1,10,1:0:0:0:
292,222,126181,1,0,1:0:0:0:
138,329,126353,2,0,P|136:287|130:246,1,82.5,2|0,1:0|1:0,0:0:0:0:
68,77,126698,1,10,1:0:0:0:
69,204,126870,1,0,1:0:0:0:
182,93,127043,6,0,L|289:86,1,82.5,2|0,1:0|1:0,0:0:0:0:
346,251,127388,2,0,L|239:244,1,82.5,10|0,1:0|1:0,0:0:0:0:
190,86,127732,2,0,L|298:89,1,82.5,2|0,1:0|1:0,0:0:0:0:
353,258,128077,1,10,1:0:0:0:
197,314,128240,2,0,L|145:327,2,27.5,0|0|0,1:0|1:0|1:0,0:0:0:0:
141,313,128437,5,12,1:3:0:0:
