osu file format v14

[General]
AudioFilename: soft-sliderslide2.mp3
AudioLeadIn: 0
PreviewTime: 52887
Countdown: 0
SampleSet: Soft
StackLeniency: 0.7
Mode: 0
LetterboxInBreaks: 0
WidescreenStoryboard: 0

[Editor]
Bookmarks: 613,21039,41438,52927,73352,93778,103990,126969,142927,169097
DistanceSpacing: 1.4
BeatDivisor: 8
GridSize: 32
TimelineZoom: 1.799999

[Metadata]
Title:Dyshi so mnoy
TitleUnicode:Дыши со мной
Artist:[AMATORY]
ArtistUnicode:[AMATORY]
Creator:Sieg
Version:Auxent's Light
Source:
Tags:[аматори] аматори amatory VII russian alternative rock breath with me auxent
BeatmapID:865083
BeatmapSetID:353338

[Difficulty]
HPDrainRate:4
CircleSize:3.5
OverallDifficulty:4
ApproachRate:4.5
SliderMultiplier:1.3
SliderTickRate:1

[Events]
//Background and Video events
0,0,"bg.jpg",0,0
Video,-248,"vid.avi"
//Break Periods
2,125892,141347
2,147375,156353
//Storyboard Layer 0 (Background)
//Storyboard Layer 1 (Fail)
//Storyboard Layer 2 (Pass)
//Storyboard Layer 3 (Foreground)
//Storyboard Sound Samples

[TimingPoints]
613,638.297872340426,4,2,1,18,1,0
21039,618.556701030928,4,2,1,60,1,0
21039,-83.3333333333333,4,2,1,60,0,0
21976,625,4,2,1,60,1,0
22914,666.666666666667,4,2,1,60,1,0
22914,-83.3333333333333,4,2,1,60,0,0
23566,638.297872340426,4,2,1,60,1,0
23566,-83.3333333333333,4,2,1,60,0,0
40940,638.297872340426,4,2,1,60,1,0
40940,-83.3333333333333,4,2,1,60,0,0
41438,638.297872340426,4,2,1,60,1,0
41438,-83.3333333333333,4,2,1,60,0,0
51650,600,4,2,1,60,1,0
51650,-83.3333333333333,4,2,1,60,0,0
51969,600,4,2,1,60,1,0
51969,-83.3333333333333,4,2,1,60,0,0
52289,638.297872340426,4,2,1,60,1,0
52927,638.297872340426,4,2,1,60,1,1
52927,-83.3333333333333,4,2,1,60,0,1
62980,-83.3333333333333,4,2,1,60,0,0
63139,-83.3333333333333,4,2,1,60,0,1
73512,-83.3333333333333,4,2,1,60,0,0
93778,-83.3333333333333,4,2,1,60,0,0
103352,-83.3333333333333,4,2,1,60,0,0
103990,-83.3333333333333,4,2,1,60,0,1
114044,-83.3333333333333,4,2,1,60,0,0
114203,-83.3333333333333,4,2,1,60,0,1
125852,-83.3333333333333,4,2,1,60,0,0
142927,-83.3333333333333,4,2,1,60,0,0
143565,-83.3333333333333,4,2,1,60,0,0
144848,638.297872340426,4,2,1,60,1,0
144848,-83.3333333333333,4,2,1,60,0,0
146524,638.297872340426,4,2,1,60,1,0
147375,638.297872340426,4,2,1,60,1,0
148025,638.297872340426,4,2,1,60,1,0
148998,638.297872340426,4,2,1,60,1,0
152330,638.297872340426,4,2,1,60,1,0
152986,638.297872340426,4,2,1,60,1,0
153145,638.297872340426,4,2,1,60,1,0
163682,638.297872340426,4,2,1,60,1,0
164788,638.297872340426,4,2,1,60,1,0
165094,638.297872340426,4,2,1,60,1,0
165423,638.297872340426,4,2,1,60,1,0
169097,638.297872340426,4,2,1,60,1,0
169097,-83.3333333333333,4,2,1,60,0,1
179150,-83.3333333333333,4,2,1,60,0,0
179309,-83.3333333333333,4,2,1,60,0,1
179955,638.297872340426,4,2,1,60,1,1
179955,-83.3333333333333,4,2,1,60,0,1
190087,-83.3333333333333,4,2,1,60,0,0
190167,-83.3333333333333,4,2,1,60,0,1
190327,-83.3333333333333,4,2,1,60,0,0

[Colours]
Combo1 : 97,97,173
Combo2 : 167,51,48
Combo3 : 102,55,98

[HitObjects]
336,328,21039,6,0,L|180:340,1,155.999995239258,4|10,1:0|0:1,0:0:0:0:
94,267,21976,1,2,1:0:0:0:
112,158,22288,2,0,L|106:79,1,65,0|2,0:0|1:0,0:0:0:0:
223,66,22914,1,10,0:1:0:0:
338,108,23247,1,0,0:0:0:0:
452,115,23566,6,0,P|447:69|416:23,2,77.999997619629,2|0|10,1:0|0:0|0:1,0:0:0:0:
450,224,24523,2,0,P|424:303|346:338,1,155.999995239258,0|0,1:0|0:0,0:0:0:0:
341,229,25480,1,10,0:1:0:0:
256,159,25800,1,0,0:0:0:0:
325,75,26119,6,0,L|406:59,2,77.999997619629,2|0|10,1:0|0:0|0:1,0:0:0:0:
223,34,27076,2,0,P|147:34|90:92,1,155.999995239258,2|0,1:0|0:0,0:0:0:0:
54,189,28034,1,10,0:1:0:0:
91,291,28353,1,0,0:0:0:0:
188,338,28672,6,0,P|248:350|360:336,2,155.999995239258,2|10|0,1:0|0:1|0:0,0:0:0:0:
101,137,30587,2,0,P|137:152|187:155,1,77.999997619629,10|0,0:1|0:0,0:0:0:0:
248,74,31225,6,0,L|416:87,1,155.999995239258,4|10,1:0|0:1,0:0:0:0:
489,153,32183,2,0,L|472:197,1,38.9999988098145,2|0,1:0|1:0,0:0:0:0:
436,227,32502,2,0,P|369:254|283:221,1,155.999995239258,0|10,0:0|0:1,0:0:0:0:
136,73,33778,5,2,1:0:0:0:
236,267,34417,2,0,P|255:317|249:368,2,77.999997619629,10|2|0,0:1|1:0|0:0,0:0:0:0:
150,334,35374,1,2,1:0:0:0:
74,255,35693,1,10,0:1:0:0:
74,145,36012,1,0,0:0:0:0:
151,67,36331,6,0,B|232:39|330:70,2,155.999995239258,2|10|0,1:0|0:1|0:0,0:0:0:0:
229,270,38246,2,0,L|313:290,1,77.999997619629,10|0,0:1|0:0,0:0:0:0:
412,265,38885,6,0,L|447:109,2,155.999995239258,2|10|0,1:0|0:1|0:0,0:0:0:0:
304,288,40480,2,0,P|248:352|140:271,1,234.5,8|4,0:1|1:0,0:0:0:0:
211,71,42076,5,10,0:1:0:0:
52,221,42714,2,0,P|65:273|57:320,1,77.999997619629,4|0,1:1|0:0,0:0:0:0:
154,237,43352,2,0,P|141:185|149:135,1,77.999997619629,10|0,0:1|0:0,0:0:0:0:
249,182,43991,6,0,P|311:188|371:287,2,155.999995239258,4|12|4,1:1|0:1|1:1,0:0:0:0:
85,327,45906,1,12,0:1:0:0:
249,182,46544,6,0,L|254:81,1,77.999997619629,4|0,1:1|0:0,0:0:0:0:
344,45,47182,1,10,0:1:0:0:
313,261,47820,2,0,P|233:286|162:240,1,155.999995239258,4|10,1:1|0:1,0:0:0:0:
77,57,49097,6,0,L|58:157,1,77.999997619629,8|4,0:0|1:3,0:0:0:0:
139,210,49735,2,0,L|120:310,1,77.999997619629,4|4,1:3|1:3,0:0:0:0:
219,340,50374,1,4,1:3:0:0:
319,298,50693,2,0,P|361:317|391:172,1,233.999992858887,8|4,0:1|1:1,0:0:0:0:
314,136,51969,6,0,L|292:56,1,83.5,0|0,1:0|0:0,0:0:0:0:
99,94,52927,6,0,P|113:152|104:197,1,77.999997619629,4|2,1:1|0:1,0:0:0:0:
168,262,53565,2,0,L|153:366,2,77.999997619629,10|2|2,0:1|0:1|1:1,0:0:0:0:
258,200,54522,1,2,0:1:0:0:
360,238,54841,1,10,0:1:0:0:
436,160,55161,2,0,P|467:213|446:306,1,155.999995239258,2|2,0:1|0:1,0:0:0:0:
346,339,56118,5,10,0:1:0:0:
243,302,56437,1,2,0:1:0:0:
138,332,56756,2,0,L|42:319,1,77.999997619629,4|4,1:3|1:3,0:0:0:0:
135,241,57395,2,0,L|69:169,1,77.999997619629,10|2,0:1|0:1,0:0:0:0:
143,92,58033,6,0,P|203:72|314:112,1,155.999995239258,4|10,1:1|0:1,0:0:0:0:
383,150,58990,1,2,0:1:0:0:
469,213,59309,2,0,P|466:256|485:309,1,77.999997619629,2|2,1:1|0:1,0:0:0:0:
387,355,59948,1,10,0:1:0:0:
286,311,60267,2,0,B|222:288|140:336|140:336|155:289|123:245,1,233.999992858887,2|10,0:1|0:1,0:0:0:0:
312,136,61863,1,4,1:3:0:0:
246,48,62182,2,0,L|330:37,2,77.999997619629,4|10|2,1:3|0:1|0:1,0:0:0:0:
142,83,63139,6,0,P|157:163|129:254,1,155.999995239258,4|10,1:1|0:1,0:0:0:0:
174,340,64097,1,2,0:1:0:0:
270,288,64416,2,0,P|308:282|377:296,1,77.999997619629,2|2,1:1|0:1,0:0:0:0:
448,245,65054,1,10,0:1:0:0:
370,167,65373,2,0,P|297:173|220:133,1,155.999995239258,2|2,0:1|0:1,0:0:0:0:
141,65,66331,5,10,0:1:0:0:
32,50,66650,1,2,0:1:0:0:
19,158,66969,2,0,L|32:238,1,77.999997619629,4|4,1:3|1:3,0:0:0:0:
115,305,67607,1,10,0:1:0:0:
242,128,68246,6,0,P|299:119|322:27,2,155.999995239258,4|10|2,1:1|0:1|1:1,0:0:0:0:
156,196,69841,1,2,0:1:0:0:
238,267,70161,2,0,P|292:279|324:276,1,77.999997619629,10|2,0:1|0:1,0:0:0:0:
422,264,70799,6,0,L|499:105,2,155.999995239258,2|10|10,1:1|0:1|0:1,0:0:0:0:
216,338,72714,1,2,1:1:0:0:
82,165,73352,5,4,1:0:0:0:
291,104,73990,2,0,P|340:114|436:71,2,155.999995239258,10|0|10,0:1|0:0|0:1,0:0:0:0:
273,325,75905,6,0,P|193:323|172:312,1,77.999997619629,2|0,1:0|0:0,0:0:0:0:
237,222,76544,2,0,L|264:126,2,77.999997619629,10|0|0,0:1|1:0|0:0,0:0:0:0:
137,266,77501,1,0,1:0:0:0:
61,192,77820,2,0,L|88:96,1,77.999997619629,10|0,0:1|0:0,0:0:0:0:
176,62,78458,6,0,P|251:45|334:66,1,155.999995239258,4|10,1:0|0:1,0:0:0:0:
419,120,79416,2,0,P|419:165|443:215,1,77.999997619629,2|0,1:0|0:0,0:0:0:0:
472,296,80054,1,2,1:0:0:0:
364,313,80373,2,0,P|325:335|270:339,1,77.999997619629,10|0,0:1|0:0,0:0:0:0:
183,331,81012,6,0,P|131:337|88:333,1,77.999997619629,2|0,1:0|0:0,0:0:0:0:
23,263,81650,1,10,0:1:0:0:
104,191,81969,2,0,B|103:191|103:191|138:148|178:164|228:135|229:63|168:31|126:83|126:83|82:33|38:60|31:110|67:129,1,389.999988098145,2|4,1:0|1:0,0:0:0:0:
248,234,84203,6,0,L|330:239,1,77.999997619629,10|2,0:1|1:0,0:0:0:0:
400,155,84841,1,0,0:0:0:0:
330,70,85161,2,0,L|421:46,2,77.999997619629,2|10|0,1:0|0:1|0:0,0:0:0:0:
222,46,86118,6,0,P|175:94|87:110,1,155.999995239258,2|10,1:0|0:1,0:0:0:0:
14,188,87075,2,0,P|-5:253|25:337,1,155.999995239258,2|0,1:0|0:0,0:0:0:0:
99,256,88033,1,10,0:1:0:0:
266,109,88671,6,0,P|330:114|360:109,1,77.999997619629,4|0,1:0|0:0,0:0:0:0:
441,64,89309,2,0,L|461:230,1,155.999995239258,10|0,0:1|0:0,0:0:0:0:
273,332,90586,2,0,B|234:341|234:341|188:328,1,77.999997619629,10|0,0:1|0:0,0:0:0:0:
121,254,91224,6,0,P|151:208|132:101,2,155.999995239258,2|10|0,1:0|0:1|0:0,0:0:0:0:
294,120,93139,2,0,L|376:118,1,77.999997619629,8|0,0:1|1:0,0:0:0:0:
455,188,93778,6,0,P|496:243|458:343,2,155.999995239258,4|10|4,1:0|0:1|1:1,0:0:0:0:
272,307,95692,1,10,0:1:0:0:
57,348,96331,6,0,P|16:293|54:193,2,155.999995239258,4|12|4,1:1|0:1|1:1,0:0:0:0:
272,307,98246,1,12,0:1:0:0:
347,102,98884,6,0,P|421:111|495:73,2,155.999995239258,4|10|4,1:1|0:1|1:1,0:0:0:0:
184,248,100799,1,10,0:1:0:0:
396,297,101437,6,0,P|399:258|392:219,1,77.999997619629,8|4,0:0|1:3,0:0:0:0:
292,264,102075,2,0,P|275:228|250:199,1,77.999997619629,4|4,1:3|1:3,0:0:0:0:
141,215,102714,1,4,1:3:0:0:
141,215,103990,6,0,P|135:158|64:82,2,155.999995239258,4|10|2,1:1|0:1|1:1,0:0:0:0:
209,300,105586,1,2,0:1:0:0:
313,267,105905,1,10,0:1:0:0:
398,334,106224,2,0,P|424:268|390:189,1,155.999995239258,2|2,0:1|0:1,0:0:0:0:
301,132,107182,6,0,P|259:138|202:120,1,77.999997619629,10|2,0:1|0:1,0:0:0:0:
121,166,107820,2,0,L|92:320,1,155.999995239258,4|10,1:3|0:1,0:0:0:0:
191,364,108778,1,2,0:1:0:0:
289,315,109097,6,0,L|260:161,1,155.999995239258,4|10,1:1|0:1,0:0:0:0:
329,77,110054,1,2,0:1:0:0:
433,109,110373,2,0,L|450:197,1,77.999997619629,2|2,1:1|0:1,0:0:0:0:
365,256,111012,1,10,0:1:0:0:
263,297,111331,2,0,B|187:310|154:221|154:221|119:248|64:220,1,233.999992858887,2|10,0:1|0:1,0:0:0:0:
217,60,112927,1,4,1:3:0:0:
284,145,113246,2,0,L|380:132,2,77.999997619629,4|10|2,1:3|0:1|0:1,0:0:0:0:
224,241,114203,6,0,P|266:270|372:229,1,155.999995239258,4|10,1:1|0:1,0:0:0:0:
437,165,115161,1,2,0:1:0:0:
340,113,115480,2,0,L|177:96,1,155.999995239258,2|10,1:1|0:1,0:0:0:0:
88,147,116437,2,0,P|126:182|121:306,1,155.999995239258,2|2,0:1|0:1,0:0:0:0:
228,339,117395,5,10,0:1:0:0:
301,258,117714,1,2,0:1:0:0:
223,180,118033,2,0,P|221:141|231:103,1,77.999997619629,4|4,1:3|1:3,0:0:0:0:
330,150,118671,1,10,0:1:0:0:
256,192,118990,12,10,122501,0:1:0:0:
279,245,123139,6,0,L|443:225,1,155.999995239258,10|2,0:1|1:1,0:0:0:0:
272,78,124416,2,0,B|233:64|233:64|111:81,1,155.999995239258,10|2,0:1|1:1,0:0:0:0:
106,297,125692,1,4,1:0:0:0:
215,274,142607,6,0,P|159:290|102:289,2,77.999997619629,0|2|0,0:0|0:2|0:0,0:0:0:0:
243,168,143565,2,0,P|295:203|317:302,1,155.999995239258,4|4,1:3|1:3,0:0:0:0:
406,356,144522,1,4,1:3:0:0:
472,277,144848,6,0,P|486:185|382:90,1,233.999992858887,4|4,1:3|1:3,0:0:0:0:
289,80,146124,1,2,0:0:0:0:
192,295,157613,6,0,P|146:300|64:248,1,130,2|10,1:2|0:2,0:0:0:0:
71,171,158570,2,0,L|87:100,2,65,2|0|0,1:2|0:0|1:0,0:0:0:0:
156,201,159527,1,8,0:0:0:0:
303,307,160166,6,0,P|362:298|416:226,2,130,2|2|0,1:2|1:2|0:0,0:0:0:0:
132,243,162081,2,0,L|110:174,1,65,10|0,0:2|0:0,0:0:0:0:
178,118,162719,6,0,L|200:187,1,65,2|0,1:2|0:0,0:0:0:0:
276,225,163357,1,8,0:0:0:0:
358,182,163682,2,0,P|413:196|491:175,1,130,2|0,1:2|1:0,0:0:0:0:
504,91,164639,1,8,0:0:0:0:
256,192,165094,12,0,167816,0:0:0:0:
199,288,169097,6,0,P|148:299|55:250,1,155.999995239258,4|10,1:1|0:1,0:0:0:0:
19,152,170054,1,2,0:1:0:0:
102,81,170373,1,2,1:1:0:0:
201,125,170692,2,0,L|301:137,1,77.999997619629,2|10,0:1|0:1,0:0:0:0:
383,104,171331,2,0,P|416:169|384:263,1,155.999995239258,2|2,0:1|0:1,0:0:0:0:
288,247,172288,6,0,L|205:234,1,77.999997619629,10|2,0:1|0:1,0:0:0:0:
135,313,172926,2,0,P|101:227|126:164,1,155.999995239258,4|10,1:3|0:1,0:0:0:0:
202,97,173884,1,2,0:1:0:0:
292,157,174203,6,0,L|474:178,1,155.999995239258,4|10,1:1|0:1,0:0:0:0:
499,270,175160,1,2,0:1:0:0:
398,314,175479,2,0,P|355:325|314:315,1,77.999997619629,2|2,1:1|0:1,0:0:0:0:
231,257,176118,1,10,0:1:0:0:
150,330,176437,2,0,P|125:232|229:143,1,233.999992858887,2|10,0:1|0:1,0:0:0:0:
403,41,178033,1,4,1:3:0:0:
386,148,178352,2,0,P|425:158|470:154,2,77.999997619629,4|10|2,1:3|0:1|0:1,0:0:0:0:
275,146,179309,6,0,L|253:318,1,156,4|0,1:1|0:0,0:0:0:0:
150,339,180274,1,2,0:1:0:0:
61,274,180593,2,0,P|69:221|59:187,1,77.999997619629,2|2,1:1|0:1,0:0:0:0:
121,105,181231,1,10,0:1:0:0:
225,136,181550,2,0,B|300:162|361:88|361:88|402:124|443:89,1,233.999992858887,2|10,0:1|0:1,0:0:0:0:
498,184,182827,5,2,0:1:0:0:
414,253,183146,2,0,B|366:240|341:267|341:267|307:239|253:258,1,155.999995239258,4|10,1:3|0:1,0:0:0:0:
179,317,184103,2,0,P|121:307|90:195,1,155.999995239258,2|2,0:1|0:1,0:0:0:0:
121,124,185061,6,0,P|166:106|269:158,2,155.999995239258,10|2|10,0:1|1:1|0:1,0:0:0:0:
202,326,186976,1,2,1:1:0:0:
411,264,187614,1,10,0:1:0:0:
260,106,188252,6,0,P|206:117|105:60,2,155.999995239258,10|2|4,0:1|1:1|1:3,0:0:0:0:
436,235,190167,1,12,1:0:0:0:
