osu file format v14

[General]
AudioFilename: audio.mp3
AudioLeadIn: 0
PreviewTime: 62914
Countdown: 0
SampleSet: Normal
StackLeniency: 0.6
Mode: 0
LetterboxInBreaks: 0
WidescreenStoryboard: 0

[Editor]
Bookmarks: 18987,30913
DistanceSpacing: 1.9
BeatDivisor: 4
GridSize: 16
TimelineZoom: 1

[Metadata]
Title:Hacking to the Gate ~TV size~
TitleUnicode:Hacking to the Gate ~TV size~
Artist:[Steins;Gate OP] Itou Kanako
ArtistUnicode:[Steins;Gate OP] Itou Kanako
Creator:Weijie01
Version:Insane
Source:Steins;Gate
Tags:steins gate op
BeatmapID:1457150
BeatmapSetID:688578

[Difficulty]
HPDrainRate:6
CircleSize:4
OverallDifficulty:5
ApproachRate:9
SliderMultiplier:1.4
SliderTickRate:1

[Events]
//Background and Video events
0,0,"steins_gate_wallpaper_by_nathangilwit-d99nkkn.jpg",0,0
//Break Periods
//Storyboard Layer 0 (Background)
//Storyboard Layer 1 (Fail)
//Storyboard Layer 2 (Pass)
//Storyboard Layer 3 (Foreground)
//Storyboard Sound Samples

[TimingPoints]
354,372.670807453416,4,1,0,60,1,0
3894,-71.4285714285714,4,1,0,60,0,0
8552,-200,4,1,0,55,0,0
9111,-71.4285714285714,4,1,0,60,0,0
10043,-181.818181818182,4,1,0,55,0,0
11347,-100,4,1,0,60,0,0
12838,-71.4285714285714,4,1,0,50,0,0
13770,-83.3333333333333,4,1,0,45,0,0
35944,-100,4,1,0,45,0,0
37434,-83.3333333333333,4,1,0,45,0,0
55322,-200,4,1,0,50,0,0
56813,-181.818181818182,4,1,0,55,0,0
62962,-71.4285714285714,4,1,0,55,0,1
64267,-200,4,1,0,55,0,1
65385,-71.4285714285714,4,1,0,55,0,0
67807,-200,4,1,0,55,0,0
68832,-71.4285714285714,4,1,0,55,0,1
70416,-200,4,1,0,55,0,0
71720,-71.4285714285714,4,1,0,55,0,0
74888,-71.4285714285714,4,1,0,55,0,1
76192,-200,4,1,0,55,0,1
77310,-71.4285714285714,4,1,0,55,0,0
80850,-71.4285714285714,4,1,0,55,0,1
82155,-200,4,1,0,55,0,1
83273,-71.4285714285714,4,1,0,55,0,0
86813,-100,4,1,0,55,0,0
87372,-142.857142857143,4,1,0,55,0,0
88117,-142.857142857143,4,1,0,55,0,0

[Colours]
Combo1 : 255,0,128
Combo2 : 0,0,255
Combo3 : 128,0,64
Combo4 : 0,0,128

[HitObjects]
187,73,1844,5,2,0:1:0:0:
256,327,2031,1,2,0:1:0:0:
323,73,2217,1,2,0:1:0:0:
256,192,2403,2,2,L|309:138,1,70,2|2,0:1|0:1,0:1:0:0:
187,309,2776,1,2,0:1:0:0:
256,55,2962,1,2,0:1:0:0:
323,309,3149,1,2,0:1:0:0:
137,123,3335,5,2,0:1:0:0:
391,192,3521,1,2,0:1:0:0:
137,259,3708,1,2,0:1:0:0:
256,192,3894,2,0,L|290:293,1,97.9999970092774,2|0,0:1|0:1,0:1:0:0:
373,123,4267,1,2,0:1:0:0:
119,191,4453,1,2,0:1:0:0:
373,259,4639,1,2,0:1:0:0:
393,21,4826,5,2,1:1:0:0:
314,207,5012,1,2,1:1:0:0:
461,154,5198,1,2,1:1:0:0:
279,134,5385,2,2,P|234:193|232:239,1,97.9999970092774,2|2,1:1|1:1,1:1:0:0:
446,348,5757,1,2,1:1:0:0:
380,170,5944,1,2,1:1:0:0:
264,331,6130,1,2,1:1:0:0:
81,313,6316,6,0,L|109:200,1,97.9999970092774,0|0,3:0|3:0,3:0:0:0:
220,17,6689,2,0,L|196:112,1,97.9999970092774,0|0,3:0|3:0,3:0:0:0:
110,85,7062,1,0,3:0:0:0:
309,83,7248,1,0,3:0:0:0:
309,83,7434,1,0,3:0:0:0:
232,262,7621,1,0,3:0:0:0:
232,262,7714,1,0,3:0:0:0:
232,262,7807,6,4,L|155:186,1,97.9999970092774,4|4,3:0|0:0,3:0:0:0:
366,148,8180,1,0,1:0:0:0:
345,348,8366,1,0,0:0:0:0:
234,130,8552,2,0,P|267:151|288:211,1,105,0|0,2:1|2:1,2:1:0:0:
130,277,9298,1,0,0:0:0:0:
284,65,9484,1,0,0:0:0:0:
284,327,9670,1,0,0:0:0:0:
130,115,9857,1,0,0:0:0:0:
379,196,10043,2,4,P|389:256|366:305,1,115.50000352478,0|0,2:1|2:1,2:1:0:0:
185,69,10788,5,0,0:0:0:0:
256,333,10975,1,0,0:0:0:0:
326,69,11161,1,0,0:0:0:0:
256,192,11347,2,0,L|238:114,1,70
185,314,11720,1,0,0:0:0:0:
256,50,11906,1,0,0:0:0:0:
326,314,12093,1,0,0:0:0:0:
133,121,12279,5,0,0:0:0:0:
397,192,12465,1,0,0:0:0:0:
133,262,12652,1,0,0:0:0:0:
256,192,12838,2,0,L|224:297,1,97.9999970092774,0|0,0:3|0:3,0:3:0:0:
378,121,13211,1,0,0:0:0:0:
114,191,13397,1,0,0:0:0:0:
378,262,13583,1,0,0:0:0:0:
460,125,13770,6,0,P|439:62|400:41,1,83.9999974365235,0|0,2:0|2:0,2:0:0:0:
293,161,14142,1,0,2:0:0:0:
293,161,14329,2,0,P|290:227|318:260,1,83.9999974365235,0|0,2:0|2:0,2:0:0:0:
359,332,14701,1,0,2:0:0:0:
477,269,14888,1,0,2:0:0:0:
231,119,15074,1,0,0:0:0:0:
220,254,15260,1,0,0:0:0:0:
422,49,15447,5,0,0:0:0:0:
314,236,15633,1,0,0:0:0:0:
155,193,15819,2,0,L|91:97,1,83.9999974365235
252,182,16192,1,0,0:0:0:0:
62,203,16378,1,0,0:0:0:0:
0,72,16565,1,0,0:0:0:0:
167,39,16751,6,0,P|210:80|208:116,1,83.9999974365235
167,279,17124,1,0,0:0:0:0:
402,216,17310,2,0,B|447:192|447:192|402:168,1,83.9999974365235
320,121,17683,1,0,0:0:0:0:
308,297,17869,2,0,P|346:312|385:298,1,83.9999974365235
322,206,18242,5,0,0:0:0:0:
63,267,18428,1,0,0:0:0:0:
322,206,18614,1,0,0:0:0:0:
67,129,18800,1,0,0:0:0:0:
190,191,18987,1,0,0:0:0:0:
190,191,19360,1,0,0:0:0:0:
190,191,19732,6,0,L|266:138,1,83.9999974365235
368,59,20105,1,0,0:0:0:0:
239,6,20291,1,0,0:0:0:0:
387,196,20478,2,0,P|425:183|446:147,1,83.9999974365235
155,117,20850,1,0,0:0:0:0:
248,235,21037,1,0,0:0:0:0:
41,300,21223,2,0,L|106:194,1,83.9999974365235
243,92,21596,1,0,0:0:0:0:
332,263,21782,2,0,L|251:325,1,83.9999974365235
492,192,22155,2,4,B|485:198|485:198|469:182|469:182|453:198|453:198|437:182|437:182|421:198|421:198|405:182|405:182|389:198|389:198|373:182,1,167.999994873047,0|0,0:0|0:0,0:0:0:0:
109,98,22714,5,0,0:0:0:0:
502,274,22900,1,0,0:0:0:0:
208,274,23086,5,0,0:0:0:0:
403,98,23273,1,0,0:0:0:0:
153,334,23645,5,0,0:0:0:0:
231,353,23832,1,0,0:0:0:0:
230,199,24018,1,0,0:0:0:0:
148,217,24204,2,2,L|83:231,2,41.9999987182618,2|2|2,0:3|0:3|0:3,0:3:0:0:
287,256,24577,1,0,0:0:0:0:
39,162,24763,2,0,P|60:126|99:113,1,83.9999974365235
302,175,25136,1,0,0:0:0:0:
170,144,25322,1,0,0:0:0:0:
383,46,25509,1,0,3:0:0:0:
383,46,25602,1,0,3:0:0:0:
383,46,25695,6,0,P|403:81|396:121,1,83.9999974365235,0|0,3:0|0:0,3:0:0:0:
208,270,26068,1,0,0:0:0:0:
162,41,26254,2,0,P|202:45|230:74,1,83.9999974365235
301,196,26627,1,0,0:0:0:0:
395,122,26813,1,0,0:0:0:0:
412,240,26999,2,0,P|409:280|382:309,1,83.9999974365235
301,346,27372,1,0,0:0:0:0:
299,96,27558,5,0,0:0:0:0:
104,238,27744,1,0,0:0:0:0:
299,96,27930,1,0,0:0:0:0:
58,121,28116,1,0,0:0:0:0:
176,129,28304,1,0,0:0:0:0:
176,129,28490,1,0,0:0:0:0:
459,182,28676,6,0,P|478:146|469:106,1,83.9999974365235
413,55,29049,1,0,0:0:0:0:
241,180,29235,2,0,P|250:219|284:243,1,83.9999974365235
326,39,29608,1,0,0:0:0:0:
354,152,29794,1,0,0:0:0:0:
213,67,29981,1,0,0:0:0:0:
241,180,30167,1,0,0:0:0:0:
128,208,30353,1,0,0:0:0:0:
100,95,30540,1,0,0:0:0:0:
390,251,30913,5,0,0:0:0:0:
390,251,31285,1,0,0:0:0:0:
390,251,31658,6,0,L|314:197,1,83.9999974365235
135,74,32031,1,0,0:0:0:0:
264,21,32217,1,0,0:0:0:0:
116,211,32404,2,0,P|78:198|57:162,1,83.9999974365235
348,132,32776,1,0,0:0:0:0:
255,250,32963,1,0,0:0:0:0:
462,315,33149,2,0,L|397:209,1,83.9999974365235
195,198,33521,1,0,0:0:0:0:
328,334,33708,2,0,L|344:232,1,83.9999974365235
505,96,34080,2,8,B|500:103|500:103|480:93|480:93|469:113|469:113|449:103|449:103|439:123|439:123|419:113|419:113|408:133|408:133|388:123,1,167.999994873047,8|8,3:0|3:0,3:0:0:0:
185,69,34639,5,2,0:1:0:0:
256,331,34826,1,2,0:1:0:0:
324,69,35012,1,2,0:1:0:0:
185,312,35198,1,2,0:1:0:0:
256,50,35385,1,2,0:1:0:0:
324,312,35571,1,2,0:1:0:0:
133,121,35757,5,2,0:1:0:0:
256,192,35944,2,4,B|234:220|262:220|232:258,1,70,4|4,0:1|0:1,0:1:0:0:
376,121,36317,1,4,0:1:0:0:
114,190,36503,1,4,0:1:0:0:
256,192,36689,1,2,0:1:0:0:
256,192,36875,2,2,B|237:155|223:183|202:133,1,70,2|2,0:1|0:1,0:1:0:0:
103,39,37434,2,0,B|110:44|110:44|97:63|97:63|116:76|116:76|103:94|103:94|122:107|122:107|109:126|109:126|128:138|128:138|115:157,1,167.999994873047
316,240,37993,6,0,P|335:204|326:164,1,83.9999974365235
161,239,38366,1,0,0:0:0:0:
237,373,38552,2,0,P|218:337|227:297,1,83.9999974365235
370,107,38925,2,0,P|334:88|294:97,1,83.9999974365235
125,170,39298,1,0,0:0:0:0:
326,166,39484,1,0,0:0:0:0:
33,53,39670,1,0,0:0:0:0:
234,49,39857,2,0,P|215:85|224:125,1,83.9999974365235
428,207,40229,1,0,0:0:0:0:
326,166,40416,1,0,0:0:0:0:
326,166,40602,6,0,P|313:204|279:226,1,83.9999974365235
234,49,40975,1,0,0:0:0:0:
382,8,41161,2,0,P|343:20|321:54,1,83.9999974365235
270,297,41534,2,0,P|231:284|209:250,1,83.9999974365235
159,72,41907,1,0,0:0:0:0:
299,218,42093,1,0,0:0:0:0:
50,128,42279,1,0,0:0:0:0:
136,237,42465,2,0,P|148:198|182:176,1,83.9999974365235
400,261,42838,1,0,0:0:0:0:
176,319,43024,1,0,0:0:0:0:
247,120,43211,1,0,0:0:0:0:
286,328,43397,6,0,P|268:291|278:251,1,83.9999974365235
393,113,43770,1,0,0:0:0:0:
302,174,43956,1,0,3:0:0:0:
332,21,44142,1,0,3:0:0:0:
484,51,44329,1,0,3:0:0:0:
454,204,44515,1,0,3:0:0:0:
356,326,44701,1,0,3:0:0:0:
314,94,44888,2,0,P|354:99|382:130,1,83.9999974365235
189,280,45260,1,0,3:0:0:0:
310,244,45447,5,0,3:0:0:0:
118,390,45633,1,0,3:0:0:0:
310,244,45819,1,0,3:0:0:0:
71,274,46005,1,0,3:0:0:0:
199,291,46192,1,0,3:0:0:0:
199,291,46378,1,0,0:0:0:0:
198,290,46565,6,0,P|227:262|231:221,1,83.9999974365235
90,155,46937,1,0,0:0:0:0:
0,273,47124,2,0,P|4:313|36:339,1,83.9999974365235
315,312,47496,2,0,B|308:303|308:303|325:288|325:288|309:272|309:272|325:256|325:256|310:241|310:241|327:225|327:225|310:208|310:208|327:192,1,167.999994873047
443,192,48055,1,4,0:1:0:0:
162,354,48242,1,4,0:1:0:0:
162,29,48428,2,4,L|206:106,1,83.9999974365235,4|4,0:1|0:1,0:1:0:0:
332,326,48801,1,0,0:0:0:0:
295,41,48987,1,0,0:0:0:0:
295,41,49173,1,0,0:0:0:0:
118,127,49360,6,0,B|129:128|129:128|125:150|125:150|149:153|149:153|146:175|146:175|167:177|167:177|165:200|165:200|188:203|188:203|185:225,1,167.999994873047
400,241,49919,2,0,P|406:201|384:166,1,83.9999974365235
254,291,50292,1,0,0:0:0:0:
371,391,50478,2,0,P|341:363|336:323,1,83.9999974365235
405,95,50850,2,0,P|365:90|330:112,1,83.9999974365235
196,238,51224,1,0,0:0:0:0:
383,165,51409,1,0,0:0:0:0:
70,160,51596,1,0,0:0:0:0:
257,87,51782,2,0,P|251:127|273:162,1,83.9999974365235
493,171,52155,1,0,0:0:0:0:
383,165,52342,1,0,0:0:0:0:
383,165,52528,6,0,P|384:205|360:237,1,83.9999974365235
257,87,52901,1,0,0:0:0:0:
382,0,53087,2,0,P|349:24|340:64,1,83.9999974365235
374,309,53459,2,0,P|333:310|301:286,1,83.9999974365235
194,135,53833,1,0,0:0:0:0:
376,225,54019,1,0,0:0:0:0:
84,251,54204,1,0,0:0:0:0:
217,327,54391,1,0,0:0:0:0:
217,327,54577,2,0,P|201:288|214:250,1,83.9999974365235
344,150,54950,1,0,0:0:0:0:
150,203,55136,1,0,0:0:0:0:
193,18,55322,6,0,P|218:6|262:18,1,70
243,177,55881,1,0,3:0:0:0:
191,283,56068,1,0,3:0:0:0:
349,228,56254,1,0,3:0:0:0:
294,70,56440,1,0,3:0:0:0:
136,125,56627,1,0,3:0:0:0:
305,324,56813,6,0,P|334:325|374:294,1,77.0000023498536
320,156,57372,1,0,3:0:0:0:
54,188,57558,1,0,3:0:0:0:
234,53,57745,1,0,3:0:0:0:
54,188,57930,1,0,3:0:0:0:
94,57,58117,5,0,0:0:0:0:
254,263,58304,1,2,0:0:0:0:
12,282,58676,5,0,0:0:0:0:
95,337,58863,1,0,0:0:0:0:
173,88,59049,1,2,0:0:0:0:
256,192,59608,12,0,61472,0:0:0:0:
93,164,61844,5,0,2:0:0:0:
53,249,62031,1,0,2:0:0:0:
128,326,62217,1,0,2:0:0:0:
258,319,62403,1,0,2:0:0:0:
341,202,62590,1,0,2:0:0:0:
20,95,62962,5,0,0:0:0:0:
137,240,63149,1,0,0:0:0:0:
230,43,63335,1,0,0:0:0:0:
29,203,63521,2,0,L|52:305,1,97.9999970092774
239,230,63894,1,0,0:0:0:0:
115,33,64080,1,0,0:0:0:0:
58,158,64267,6,0,P|52:239|111:312,1,175
256,304,65385,5,0,0:0:0:0:
350,188,65571,1,0,0:0:0:0:
189,12,65757,2,0,P|155:74|229:159,1,195.999994018555
420,31,66316,1,0,0:0:0:0:
245,48,66503,2,0,L|145:82,1,97.9999970092774
72,257,66875,2,0,L|165:289,1,97.9999970092774
397,245,67248,2,0,L|334:169,1,97.9999970092774
269,115,67621,1,0,0:0:0:0:
103,198,67807,6,0,P|83:229|134:320,1,140,0|0,2:0|2:0,2:0:0:0:
293,322,68739,1,0,0:0:0:0:
293,322,68924,5,0,0:0:0:0:
428,147,69111,1,0,0:0:0:0:
183,223,69297,1,0,0:0:0:0:
475,284,69483,2,0,L|397:224,1,97.9999970092774
209,305,69856,1,0,0:0:0:0:
378,302,70042,1,0,0:0:0:0:
157,138,70229,1,0,0:0:0:0:
378,302,70602,5,0,3:0:0:0:
378,302,70788,1,0,3:0:0:0:
381,181,70975,5,0,3:0:0:0:
381,181,71161,1,0,3:0:0:0:
197,66,71347,5,0,0:0:0:0:
196,229,71533,1,0,0:0:0:0:
426,110,71720,2,0,P|309:125|303:207,1,195.999994018555
381,181,72278,1,0,0:0:0:0:
260,54,72465,2,0,L|160:88,1,97.9999970092774
168,300,72837,2,0,L|261:332,1,97.9999970092774
278,179,73211,1,0,0:0:0:0:
37,139,73770,5,0,0:0:0:0:
113,235,73957,1,0,0:0:0:0:
247,232,74143,1,0,0:0:0:0:
325,105,74329,1,0,0:0:0:0:
101,93,74515,2,0,P|124:138|166:175,1,97.9999970092774
321,285,74888,5,0,0:0:0:0:
181,45,75074,1,0,0:0:0:0:
40,205,75260,1,0,0:0:0:0:
162,161,75447,2,0,L|74:91,1,97.9999970092774
157,282,75819,1,0,0:0:0:0:
378,106,76006,1,0,0:0:0:0:
138,60,76192,6,0,P|111:93|168:198,1,175
267,47,77310,1,0,0:0:0:0:
138,60,77496,1,0,0:0:0:0:
339,253,77683,2,0,P|374:203|293:117,1,195.999994018555
243,326,78242,1,0,0:0:0:0:
491,138,78428,2,0,L|292:223,1,195.999994018555
417,348,78987,1,0,0:0:0:0:
287,44,79173,2,0,P|232:50|184:58,1,97.9999970092774
75,161,79546,1,0,0:0:0:0:
194,238,79732,5,0,3:0:0:0:
310,213,79919,1,0,3:0:0:0:
170,124,80105,1,0,3:0:0:0:
83,263,80291,1,0,3:0:0:0:
222,350,80478,2,0,L|323:302,1,97.9999970092774
75,161,80850,5,0,0:0:0:0:
145,329,81037,1,0,0:0:0:0:
145,329,81223,1,0,0:0:0:0:
228,87,81410,2,0,L|114:122,1,97.9999970092774
249,252,81782,1,0,0:0:0:0:
249,252,81969,1,0,0:0:0:0:
161,46,82155,6,0,P|136:80|173:204,1,175
314,59,83273,1,0,0:0:0:0:
314,59,83459,1,0,0:0:0:0:
62,80,83645,2,0,L|256:148,1,195.999994018555
439,144,84204,1,0,0:0:0:0:
177,32,84391,2,0,P|136:156|209:208,1,195.999994018555
170,194,85136,1,0,0:0:0:0:
170,194,85509,2,0,L|247:286,1,97.9999970092774
256,192,85881,12,0,86626,0:0:0:0:
256,192,86813,6,2,L|312:136,1,70
256,192,87372,6,2,L|292:297,1,97.9999970092774
256,192,88117,12,0,89422,0:0:0:0:
