osu file format v14

[General]
AudioFilename: audio.mp3
AudioLeadIn: 0
PreviewTime: -1
Countdown: 0
SampleSet: Soft
StackLeniency: 1
Mode: 0
LetterboxInBreaks: 0
WidescreenStoryboard: 1

[Editor]
Bookmarks: 47908,49515
DistanceSpacing: 0.6
BeatDivisor: 8
GridSize: 4
TimelineZoom: 2.1

[Metadata]
Title:Stronger than You -Chara response-
TitleUnicode:Stronger than You -Chara response-
Artist:[Milky]
ArtistUnicode:[Milky]
Creator:killerwolf741
Version:
Source:
Tags:
BeatmapID:1691446
BeatmapSetID:805822

[Difficulty]
HPDrainRate:6.7
CircleSize:3.6
OverallDifficulty:6
ApproachRate:9.2
SliderMultiplier:2.4
SliderTickRate:1

[Events]
//Background and Video events
0,0,"Touka Kirishima.jpg",0,0
//Break Periods
//Storyboard Layer 0 (Background)
//Storyboard Layer 1 (Fail)
//Storyboard Layer 2 (Pass)
//Storyboard Layer 3 (Foreground)
//Storyboard Sound Samples

[TimingPoints]
77,612.244897959184,4,1,0,100,1,0
4974,-222.222222222221,4,1,0,100,0,0
9566,-100,4,1,0,100,0,0
10944,-100,4,1,0,100,0,0
16607,-100,4,1,0,100,0,0
17372,-100,4,1,0,100,0,0
23801,-100,4,1,0,100,0,0
30077,-47.6190476190476,4,1,0,100,0,0
30689,-54.054054054054,4,1,0,100,0,0
31607,-47.6190476190476,4,1,0,100,0,0
33138,-133.333333333333,4,1,0,100,0,0
34056,-47.6190476190476,4,1,0,100,0,0
43852,-47.6190476190476,4,1,0,100,0,0
49668,-66.6666666666667,4,1,0,100,0,0
51199,-100,4,1,0,100,0,0
51964,-55.5555555555556,4,1,0,100,0,0
52730,-66.6666666666667,4,1,0,100,0,0
53189,-47.6190476190476,4,1,0,100,0,0
56097,-100,4,1,0,100,0,0
60077,-66.6666666666667,4,1,0,100,0,0
60536,-47.6190476190476,4,1,0,100,0,0
62219,-100,4,1,0,100,0,0
62525,-38.4615384615385,4,1,0,100,0,0
63444,-100,4,1,0,100,0,0
64668,-47.6190476190476,4,1,0,100,0,0
66964,-47.6190476190476,4,2,0,100,0,0
67117,-181.818181818181,4,2,0,100,0,0
68648,-100,4,2,0,100,0,0
69260,-47.6190476190476,4,2,0,100,0,0
69413,-66.6666666666667,4,2,0,100,0,0
69566,-100,4,2,0,100,0,0
69872,-100,4,2,0,100,0,0
76607,-47.6190476190476,4,2,0,100,0,0

[HitObjects]
391,115,4974,6,0,B|337:119|337:119|283:95,1,107.999996704102
121,115,6199,6,0,B|175:119|175:119|229:95,1,107.999996704102
391,269,7423,6,0,B|337:265|337:265|283:289,1,107.999996704102
121,269,8648,6,0,B|175:265|175:265|229:289,1,107.999996704102
57,228,9872,6,0,L|175:251,1,120
313,269,10332,1,0,0:0:0:0:
232,89,10485,2,0,P|295:143|301:183,1,120
313,269,10944,1,0,0:0:0:0:
453,23,11097,2,0,P|392:122|359:129,1,120
267,173,11556,1,0,0:0:0:0:
369,38,11709,1,0,0:0:0:0:
368,300,12015,1,0,0:0:0:0:
280,119,12321,6,0,B|278:180|278:180|201:253,1,120
162,120,12781,1,0,0:0:0:0:
142,263,12934,2,0,B|170:308|170:308|264:336,1,120
162,120,13393,1,0,0:0:0:0:
267,146,13546,6,0,L|213:203,1,60
112,309,13852,1,0,0:0:0:0:
73,142,14005,1,0,0:0:0:0:
225,189,14158,1,0,0:0:0:0:
184,70,14311,5,0,0:0:0:0:
45,234,14464,1,0,0:0:0:0:
222,279,14617,1,0,0:0:0:0:
168,160,14770,6,0,P|113:112|44:109,1,120
112,264,15230,2,0,L|283:238,1,120
28,278,15689,5,0,0:0:0:0:
101,139,15842,1,0,0:0:0:0:
102,355,15995,1,0,0:0:0:0:
261,103,16148,1,0,0:0:0:0:
175,206,16301,6,0,L|233:137,1,60
308,43,16607,2,0,B|359:26|359:26|437:59,2,120
131,144,17372,1,0,0:0:0:0:
301,263,17525,1,0,0:0:0:0:
292,61,17679,1,0,0:0:0:0:
398,157,17832,6,0,L|350:218,1,60
465,60,18138,1,0,0:0:0:0:
465,60,18291,1,0,0:0:0:0:
268,185,18444,2,0,L|214:235,1,60
323,37,18750,2,0,P|343:130|408:171,1,120
409,279,19209,2,0,P|465:205|464:154,1,120
475,19,19668,6,0,L|435:81,1,60
356,209,19974,5,0,0:0:0:0:
171,205,20128,1,0,0:0:0:0:
372,33,20281,2,0,B|371:95|371:95|296:153,1,120
171,205,20740,1,0,0:0:0:0:
81,91,20893,5,0,0:0:0:0:
143,297,21046,1,0,0:0:0:0:
228,50,21199,2,0,B|218:102|218:102|130:163,1,120
32,194,21658,2,0,B|68:243|68:243|151:256,1,120
199,115,22117,6,0,L|124:171,1,60
333,61,22423,5,0,0:0:0:0:
255,223,22576,1,0,0:0:0:0:
418,220,22730,1,0,0:0:0:0:
332,160,22883,5,0,0:0:0:0:
205,293,23036,1,0,0:0:0:0:
368,293,23190,1,0,0:0:0:0:
292,228,23342,5,0,0:0:0:0:
134,322,23495,1,0,0:0:0:0:
171,163,23649,1,0,0:0:0:0:
292,228,23801,1,0,0:0:0:0:
106,297,23954,2,0,B|137:255|137:255|223:242,1,120
97,122,24413,1,0,0:0:0:0:
292,228,24566,6,0,B|278:176|278:176|213:116,1,120
371,250,25025,1,0,0:0:0:0:
202,54,25179,2,0,B|158:85|158:85|138:171,1,120
131,8,25638,1,0,0:0:0:0:
111,244,25791,6,0,B|163:257|163:257|245:213,1,120
55,308,26250,1,0,0:0:0:0:
60,107,26403,2,0,B|105:117|105:117|157:183,1,120
10,7,26862,1,0,0:0:0:0:
429,128,27015,5,0,0:0:0:0:
251,349,27321,1,0,0:0:0:0:
416,13,27628,1,0,0:0:0:0:
476,373,27934,1,0,0:0:0:0:
236,88,28240,1,0,0:0:0:0:
236,88,29158,5,0,0:0:0:0:
226,318,29311,1,4,0:0:0:0:
153,37,29464,1,0,0:0:0:0:
230,203,29617,1,0,0:0:0:0:
239,13,29770,1,0,0:0:0:0:
159,262,29923,1,0,0:0:0:0:
343,120,30077,6,0,P|274:198|223:218,1,125.999996154785,8|0,0:0|0:0,0:0:0:0:
368,40,30383,1,0,0:0:0:0:
376,296,30536,1,0,0:0:0:0:
169,127,30689,2,0,B|266:125|234:201|234:201|305:273,1,221.999999153137
165,35,31148,1,0,0:0:0:0:
150,297,31301,5,8,0:0:0:0:
88,88,31607,5,0,0:0:0:0:
248,304,31760,1,0,0:0:0:0:
270,15,31913,1,4,0:0:0:0:
160,352,32066,1,0,0:0:0:0:
149,89,32219,6,0,B|203:103|203:103|255:149,1,125.999996154785
384,288,32525,1,8,0:0:0:0:
408,32,32679,1,0,0:0:0:0:
280,336,32832,1,0,0:0:0:0:
466,152,32985,1,0,0:0:0:0:
263,206,33138,6,0,L|192:230,2,45.0000017166138
466,152,33597,1,0,0:0:0:0:
228,309,33750,1,8,0:0:0:0:
429,310,34056,6,0,L|220:305,1,125.999996154785
120,304,34362,1,4,0:0:0:0:
128,64,34515,1,0,0:0:0:0:
243,244,34668,2,0,L|333:123,1,125.999996154785
185,109,34974,6,0,L|70:238,1,125.999996154785,8|0,0:0|0:0,0:0:0:0:
28,21,35281,1,0,0:0:0:0:
232,19,35434,1,0,0:0:0:0:
179,237,35587,5,4,0:0:0:0:
179,237,35893,1,0,0:0:0:0:
379,117,36199,5,8,0:0:0:0:
167,52,36505,5,0,0:0:0:0:
420,54,36658,1,0,0:0:0:0:
234,140,36811,6,0,L|367:86,1,125.999996154785,4|0,0:0|0:0,0:0:0:0:
80,192,37117,1,0,0:0:0:0:
234,140,37423,6,0,L|286:298,1,125.999996154785,4|0,0:0|0:0,0:0:0:0:
199,43,37730,1,0,0:0:0:0:
273,259,38036,6,0,L|308:137,1,125.999996154785,4|0,0:0|0:0,0:0:0:0:
175,37,38342,2,0,L|192:181,1,125.999996154785,4|0,0:0|0:0,0:0:0:0:
259,19,38648,5,8,0:0:0:0:
245,334,38801,1,8,0:0:0:0:
337,100,38954,1,8,0:0:0:0:
213,258,39107,1,8,0:0:0:0:
220,28,39260,1,14,0:0:0:0:
220,28,39413,1,0,0:0:0:0:
0,119,39566,6,0,L|123:62,1,125.999996154785
120,191,39872,2,0,L|255:272,1,125.999996154785
389,73,40179,2,0,L|269:135,1,125.999996154785
475,37,40485,5,0,0:0:0:0:
465,255,40638,1,0,0:0:0:0:
361,37,40791,2,0,L|266:143,1,125.999996154785
181,242,41097,5,0,0:0:0:0:
185,34,41250,1,0,0:0:0:0:
305,225,41403,1,0,0:0:0:0:
65,125,41556,1,0,0:0:0:0:
202,14,41709,6,0,L|277:181,1,125.999996154785
339,300,42015,2,0,L|391:146,1,125.999996154785
423,28,42321,5,0,0:0:0:0:
425,310,42474,1,0,0:0:0:0:
342,80,42628,1,0,0:0:0:0:
263,295,42781,1,0,0:0:0:0:
263,295,42934,1,0,0:0:0:0:
215,82,43087,5,0,0:0:0:0:
32,255,43240,2,0,L|181:227,1,125.999996154785
372,186,43546,2,0,L|280:339,1,125.999996154785
100,117,43852,2,0,L|239:138,1,125.999996154785
414,29,44158,2,0,L|263:56,1,125.999996154785
100,117,44464,6,0,P|136:215|157:272,1,125.999996154785
197,353,44770,2,0,L|293:224,2,125.999996154785
325,172,45230,1,0,0:0:0:0:
146,258,45383,2,0,B|178:211|178:211|189:133,1,125.999996154785
149,51,45689,5,0,0:0:0:0:
288,240,45842,1,0,0:0:0:0:
368,24,45995,1,0,0:0:0:0:
496,288,46148,1,0,0:0:0:0:
376,112,46301,1,0,0:0:0:0:
400,352,46454,1,0,0:0:0:0:
480,40,46607,5,2,0:0:0:0:
480,40,46760,1,2,0:0:0:0:
297,162,46913,5,2,0:0:0:0:
297,162,47066,1,2,0:0:0:0:
482,284,47219,5,2,0:0:0:0:
482,284,47372,1,2,0:0:0:0:
353,44,47525,5,2,0:0:0:0:
353,44,47679,1,2,0:0:0:0:
339,290,47832,5,2,0:0:0:0:
225,125,47985,2,0,B|237:177|237:177|291:246,1,125.999996154785
281,234,48444,6,0,L|309:73,1,125.999996154785
316,37,48903,2,0,L|210:161,1,125.999996154785
460,258,49668,6,0,B|465:178|465:178|369:87,1,180.000006866455
392,109,50128,1,0,0:0:0:0:
294,228,50281,2,0,B|328:163|328:163|257:47,1,180.000006866455
208,3,50740,2,0,B|159:73|159:73|207:157,1,180.000006866455
276,219,51199,6,0,P|188:218|235:146,1,180
361,50,51811,5,0,0:0:0:0:
306,248,51964,1,0,0:0:0:0:
252,56,52117,2,0,B|195:156,1,107.999996704102
114,280,52423,5,0,0:0:0:0:
138,33,52577,1,0,0:0:0:0:
22,122,52730,2,0,B|71:197|71:197|166:216,1,180.000006866455
390,63,53189,6,0,B|286:99|286:99|312:158|312:158|240:122,1,251.999992309571
231,114,53648,1,0,0:0:0:0:
380,345,53954,6,0,L|418:196,1,125.999996154785
457,51,54260,1,0,0:0:0:0:
278,240,54566,6,0,L|219:51,1,125.999996154785,8|0,0:0|0:0,0:0:0:0:
396,238,54872,1,0,0:0:0:0:
216,35,55025,1,0,0:0:0:0:
211,296,55179,1,0,0:0:0:0:
362,25,55332,1,0,0:0:0:0:
129,223,55485,1,0,0:0:0:0:
435,131,55638,1,0,0:0:0:0:
102,71,56097,6,0,B|167:104|167:104|115:173|115:173|152:282|300:152,1,360,0|8,0:0|0:0,0:0:0:0:
301,369,57321,5,0,0:0:0:0:
397,48,57474,1,0,0:0:0:0:
316,275,57628,1,0,0:0:0:0:
497,17,57934,1,0,0:0:0:0:
497,17,58240,5,0,0:0:0:0:
434,302,58393,1,0,0:0:0:0:
378,12,58546,1,0,0:0:0:0:
94,222,58852,6,0,L|174:167,1,60
181,163,59311,1,0,0:0:0:0:
99,359,59464,1,8,0:0:0:0:
96,72,59770,1,0,0:0:0:0:
320,167,60077,6,0,B|277:180|277:180|258:256|258:256|179:203,1,180.000006866455
147,176,60536,6,0,B|174:110|174:110|242:113|242:113|281:61|339:51,1,251.999992309571
404,28,60995,6,0,B|493:149|333:308|361:120|325:149|325:149,1,251.999992309571
56,96,61607,5,0,0:0:0:0:
56,328,61760,1,0,0:0:0:0:
200,96,61913,1,8,0:0:0:0:
200,328,62066,5,0,0:0:0:0:
104,88,62219,2,0,L|136:184,1,60
192,280,62525,6,0,P|256:160|128:152,1,311.999985717774
192,280,62985,6,0,P|320:235|232:142,1,311.999985717774
129,150,63444,6,0,B|154:210|154:210|258:178|314:290,1,240
265,128,64209,5,0,0:0:0:0:
360,368,64362,1,8,0:0:0:0:
397,107,64515,1,0,0:0:0:0:
480,360,64668,2,0,L|480:208,1,125.999996154785
476,35,64974,1,0,0:0:0:0:
299,60,65128,6,0,P|387:142|375:170,1,125.999996154785
400,288,65434,1,0,0:0:0:0:
312,136,65587,1,0,0:0:0:0:
240,304,65740,1,0,0:0:0:0:
192,96,65893,6,0,P|112:160|88:240,1,125.999996154785
304,104,66199,1,0,0:0:0:0:
288,256,66352,5,0,0:0:0:0:
128,72,66505,6,0,L|240:200,1,125.999996154785
306,293,66811,2,0,L|152:338,1,125.999996154785,8|0,0:0|0:0,0:0:0:0:
463,200,67117,6,0,L|509:214,1,33.0000010070801
393,93,67423,2,0,L|358:107,1,33.0000010070801
290,233,67730,2,0,L|325:219,1,33.0000010070801
193,122,68036,2,0,L|155:147,1,33.0000010070801
17,196,68342,1,0,0:0:0:0:
148,103,68648,5,0,0:0:0:0:
148,103,68724,1,0,0:0:0:0:
148,103,68801,1,0,0:0:0:0:
408,128,68954,2,0,L|340:177,1,60
97,257,69260,5,0,0:0:0:0:
106,266,69337,1,0,0:0:0:0:
106,266,69413,1,0,0:0:0:0:
252,77,69566,2,0,L|260:154,1,60
203,264,69872,2,0,P|235:269|307:199,1,120
183,169,70332,1,0,0:0:0:0:
319,77,70485,2,0,P|385:93|406:162,1,120
256,205,71097,2,0,P|199:134|151:111,1,120
104,47,71556,5,0,0:0:0:0:
104,47,71709,1,8,0:0:0:0:
144,263,71862,1,0,0:0:0:0:
222,123,72015,1,0,0:0:0:0:
344,302,72168,1,0,0:0:0:0:
160,224,72321,1,0,0:0:0:0:
346,92,72474,5,0,0:0:0:0:
206,340,72628,1,0,0:0:0:0:
461,205,72781,1,8,0:0:0:0:
204,187,72934,1,0,0:0:0:0:
503,306,73087,1,0,0:0:0:0:
360,175,73240,6,0,L|332:207,10,30
348,317,74158,5,8,0:0:0:0:
235,97,74311,1,0,0:0:0:0:
425,173,74464,1,0,0:0:0:0:
139,175,74617,1,0,0:0:0:0:
325,53,74770,5,0,0:0:0:0:
341,45,75077,1,0,0:0:0:0:
138,173,75230,1,8,0:0:0:0:
118,181,75536,5,0,0:0:0:0:
333,124,75689,2,0,L|366:109,10,30
151,64,76607,6,0,L|239:193,1,125.999996154785,8|0,0:0|0:0,0:0:0:0:
364,327,76913,2,0,L|363:163,1,125.999996154785
362,28,77219,5,0,0:0:0:0:
266,309,77372,1,0,0:0:0:0:
467,88,77525,1,0,0:0:0:0:
266,309,77679,1,8,0:0:0:0:
266,39,77832,1,0,0:0:0:0:
363,201,78138,1,0,0:0:0:0:
203,98,78444,5,0,0:0:0:0:
362,28,78597,1,0,0:0:0:0:
210,269,78750,1,0,0:0:0:0:
316,100,78903,1,0,0:0:0:0:
92,132,79056,1,8,0:0:0:0:
407,281,79209,1,0,0:0:0:0:
325,137,79515,5,0,0:0:0:0:
407,281,79668,1,0,0:0:0:0:
476,135,79821,1,0,0:0:0:0:
325,228,79974,1,0,0:0:0:0:
422,91,80127,5,8,0:0:0:0:
222,353,80281,1,0,0:0:0:0:
261,63,80434,1,0,0:0:0:0:
129,185,80587,6,0,L|113:211,20,31.4999990386963
298,89,81505,6,0,L|179:153,1,125.999996154785,8|0,0:0|0:0,0:0:0:0:
27,209,81811,2,0,P|53:115|106:70,1,125.999996154785
101,314,82117,1,0,0:0:0:0:
149,38,82270,2,0,P|224:41|284:91,1,125.999996154785
66,93,82577,1,8,0:0:0:0:
332,139,82730,2,0,P|374:222|365:288,1,125.999996154785
265,67,83036,6,0,L|237:34,20,31.4999990386963
373,252,83954,2,0,P|397:159|379:85,1,125.999996154785,8|0,0:0|0:0,0:0:0:0:
366,49,84260,6,0,L|327:60,2,31.4999990386963
197,83,84413,2,0,L|251:171,1,62.9999980773926
324,304,84566,6,0,L|364:312,8,31.4999990386963
205,54,85025,1,8,0:0:0:0:
135,321,85179,1,0,0:0:0:0:
95,146,85332,1,0,0:0:0:0:
366,49,85485,6,0,L|327:60,72,31.4999990386963,0|0|0|0|0|0|0|0|0|0|0|0|0|0|0|0|0|0|0|0|0|0|0|0|0|0|0|0|0|0|0|0|0|0|0|0|0|0|0|0|0|0|0|0|0|0|0|0|0|0|0|0|0|0|0|0|0|0|0|0|0|0|0|0|0|0|0|0|0|0|0|0|4,0:0|0:0|0:0|0:0|0:0|0:0|0:0|0:0|0:0|0:0|0:0|0:0|0:0|0:0|0:0|0:0|0:0|0:0|0:0|0:0|0:0|0:0|0:0|0:0|0:0|0:0|0:0|0:0|0:0|0:0|0:0|0:0|0:0|0:0|0:0|0:0|0:0|0:0|0:0|0:0|0:0|0:0|0:0|0:0|0:0|0:0|0:0|0:0|0:0|0:0|0:0|0:0|0:0|0:0|0:0|0:0|0:0|0:0|0:0|0:0|0:0|0:0|0:0|0:0|0:0|0:0|0:0|0:0|0:0|0:0|0:0|0:0|0:0,0:0:0:0:
