osu file format v14

[General]
AudioFilename: audio.mp3
AudioLeadIn: 0
PreviewTime: -1
Countdown: 1
SampleSet: Normal
StackLeniency: 0.2
Mode: 0
LetterboxInBreaks: 0
WidescreenStoryboard: 1

[Editor]
Bookmarks: 2032,5842,6794,7747,8699,13461,17270,21080,24889,28699,32508
DistanceSpacing: 1
BeatDivisor: 4
GridSize: 32
TimelineZoom: 2.2

[Metadata]
Title:Yoshi mune gimu ne gimune gimu negi mune gimu negi munegimunemashirubesuta
TitleUnicode:Yoshi mune gimu ne gimune gimu negi mune gimu negi munegimunemashirubesuta
Artist:[MAD]
ArtistUnicode:[MAD]
Creator:Remus
Version:high cs = high iq
Source:
Tags:narkvar shurgot djulus moonl1ght moralfag
BeatmapID:1694339
BeatmapSetID:806717

[Difficulty]
HPDrainRate:6
CircleSize:5.5
OverallDifficulty:8
ApproachRate:10
SliderMultiplier:1.4
SliderTickRate:1

[Events]
//Background and Video events
0,0,"bg.png",0,0
//Break Periods
//Storyboard Layer 0 (Background)
//Storyboard Layer 1 (Fail)
//Storyboard Layer 2 (Pass)
//Storyboard Layer 3 (Foreground)
//Storyboard Sound Samples

[TimingPoints]
128,238.095238095238,4,1,0,80,1,0
5366,-200,4,1,0,80,0,0
5842,-100,4,1,0,80,0,0
17270,-100,4,1,0,80,0,1
20127,-100,4,1,0,80,0,0
21080,-100,4,1,0,80,0,1
22985,-100,4,1,0,80,0,0
28699,-100,4,1,0,80,0,1
30604,-100,4,1,0,80,0,0

[HitObjects]
66,337,128,6,0,L|86:191,1,140
140,101,604,2,0,P|213:87|287:98,1,140
364,182,961,2,0,L|217:206,1,140
417,88,1318,2,0,P|461:152|455:238,2,140
287,330,2032,5,0,0:0:0:0:
225,204,2270,1,0,0:0:0:0:
277,72,2508,2,0,L|424:88,1,140
481,178,2866,2,0,L|406:188,1,70
306,207,3104,2,0,L|334:137,1,70
411,187,3342,1,0,0:0:0:0:
435,294,3461,2,0,L|287:312,1,140
171,258,3818,1,0,0:0:0:0:
171,258,3937,6,0,L|184:335,1,70
255,148,4175,2,0,L|222:219,1,70
94,87,4413,2,0,L|143:147,2,70
212,26,4770,1,0,0:0:0:0:
334,79,4889,2,0,P|354:150|341:222,1,140
67,332,5366,1,0,0:0:0:0:
242,260,5842,5,0,0:0:0:0:
298,301,5961,1,0,0:0:0:0:
411,196,6080,5,0,0:0:0:0:
355,237,6199,1,0,0:0:0:0:
276,105,6318,2,0,L|205:100,1,70
396,40,6556,2,0,L|467:35,1,70
493,258,6794,6,0,P|424:274|337:253,1,140
224,175,7151,2,0,L|248:320,1,140
418,194,7508,2,0,L|411:122,1,70
388,24,7747,5,0,0:0:0:0:
332,65,7866,1,0,0:0:0:0:
270,38,7985,1,0,0:0:0:0:
214,79,8104,1,0,0:0:0:0:
146,211,8223,5,0,0:0:0:0:
202,252,8342,1,0,0:0:0:0:
257,209,8461,1,0,0:0:0:0:
313,250,8580,1,0,0:0:0:0:
456,329,8699,6,0,L|384:338,1,70
431,196,8937,2,0,L|361:187,1,70
178,167,9175,1,0,0:0:0:0:
225,237,9294,1,0,0:0:0:0:
284,73,9413,1,0,0:0:0:0:
263,168,9532,1,0,0:0:0:0:
128,94,9651,6,0,L|115:20,1,70
31,158,9889,1,0,0:0:0:0:
101,192,10008,1,0,0:0:0:0:
178,166,10127,2,0,L|248:167,1,70
110,271,10366,2,0,L|40:272,1,70
203,254,10604,5,0,0:0:0:0:
152,337,10723,1,0,0:0:0:0:
207,246,10842,1,0,0:0:0:0:
147,345,10961,1,0,0:0:0:0:
246,315,11080,2,0,P|285:312|333:317,1,70
483,280,11318,2,0,P|448:282|413:279,1,70
331,211,11556,6,0,P|328:176|331:141,1,70
386,29,11794,1,0,0:0:0:0:
442,182,11913,1,0,0:0:0:0:
318,68,12032,1,0,0:0:0:0:
300,53,12151,1,0,0:0:0:0:
461,89,12270,1,0,0:0:0:0:
255,127,12389,1,0,0:0:0:0:
402,254,12508,6,0,L|476:260,1,70
282,349,12747,2,0,P|247:351|212:348,1,70
263,148,12985,1,0,0:0:0:0:
322,269,13223,1,0,0:0:0:0:
107,60,13461,5,0,0:0:0:0:
100,162,13620,1,0,0:0:0:0:
90,272,13778,1,0,0:0:0:0:
192,331,13937,2,0,P|264:349|345:337,1,140
445,130,14413,6,0,L|439:59,1,70
316,184,14651,1,0,0:0:0:0:
405,195,14770,1,0,0:0:0:0:
273,116,14889,2,0,P|236:111|201:117,1,70
329,41,15127,2,0,P|343:75|365:102,1,70
192,331,15366,6,0,P|235:270|244:203,1,140
54,95,15842,2,0,L|67:171,1,70
203,116,16080,2,0,L|214:47,1,70
152,185,16318,1,0,0:0:0:0:
244,206,16437,1,0,0:0:0:0:
316,146,16556,2,0,P|354:143|389:148,1,70
393,295,16794,2,0,P|371:263|358:230,1,70
478,161,17032,2,0,P|461:195|439:223,1,70
264,344,17270,5,0,0:0:0:0:
254,275,17389,1,0,0:0:0:0:
244,206,17508,1,0,0:0:0:0:
85,184,17627,5,0,0:0:0:0:
154,194,17746,1,0,0:0:0:0:
223,204,17865,1,0,0:0:0:0:
245,45,17985,5,0,0:0:0:0:
235,114,18104,1,0,0:0:0:0:
225,183,18223,1,0,0:0:0:0:
388,206,18342,5,0,0:0:0:0:
319,196,18461,1,0,0:0:0:0:
250,186,18580,1,0,0:0:0:0:
336,108,18699,2,0,P|375:105|417:111,1,70
491,275,18937,2,0,P|452:278|410:272,1,70
155,258,19175,5,0,0:0:0:0:
209,301,19294,1,0,0:0:0:0:
264,344,19413,1,0,0:0:0:0:
209,215,19532,5,0,0:0:0:0:
155,258,19651,1,0,0:0:0:0:
100,301,19770,1,0,0:0:0:0:
155,172,19889,5,0,0:0:0:0:
209,215,20008,1,0,0:0:0:0:
264,257,20127,2,0,L|355:250,1,70
339,93,20366,2,0,L|299:175,1,70
465,89,20604,2,0,L|413:13,1,70
410,180,20842,2,0,L|501:173,1,70
216,150,21080,5,0,0:0:0:0:
161,107,21199,1,0,0:0:0:0:
107,64,21318,1,0,0:0:0:0:
88,202,21437,5,0,0:0:0:0:
152,175,21556,1,0,0:0:0:0:
216,150,21675,1,0,0:0:0:0:
107,64,21794,5,0,0:0:0:0:
98,132,21913,1,0,0:0:0:0:
88,200,22032,1,0,0:0:0:0:
216,150,22151,5,0,0:0:0:0:
161,108,22270,1,0,0:0:0:0:
107,65,22389,1,0,0:0:0:0:
146,256,22508,2,0,L|214:218,1,70
93,351,22747,2,0,L|26:311,1,70
209,330,22985,6,0,P|283:319|366:336,1,140
477,221,23461,5,0,0:0:0:0:
423,264,23580,1,0,0:0:0:0:
403,94,23699,5,0,0:0:0:0:
467,119,23818,1,0,0:0:0:0:
321,141,23937,2,0,P|311:100|317:56,1,70
463,28,24175,2,0,P|473:69|467:113,1,70
339,227,24413,2,0,L|191:216,1,140
64,73,24889,6,0,L|72:157,1,70
136,283,25127,2,0,L|130:353,1,70
331,143,25366,2,0,L|261:149,1,70
121,215,25604,2,0,L|51:208,1,70
223,318,25842,2,0,L|216:248,1,70
151,108,26080,2,0,L|157:38,1,70
77,326,26318,2,0,L|146:319,1,70
287,254,26556,2,0,L|356:260,1,70
496,195,26794,6,0,P|508:119|497:53,1,140
360,35,27151,1,0,0:0:0:0:
245,115,27270,2,0,P|244:153|249:191,1,70
435,304,27508,2,0,P|436:266|431:228,1,70
369,141,27747,5,0,0:0:0:0:
364,248,27866,1,0,0:0:0:0:
272,191,27985,1,0,0:0:0:0:
265,292,28104,1,0,0:0:0:0:
170,259,28223,2,0,L|165:182,1,70
256,47,28461,2,0,L|251:116,1,70
448,233,28699,5,0,0:0:0:0:
379,223,28818,1,0,0:0:0:0:
310,213,28937,1,0,0:0:0:0:
354,159,29056,5,0,0:0:0:0:
379,223,29175,1,0,0:0:0:0:
405,288,29294,1,0,0:0:0:0:
337,277,29413,5,0,0:0:0:0:
379,223,29532,1,0,0:0:0:0:
423,168,29651,1,0,0:0:0:0:
447,233,29770,5,0,0:0:0:0:
379,223,29889,1,0,0:0:0:0:
309,213,30008,1,0,0:0:0:0:
201,285,30127,2,0,L|274:275,1,70
433,353,30366,2,0,L|360:343,1,70
176,277,30604,6,0,P|158:202|173:126,1,140
295,73,31080,2,0,L|309:214,1,140
452,189,31437,2,0,L|438:330,1,140
386,108,31794,2,0,P|422:106|465:112,1,70
356,304,32032,2,0,P|281:322|205:307,1,140
256,192,32508,12,0,34413,0:0:0:0:
