osu file format v14

[General]
AudioFilename: audio.mp3
AudioLeadIn: 0
PreviewTime: 16665
Countdown: 0
SampleSet: Normal
StackLeniency: 0
Mode: 1
LetterboxInBreaks: 0
WidescreenStoryboard: 1

[Editor]
DistanceSpacing: 1.2
BeatDivisor: 4
GridSize: 32
TimelineZoom: 2.4

[Metadata]
Title:Mochio-
TitleUnicode:モチオー
Artist:[Kyoro]
ArtistUnicode:【Kyoro】
Creator:The Law
Version:arc's Ura Oni
Source:スーパーマリオRPG
Tags:meiqth arcpotato 音MAD oto-mad otomad ニコニコ動画 niconico douga YTPMV Youtube スロウスタート Slow Start 百地たまて Tamate Momochi たまちゃん tamachan 伊藤 彩沙 Itou Ayasa きららファンタジア Kirara Fantasia 芳文社 Houbunsha まんがタイムきらら manga time 対カジオー戦 Fight Against Smithy Kajioh Super Mario Legend of the Seven Stars 下村陽子 Yoko Shimomura 任天堂 nintendo novelty japanese liku the_law
BeatmapID:3748161
BeatmapSetID:1774068

[Difficulty]
HPDrainRate:6.5
CircleSize:2
OverallDifficulty:6.9
ApproachRate:10
SliderMultiplier:1.4
SliderTickRate:1

[Events]
//Background and Video events
0,0,"tamachan.jpg",0,10
//Break Periods
//Storyboard Layer 0 (Background)
//Storyboard Layer 1 (Fail)
//Storyboard Layer 2 (Pass)
//Storyboard Layer 3 (Foreground)
//Storyboard Layer 4 (Overlay)
//Storyboard Sound Samples

[TimingPoints]
322,223.880597014925,4,1,0,55,1,0
322,-133.333333333333,4,1,0,55,0,0
5695,223.880597014925,4,1,0,55,1,8
5863,-100,4,1,0,80,0,0
5919,223.880597014925,4,1,0,80,1,0
15878,-98.159509202454,4,1,0,80,0,0
15990,-96.3855421686747,4,1,0,80,0,0
16102,-94.6745562130178,4,1,0,80,0,0
16214,-93.0232558139535,4,1,0,80,0,0
16326,-91.4285714285714,4,1,0,80,0,0
16438,-89.8876404494382,4,1,0,80,0,0
16550,-88.3977900552486,4,1,0,80,0,0
16665,-86.9565217391304,4,1,0,80,0,1
16777,-100,4,1,0,80,0,1
30207,-98.1574906777802,4,1,0,80,0,1
30318,-96.3972211750768,4,1,0,80,0,1
30430,-94.6839460460196,4,1,0,80,0,1
30542,-93.0305077698664,4,1,0,80,0,1
30598,-92.2252563243856,4,1,0,80,0,1
30654,-91.4338254073658,4,1,0,80,0,1
30766,-89.8910259629388,4,1,0,80,0,1
30878,-88.3994271322041,4,1,0,80,0,1
30993,-86.9565217391304,4,1,0,80,0,0
31105,-100,4,1,0,80,0,0
37371,-98.1574906777802,4,1,0,80,0,0
37483,-96.3816497953909,4,1,0,80,0,0
37595,-94.6689232071081,4,1,0,80,0,0
37707,-93.0160049885679,4,1,0,80,0,0
37818,-91.4338254073658,4,1,0,80,0,0
37930,-89.8910259629388,4,1,0,80,0,0
38042,-88.3994271322041,4,1,0,80,0,0
38154,-86.9565217391304,4,1,0,80,0,0
38269,-100,4,1,0,80,0,0
44535,-98.1574906777802,4,1,0,80,0,0
44647,-96.3816497953909,4,1,0,80,0,0
44759,-94.6689232071081,4,1,0,80,0,0
44871,-93.0160049885679,4,1,0,80,0,0
44983,-91.4198161389173,4,1,0,80,0,0
45095,-89.8774854388431,4,1,0,80,0,0
45207,-88.3863322141023,4,1,0,80,0,0
45321,-86.9565217391304,4,1,0,80,0,1
45377,-100,4,1,0,80,0,1
51699,-98.159509202454,4,1,0,80,0,1
51811,-96.3855421686747,4,1,0,80,0,1
51923,-94.6745562130178,4,1,0,80,0,1
52035,-93.0232558139535,4,1,0,80,0,1
52147,-91.4285714285714,4,1,0,80,0,1
52259,-89.8876404494382,4,1,0,80,0,1
52371,-88.3977900552486,4,1,0,80,0,1
52486,-86.9565217391304,4,1,0,80,0,0
52598,-100,4,1,0,80,0,0
62333,-100,4,1,0,80,0,0
62445,-98.159509202454,4,1,0,80,0,0
62557,-96.3855421686747,4,1,0,80,0,0
62669,-94.6745562130178,4,1,0,80,0,0
62781,-93.0232558139535,4,1,0,80,0,0
62893,-91.4285714285714,4,1,0,80,0,0
63005,-89.8876404494382,4,1,0,80,0,0
63117,-88.3977900552486,4,1,0,80,0,0
63232,-86.9565217391304,4,1,0,80,0,1
63344,-100,4,1,0,80,0,1
76662,-100,4,1,0,80,0,1
76774,-98.1574906777802,4,1,0,80,0,1
76886,-96.3816497953909,4,1,0,80,0,1
76998,-94.6689232071081,4,1,0,80,0,1
77110,-93.0160049885679,4,1,0,80,0,1
77165,-92.2252563243856,4,1,0,80,0,1
77221,-91.4338254073658,4,1,0,80,0,1
77333,-89.8910259629388,4,1,0,80,0,1
77445,-88.3994271322041,4,1,0,80,0,1
77560,-86.9565217391304,4,1,0,80,0,0

[HitObjects]
256,192,3904,12,0,5695,0:0:0:0:
256,192,5918,5,4,0:0:0:0:
256,192,6142,1,8,0:0:0:0:
256,192,6198,1,8,0:0:0:0:
256,192,6254,1,0,0:0:0:0:
256,192,6366,1,8,0:0:0:0:
256,192,6478,1,0,0:0:0:0:
256,192,6590,1,8,0:0:0:0:
256,192,6646,1,0,0:0:0:0:
256,192,6702,1,8,0:0:0:0:
256,192,6814,1,0,0:0:0:0:
256,192,6870,1,8,0:0:0:0:
256,192,6926,1,0,0:0:0:0:
256,192,7038,1,8,0:0:0:0:
256,192,7150,1,8,0:0:0:0:
256,192,7262,1,0,0:0:0:0:
256,192,7318,1,0,0:0:0:0:
256,192,7374,1,8,0:0:0:0:
256,192,7486,1,0,0:0:0:0:
256,192,7598,1,0,0:0:0:0:
256,192,7710,1,8,0:0:0:0:
256,192,7766,1,8,0:0:0:0:
256,192,7821,1,0,0:0:0:0:
256,192,7933,1,8,0:0:0:0:
256,192,8045,1,0,0:0:0:0:
256,192,8157,1,8,0:0:0:0:
256,192,8213,1,0,0:0:0:0:
256,192,8269,1,8,0:0:0:0:
256,192,8381,1,0,0:0:0:0:
256,192,8493,1,8,0:0:0:0:
256,192,8605,1,0,0:0:0:0:
256,192,8661,1,8,0:0:0:0:
256,192,8717,1,0,0:0:0:0:
256,192,8829,1,8,0:0:0:0:
256,192,8941,1,0,0:0:0:0:
256,192,8997,1,0,0:0:0:0:
256,192,9053,1,8,0:0:0:0:
256,192,9109,1,0,0:0:0:0:
256,192,9165,1,8,0:0:0:0:
256,192,9277,1,0,0:0:0:0:
256,192,9389,1,8,0:0:0:0:
256,192,9501,1,0,0:0:0:0:
256,192,9557,1,0,0:0:0:0:
256,192,9613,1,8,0:0:0:0:
256,192,9668,1,8,0:0:0:0:
256,192,9724,1,0,0:0:0:0:
256,192,9780,1,0,0:0:0:0:
256,192,9836,1,8,0:0:0:0:
256,192,9892,1,8,0:0:0:0:
256,192,9948,1,0,0:0:0:0:
256,192,10004,1,0,0:0:0:0:
256,192,10060,1,8,0:0:0:0:
256,192,10116,1,0,0:0:0:0:
256,192,10172,1,8,0:0:0:0:
256,192,10228,1,8,0:0:0:0:
256,192,10284,1,0,0:0:0:0:
256,192,10396,1,8,0:0:0:0:
256,192,10508,1,8,0:0:0:0:
256,192,10620,1,0,0:0:0:0:
256,192,10732,1,8,0:0:0:0:
256,192,10844,1,0,0:0:0:0:
256,192,10900,1,0,0:0:0:0:
256,192,10956,1,0,0:0:0:0:
256,192,11012,1,0,0:0:0:0:
256,192,11068,1,8,0:0:0:0:
256,192,11180,1,8,0:0:0:0:
256,192,11292,1,0,0:0:0:0:
256,192,11348,1,0,0:0:0:0:
256,192,11404,1,0,0:0:0:0:
256,192,11516,1,8,0:0:0:0:
256,192,11627,1,0,0:0:0:0:
256,192,11739,1,8,0:0:0:0:
256,192,11795,1,8,0:0:0:0:
256,192,11851,1,0,0:0:0:0:
256,192,11963,1,8,0:0:0:0:
256,192,12019,1,0,0:0:0:0:
256,192,12075,1,8,0:0:0:0:
256,192,12187,1,0,0:0:0:0:
256,192,12299,1,0,0:0:0:0:
256,192,12411,1,8,0:0:0:0:
256,192,12523,1,0,0:0:0:0:
256,192,12635,1,8,0:0:0:0:
256,192,12691,1,8,0:0:0:0:
256,192,12747,1,0,0:0:0:0:
256,192,12803,1,0,0:0:0:0:
256,192,12859,1,8,0:0:0:0:
256,192,12971,1,0,0:0:0:0:
256,192,13083,1,8,0:0:0:0:
256,192,13139,1,8,0:0:0:0:
256,192,13195,1,0,0:0:0:0:
256,192,13251,1,0,0:0:0:0:
256,192,13307,1,8,0:0:0:0:
256,192,13363,1,8,0:0:0:0:
256,192,13418,1,0,0:0:0:0:
256,192,13474,1,0,0:0:0:0:
256,192,13530,1,8,0:0:0:0:
256,192,13586,1,8,0:0:0:0:
256,192,13642,1,8,0:0:0:0:
256,192,13698,1,8,0:0:0:0:
256,192,13754,1,0,0:0:0:0:
256,192,13810,1,0,0:0:0:0:
256,192,13866,1,8,0:0:0:0:
256,192,13978,1,0,0:0:0:0:
256,192,14090,1,8,0:0:0:0:
256,192,14202,1,0,0:0:0:0:
256,192,14314,1,0,0:0:0:0:
256,192,14426,1,8,0:0:0:0:
256,192,14482,1,8,0:0:0:0:
256,192,14538,1,8,0:0:0:0:
256,192,14594,1,8,0:0:0:0:
256,192,14650,1,0,0:0:0:0:
256,192,14762,1,8,0:0:0:0:
256,192,14874,1,0,0:0:0:0:
256,192,14930,1,0,0:0:0:0:
256,192,14986,1,8,0:0:0:0:
256,192,15098,1,0,0:0:0:0:
256,192,15210,1,8,0:0:0:0:
256,192,15266,1,0,0:0:0:0:
256,192,15321,1,8,0:0:0:0:
256,192,15377,1,8,0:0:0:0:
256,192,15433,1,0,0:0:0:0:
256,192,15489,1,0,0:0:0:0:
256,192,15545,1,8,0:0:0:0:
256,192,15601,1,8,0:0:0:0:
256,192,15657,1,0,0:0:0:0:
256,192,15769,1,8,0:0:0:0:
256,192,15881,1,0,0:0:0:0:
256,192,15993,1,8,0:0:0:0:
256,192,16105,1,8,0:0:0:0:
256,192,16217,1,0,0:0:0:0:
256,192,16329,1,0,0:0:0:0:
256,192,16441,1,8,0:0:0:0:
256,192,16553,1,0,0:0:0:0:
256,192,16665,1,12,0:0:0:0:
256,192,16889,1,0,0:0:0:0:
256,192,16945,1,0,0:0:0:0:
256,192,17001,1,0,0:0:0:0:
256,192,17113,1,8,0:0:0:0:
256,192,17224,1,0,0:0:0:0:
256,192,17336,1,8,0:0:0:0:
256,192,17392,1,0,0:0:0:0:
256,192,17448,1,0,0:0:0:0:
256,192,17504,1,0,0:0:0:0:
256,192,17560,1,8,0:0:0:0:
256,192,17672,1,0,0:0:0:0:
256,192,17784,1,8,0:0:0:0:
256,192,17896,1,0,0:0:0:0:
256,192,18008,1,8,0:0:0:0:
256,192,18064,1,0,0:0:0:0:
256,192,18120,1,0,0:0:0:0:
256,192,18176,1,0,0:0:0:0:
256,192,18232,1,8,0:0:0:0:
256,192,18344,1,0,0:0:0:0:
256,192,18456,1,8,0:0:0:0:
256,192,18512,1,0,0:0:0:0:
256,192,18568,1,0,0:0:0:0:
256,192,18624,1,0,0:0:0:0:
256,192,18680,1,8,0:0:0:0:
256,192,18792,1,0,0:0:0:0:
256,192,18904,1,0,0:0:0:0:
256,192,19016,1,8,0:0:0:0:
256,192,19071,1,0,0:0:0:0:
256,192,19127,1,8,0:0:0:0:
256,192,19183,1,8,0:0:0:0:
256,192,19239,1,0,0:0:0:0:
256,192,19295,1,0,0:0:0:0:
256,192,19351,1,8,0:0:0:0:
256,192,19463,1,0,0:0:0:0:
256,192,19575,1,8,0:0:0:0:
256,192,19687,1,0,0:0:0:0:
256,192,19799,1,8,0:0:0:0:
256,192,19855,1,8,0:0:0:0:
256,192,19911,1,0,0:0:0:0:
256,192,19967,1,0,0:0:0:0:
256,192,20023,1,8,0:0:0:0:
256,192,20135,1,0,0:0:0:0:
256,192,20247,1,8,0:0:0:0:
256,192,20303,1,8,0:0:0:0:
256,192,20359,1,0,0:0:0:0:
256,192,20415,1,0,0:0:0:0:
256,192,20471,1,8,0:0:0:0:
256,192,20583,1,0,0:0:0:0:
256,192,20695,1,8,0:0:0:0:
256,192,20807,1,0,0:0:0:0:
256,192,20863,1,0,0:0:0:0:
256,192,20918,1,8,0:0:0:0:
256,192,20974,1,8,0:0:0:0:
256,192,21030,1,8,0:0:0:0:
256,192,21086,1,8,0:0:0:0:
256,192,21142,1,0,0:0:0:0:
256,192,21254,1,8,0:0:0:0:
256,192,21366,1,0,0:0:0:0:
256,192,21478,1,0,0:0:0:0:
256,192,21590,1,8,0:0:0:0:
256,192,21646,1,8,0:0:0:0:
256,192,21702,1,8,0:0:0:0:
256,192,21758,1,8,0:0:0:0:
256,192,21814,1,0,0:0:0:0:
256,192,21926,1,0,0:0:0:0:
256,192,22038,1,8,0:0:0:0:
256,192,22094,1,8,0:0:0:0:
256,192,22150,1,8,0:0:0:0:
256,192,22206,1,8,0:0:0:0:
256,192,22262,1,0,0:0:0:0:
256,192,22374,1,8,0:0:0:0:
256,192,22486,1,8,0:0:0:0:
256,192,22598,1,0,0:0:0:0:
256,192,22654,1,0,0:0:0:0:
256,192,22710,1,8,0:0:0:0:
256,192,22766,1,0,0:0:0:0:
256,192,22821,1,8,0:0:0:0:
256,192,22877,1,8,0:0:0:0:
256,192,22933,1,0,0:0:0:0:
256,192,23045,1,8,0:0:0:0:
256,192,23157,1,0,0:0:0:0:
256,192,23269,1,0,0:0:0:0:
256,192,23381,1,8,0:0:0:0:
256,192,23437,1,0,0:0:0:0:
256,192,23493,1,8,0:0:0:0:
256,192,23549,1,8,0:0:0:0:
256,192,23605,1,0,0:0:0:0:
256,192,23717,1,0,0:0:0:0:
256,192,23773,1,0,0:0:0:0:
256,192,23829,1,8,0:0:0:0:
256,192,23885,1,0,0:0:0:0:
256,192,23941,1,0,0:0:0:0:
256,192,23997,1,0,0:0:0:0:
256,192,24053,1,8,0:0:0:0:
256,192,24165,1,0,0:0:0:0:
256,192,24277,1,8,0:0:0:0:
256,192,24389,1,0,0:0:0:0:
256,192,24501,1,8,0:0:0:0:
256,192,24557,1,0,0:0:0:0:
256,192,24613,1,0,0:0:0:0:
256,192,24668,1,0,0:0:0:0:
256,192,24724,1,8,0:0:0:0:
256,192,24836,1,0,0:0:0:0:
256,192,24948,1,0,0:0:0:0:
256,192,25060,1,8,0:0:0:0:
256,192,25172,1,8,0:0:0:0:
256,192,25228,1,0,0:0:0:0:
256,192,25284,1,0,0:0:0:0:
256,192,25340,1,0,0:0:0:0:
256,192,25396,1,8,0:0:0:0:
256,192,25508,1,8,0:0:0:0:
256,192,25564,1,8,0:0:0:0:
256,192,25620,1,0,0:0:0:0:
256,192,25676,1,8,0:0:0:0:
256,192,25732,1,0,0:0:0:0:
256,192,25788,1,0,0:0:0:0:
256,192,25844,1,8,0:0:0:0:
256,192,25956,1,8,0:0:0:0:
256,192,26068,1,0,0:0:0:0:
256,192,26180,1,8,0:0:0:0:
256,192,26292,1,0,0:0:0:0:
256,192,26348,1,8,0:0:0:0:
256,192,26404,1,0,0:0:0:0:
256,192,26460,1,0,0:0:0:0:
256,192,26516,1,8,0:0:0:0:
256,192,26627,1,0,0:0:0:0:
256,192,26739,1,8,0:0:0:0:
256,192,26851,1,8,0:0:0:0:
256,192,26963,1,0,0:0:0:0:
256,192,27019,1,8,0:0:0:0:
256,192,27075,1,0,0:0:0:0:
256,192,27131,1,0,0:0:0:0:
256,192,27187,1,8,0:0:0:0:
256,192,27299,1,0,0:0:0:0:
256,192,27355,1,8,0:0:0:0:
256,192,27411,1,0,0:0:0:0:
256,192,27467,1,0,0:0:0:0:
256,192,27523,1,8,0:0:0:0:
256,192,27579,1,0,0:0:0:0:
256,192,27635,1,8,0:0:0:0:
256,192,27747,1,0,0:0:0:0:
256,192,27859,1,8,0:0:0:0:
256,192,27971,1,8,0:0:0:0:
256,192,28083,1,0,0:0:0:0:
256,192,28139,1,0,0:0:0:0:
256,192,28195,1,8,0:0:0:0:
256,192,28251,1,0,0:0:0:0:
256,192,28307,1,8,0:0:0:0:
256,192,28418,1,0,0:0:0:0:
256,192,28530,1,8,0:0:0:0:
256,192,28642,1,8,0:0:0:0:
256,192,28754,1,0,0:0:0:0:
256,192,28810,1,0,0:0:0:0:
256,192,28866,1,8,0:0:0:0:
256,192,28922,1,0,0:0:0:0:
256,192,28978,1,8,0:0:0:0:
256,192,29090,1,0,0:0:0:0:
256,192,29146,1,8,0:0:0:0:
256,192,29202,1,0,0:0:0:0:
256,192,29258,1,0,0:0:0:0:
256,192,29314,1,8,0:0:0:0:
256,192,29370,1,8,0:0:0:0:
256,192,29426,1,0,0:0:0:0:
256,192,29538,1,8,0:0:0:0:
256,192,29650,1,8,0:0:0:0:
256,192,29762,1,0,0:0:0:0:
256,192,29818,1,0,0:0:0:0:
256,192,29874,1,8,0:0:0:0:
256,192,29930,1,8,0:0:0:0:
256,192,29986,1,0,0:0:0:0:
256,192,30098,1,8,0:0:0:0:
256,192,30210,1,0,0:0:0:0:
256,192,30321,1,8,0:0:0:0:
256,192,30433,1,8,0:0:0:0:
256,192,30545,1,0,0:0:0:0:
256,192,30601,1,0,0:0:0:0:
256,192,30657,1,8,0:0:0:0:
256,192,30769,1,0,0:0:0:0:
256,192,30881,1,0,0:0:0:0:
256,192,30993,1,12,0:0:0:0:
256,192,31105,1,0,0:0:0:0:
256,192,31161,1,0,0:0:0:0:
256,192,31217,1,8,0:0:0:0:
256,192,31273,1,8,0:0:0:0:
256,192,31329,1,0,0:0:0:0:
256,192,31385,1,0,0:0:0:0:
256,192,31441,1,8,0:0:0:0:
256,192,31497,1,0,0:0:0:0:
256,192,31553,1,8,0:0:0:0:
256,192,31665,1,8,0:0:0:0:
256,192,31777,1,0,0:0:0:0:
256,192,31889,1,8,0:0:0:0:
256,192,31945,1,0,0:0:0:0:
256,192,32001,1,8,0:0:0:0:
256,192,32057,1,8,0:0:0:0:
256,192,32113,1,0,0:0:0:0:
256,192,32168,1,8,0:0:0:0:
256,192,32224,1,0,0:0:0:0:
256,192,32280,1,0,0:0:0:0:
256,192,32336,1,8,0:0:0:0:
256,192,32392,1,8,0:0:0:0:
256,192,32448,1,0,0:0:0:0:
256,192,32560,1,8,0:0:0:0:
256,192,32672,1,0,0:0:0:0:
256,192,32784,1,8,0:0:0:0:
256,192,32840,1,8,0:0:0:0:
256,192,32896,1,0,0:0:0:0:
256,192,32952,1,0,0:0:0:0:
256,192,33008,1,8,0:0:0:0:
256,192,33064,1,8,0:0:0:0:
256,192,33120,1,0,0:0:0:0:
256,192,33176,1,8,0:0:0:0:
256,192,33232,1,0,0:0:0:0:
256,192,33288,1,0,0:0:0:0:
256,192,33344,1,8,0:0:0:0:
256,192,33456,1,0,0:0:0:0:
256,192,33568,1,8,0:0:0:0:
256,192,33680,1,0,0:0:0:0:
256,192,33736,1,8,0:0:0:0:
256,192,33792,1,0,0:0:0:0:
256,192,33848,1,0,0:0:0:0:
256,192,33904,1,8,0:0:0:0:
256,192,34016,1,8,0:0:0:0:
256,192,34071,1,8,0:0:0:0:
256,192,34127,1,0,0:0:0:0:
256,192,34183,1,0,0:0:0:0:
256,192,34239,1,0,0:0:0:0:
256,192,34351,1,8,0:0:0:0:
256,192,34463,1,0,0:0:0:0:
256,192,34575,1,8,0:0:0:0:
256,192,34631,1,8,0:0:0:0:
256,192,34687,1,0,0:0:0:0:
256,192,34743,1,0,0:0:0:0:
256,192,34799,1,8,0:0:0:0:
256,192,34855,1,0,0:0:0:0:
256,192,34911,1,8,0:0:0:0:
256,192,34967,1,8,0:0:0:0:
256,192,35023,1,0,0:0:0:0:
256,192,35079,1,0,0:0:0:0:
256,192,35135,1,8,0:0:0:0:
256,192,35247,1,0,0:0:0:0:
256,192,35359,1,0,0:0:0:0:
256,192,35471,1,8,0:0:0:0:
256,192,35527,1,0,0:0:0:0:
256,192,35583,1,8,0:0:0:0:
256,192,35639,1,8,0:0:0:0:
256,192,35695,1,0,0:0:0:0:
256,192,35751,1,0,0:0:0:0:
256,192,35807,1,8,0:0:0:0:
256,192,35863,1,8,0:0:0:0:
256,192,35918,1,0,0:0:0:0:
256,192,35974,1,8,0:0:0:0:
256,192,36030,1,0,0:0:0:0:
256,192,36142,1,8,0:0:0:0:
256,192,36254,1,0,0:0:0:0:
256,192,36366,1,8,0:0:0:0:
256,192,36422,1,8,0:0:0:0:
256,192,36478,1,0,0:0:0:0:
256,192,36534,1,0,0:0:0:0:
256,192,36590,1,8,0:0:0:0:
256,192,36646,1,8,0:0:0:0:
256,192,36702,1,8,0:0:0:0:
256,192,36758,1,8,0:0:0:0:
256,192,36814,1,0,0:0:0:0:
256,192,36870,1,0,0:0:0:0:
256,192,36926,1,8,0:0:0:0:
256,192,37038,1,0,0:0:0:0:
256,192,37150,1,0,0:0:0:0:
256,192,37262,1,8,0:0:0:0:
256,192,37374,1,0,0:0:0:0:
256,192,37486,1,8,0:0:0:0:
256,192,37598,1,8,0:0:0:0:
256,192,37710,1,0,0:0:0:0:
256,192,37821,1,8,0:0:0:0:
256,192,37933,1,8,0:0:0:0:
256,192,38045,1,8,0:0:0:0:
256,192,38157,1,4,0:0:0:0:
256,192,38269,1,8,0:0:0:0:
256,192,38325,1,8,0:0:0:0:
256,192,38381,1,0,0:0:0:0:
256,192,38437,1,0,0:0:0:0:
256,192,38493,1,8,0:0:0:0:
256,192,38549,1,8,0:0:0:0:
256,192,38605,1,0,0:0:0:0:
256,192,38661,1,8,0:0:0:0:
256,192,38717,1,0,0:0:0:0:
256,192,38829,1,8,0:0:0:0:
256,192,38941,1,8,0:0:0:0:
256,192,39053,1,0,0:0:0:0:
256,192,39109,1,0,0:0:0:0:
256,192,39165,1,8,0:0:0:0:
256,192,39221,1,0,0:0:0:0:
256,192,39277,1,8,0:0:0:0:
256,192,39333,1,8,0:0:0:0:
256,192,39389,1,0,0:0:0:0:
256,192,39445,1,0,0:0:0:0:
256,192,39501,1,8,0:0:0:0:
256,192,39557,1,0,0:0:0:0:
256,192,39613,1,8,0:0:0:0:
256,192,39724,1,0,0:0:0:0:
256,192,39836,1,0,0:0:0:0:
256,192,39948,1,8,0:0:0:0:
256,192,40004,1,8,0:0:0:0:
256,192,40060,1,0,0:0:0:0:
256,192,40116,1,8,0:0:0:0:
256,192,40172,1,0,0:0:0:0:
256,192,40228,1,0,0:0:0:0:
256,192,40284,1,8,0:0:0:0:
256,192,40340,1,0,0:0:0:0:
256,192,40396,1,8,0:0:0:0:
256,192,40452,1,8,0:0:0:0:
256,192,40508,1,0,0:0:0:0:
256,192,40620,1,8,0:0:0:0:
256,192,40732,1,0,0:0:0:0:
256,192,40844,1,8,0:0:0:0:
256,192,40900,1,8,0:0:0:0:
256,192,40956,1,0,0:0:0:0:
256,192,41012,1,0,0:0:0:0:
256,192,41068,1,0,0:0:0:0:
256,192,41180,1,8,0:0:0:0:
256,192,41236,1,8,0:0:0:0:
256,192,41292,1,0,0:0:0:0:
256,192,41348,1,0,0:0:0:0:
256,192,41404,1,8,0:0:0:0:
256,192,41516,1,0,0:0:0:0:
256,192,41627,1,8,0:0:0:0:
256,192,41739,1,0,0:0:0:0:
256,192,41795,1,0,0:0:0:0:
256,192,41851,1,8,0:0:0:0:
256,192,41907,1,8,0:0:0:0:
256,192,41963,1,0,0:0:0:0:
256,192,42019,1,8,0:0:0:0:
256,192,42075,1,0,0:0:0:0:
256,192,42131,1,0,0:0:0:0:
256,192,42187,1,8,0:0:0:0:
256,192,42243,1,0,0:0:0:0:
256,192,42299,1,8,0:0:0:0:
256,192,42411,1,0,0:0:0:0:
256,192,42523,1,8,0:0:0:0:
256,192,42635,1,0,0:0:0:0:
256,192,42691,1,8,0:0:0:0:
256,192,42747,1,8,0:0:0:0:
256,192,42803,1,8,0:0:0:0:
256,192,42859,1,0,0:0:0:0:
256,192,42915,1,0,0:0:0:0:
256,192,42971,1,8,0:0:0:0:
256,192,43027,1,8,0:0:0:0:
256,192,43083,1,0,0:0:0:0:
256,192,43139,1,0,0:0:0:0:
256,192,43195,1,8,0:0:0:0:
256,192,43307,1,0,0:0:0:0:
256,192,43418,1,8,0:0:0:0:
256,192,43530,1,0,0:0:0:0:
256,192,43586,1,0,0:0:0:0:
256,192,43642,1,8,0:0:0:0:
256,192,43698,1,8,0:0:0:0:
256,192,43754,1,0,0:0:0:0:
256,192,43810,1,0,0:0:0:0:
256,192,43866,1,8,0:0:0:0:
256,192,43922,1,8,0:0:0:0:
256,192,43978,1,0,0:0:0:0:
256,192,44034,1,0,0:0:0:0:
256,192,44090,1,0,0:0:0:0:
256,192,44146,1,0,0:0:0:0:
256,192,44202,1,8,0:0:0:0:
256,192,44314,1,0,0:0:0:0:
256,192,44426,1,8,0:0:0:0:
256,192,44538,1,0,0:0:0:0:
256,192,44650,1,0,0:0:0:0:
256,192,44762,1,0,0:0:0:0:
256,192,44874,1,8,0:0:0:0:
256,192,44986,1,8,0:0:0:0:
256,192,45098,1,8,0:0:0:0:
256,192,45210,1,8,0:0:0:0:
256,192,45321,1,4,0:0:0:0:
256,192,45545,1,0,0:0:0:0:
256,192,45657,1,8,0:0:0:0:
256,192,45769,1,8,0:0:0:0:
256,192,45881,1,0,0:0:0:0:
256,192,45993,1,8,0:0:0:0:
256,192,46105,1,0,0:0:0:0:
256,192,46161,1,8,0:0:0:0:
256,192,46217,1,8,0:0:0:0:
256,192,46329,1,0,0:0:0:0:
256,192,46441,1,8,0:0:0:0:
256,192,46553,1,0,0:0:0:0:
256,192,46609,1,0,0:0:0:0:
256,192,46665,1,8,0:0:0:0:
256,192,46777,1,0,0:0:0:0:
256,192,46889,1,8,0:0:0:0:
256,192,46945,1,8,0:0:0:0:
256,192,47001,1,8,0:0:0:0:
256,192,47057,1,8,0:0:0:0:
256,192,47113,1,0,0:0:0:0:
256,192,47224,1,8,0:0:0:0:
256,192,47336,1,0,0:0:0:0:
256,192,47448,1,8,0:0:0:0:
256,192,47504,1,0,0:0:0:0:
256,192,47560,1,8,0:0:0:0:
256,192,47672,1,8,0:0:0:0:
256,192,47784,1,0,0:0:0:0:
256,192,47896,1,0,0:0:0:0:
256,192,47952,1,0,0:0:0:0:
256,192,48008,1,8,0:0:0:0:
256,192,48120,1,0,0:0:0:0:
256,192,48232,1,8,0:0:0:0:
256,192,48344,1,8,0:0:0:0:
256,192,48400,1,8,0:0:0:0:
256,192,48456,1,0,0:0:0:0:
256,192,48568,1,0,0:0:0:0:
256,192,48680,1,8,0:0:0:0:
256,192,48736,1,0,0:0:0:0:
256,192,48792,1,8,0:0:0:0:
256,192,48848,1,0,0:0:0:0:
256,192,48904,1,8,0:0:0:0:
256,192,49016,1,0,0:0:0:0:
256,192,49127,1,8,0:0:0:0:
256,192,49239,1,0,0:0:0:0:
256,192,49295,1,8,0:0:0:0:
256,192,49351,1,8,0:0:0:0:
256,192,49463,1,8,0:0:0:0:
256,192,49575,1,0,0:0:0:0:
256,192,49687,1,0,0:0:0:0:
256,192,49743,1,0,0:0:0:0:
256,192,49799,1,8,0:0:0:0:
256,192,49911,1,8,0:0:0:0:
256,192,50023,1,0,0:0:0:0:
256,192,50135,1,8,0:0:0:0:
256,192,50191,1,8,0:0:0:0:
256,192,50247,1,0,0:0:0:0:
256,192,50359,1,8,0:0:0:0:
256,192,50471,1,0,0:0:0:0:
256,192,50583,1,8,0:0:0:0:
256,192,50639,1,0,0:0:0:0:
256,192,50695,1,0,0:0:0:0:
256,192,50807,1,8,0:0:0:0:
256,192,50918,1,0,0:0:0:0:
256,192,51030,1,0,0:0:0:0:
256,192,51086,1,0,0:0:0:0:
256,192,51142,1,8,0:0:0:0:
256,192,51254,1,8,0:0:0:0:
256,192,51366,1,0,0:0:0:0:
256,192,51422,1,8,0:0:0:0:
256,192,51478,1,0,0:0:0:0:
256,192,51534,1,0,0:0:0:0:
256,192,51590,1,8,0:0:0:0:
256,192,51702,1,0,0:0:0:0:
256,192,51814,1,8,0:0:0:0:
256,192,51926,1,8,0:0:0:0:
256,192,52038,1,0,0:0:0:0:
256,192,52150,1,0,0:0:0:0:
256,192,52262,1,8,0:0:0:0:
256,192,52374,1,8,0:0:0:0:
256,192,52486,1,4,0:0:0:0:
256,192,52710,1,8,0:0:0:0:
256,192,52766,1,8,0:0:0:0:
256,192,52821,1,8,0:0:0:0:
256,192,52933,1,0,0:0:0:0:
256,192,53045,1,0,0:0:0:0:
256,192,53157,1,8,0:0:0:0:
256,192,53213,1,8,0:0:0:0:
256,192,53269,1,0,0:0:0:0:
256,192,53381,1,0,0:0:0:0:
256,192,53437,1,0,0:0:0:0:
256,192,53493,1,8,0:0:0:0:
256,192,53605,1,0,0:0:0:0:
256,192,53717,1,8,0:0:0:0:
256,192,53829,1,0,0:0:0:0:
256,192,53885,1,0,0:0:0:0:
256,192,53941,1,0,0:0:0:0:
256,192,54053,1,8,0:0:0:0:
256,192,54165,1,0,0:0:0:0:
256,192,54277,1,8,0:0:0:0:
256,192,54333,1,0,0:0:0:0:
256,192,54389,1,8,0:0:0:0:
256,192,54501,1,0,0:0:0:0:
256,192,54613,1,0,0:0:0:0:
256,192,54724,1,8,0:0:0:0:
256,192,54780,1,8,0:0:0:0:
256,192,54836,1,8,0:0:0:0:
256,192,54948,1,0,0:0:0:0:
256,192,55060,1,8,0:0:0:0:
256,192,55172,1,0,0:0:0:0:
256,192,55228,1,0,0:0:0:0:
256,192,55284,1,8,0:0:0:0:
256,192,55396,1,0,0:0:0:0:
256,192,55508,1,8,0:0:0:0:
256,192,55564,1,8,0:0:0:0:
256,192,55620,1,0,0:0:0:0:
256,192,55676,1,0,0:0:0:0:
256,192,55732,1,8,0:0:0:0:
256,192,55844,1,0,0:0:0:0:
256,192,55956,1,8,0:0:0:0:
256,192,56068,1,0,0:0:0:0:
256,192,56124,1,0,0:0:0:0:
256,192,56180,1,8,0:0:0:0:
256,192,56236,1,8,0:0:0:0:
256,192,56292,1,8,0:0:0:0:
256,192,56348,1,8,0:0:0:0:
256,192,56404,1,0,0:0:0:0:
256,192,56460,1,0,0:0:0:0:
256,192,56516,1,0,0:0:0:0:
256,192,56571,1,0,0:0:0:0:
256,192,56627,1,8,0:0:0:0:
256,192,56683,1,8,0:0:0:0:
256,192,56739,1,0,0:0:0:0:
256,192,56795,1,0,0:0:0:0:
256,192,56851,1,8,0:0:0:0:
256,192,56963,1,8,0:0:0:0:
256,192,57075,1,0,0:0:0:0:
256,192,57187,1,0,0:0:0:0:
256,192,57299,1,8,0:0:0:0:
256,192,57411,1,0,0:0:0:0:
256,192,57467,1,0,0:0:0:0:
256,192,57523,1,8,0:0:0:0:
256,192,57579,1,0,0:0:0:0:
256,192,57635,1,8,0:0:0:0:
256,192,57747,1,0,0:0:0:0:
256,192,57859,1,8,0:0:0:0:
256,192,57915,1,8,0:0:0:0:
256,192,57971,1,0,0:0:0:0:
256,192,58083,1,8,0:0:0:0:
256,192,58195,1,0,0:0:0:0:
256,192,58307,1,8,0:0:0:0:
256,192,58363,1,0,0:0:0:0:
256,192,58418,1,0,0:0:0:0:
256,192,58530,1,8,0:0:0:0:
256,192,58586,1,8,0:0:0:0:
256,192,58642,1,0,0:0:0:0:
256,192,58754,1,8,0:0:0:0:
256,192,58866,1,0,0:0:0:0:
256,192,58978,1,8,0:0:0:0:
256,192,59090,1,0,0:0:0:0:
256,192,59202,1,8,0:0:0:0:
256,192,59258,1,0,0:0:0:0:
256,192,59314,1,8,0:0:0:0:
256,192,59370,1,8,0:0:0:0:
256,192,59426,1,0,0:0:0:0:
256,192,59538,1,8,0:0:0:0:
256,192,59650,1,0,0:0:0:0:
256,192,59706,1,0,0:0:0:0:
256,192,59762,1,0,0:0:0:0:
256,192,59818,1,0,0:0:0:0:
256,192,59874,1,8,0:0:0:0:
256,192,59930,1,8,0:0:0:0:
256,192,59986,1,8,0:0:0:0:
256,192,60042,1,8,0:0:0:0:
256,192,60098,1,0,0:0:0:0:
256,192,60154,1,0,0:0:0:0:
256,192,60210,1,8,0:0:0:0:
256,192,60266,1,8,0:0:0:0:
256,192,60321,1,0,0:0:0:0:
256,192,60377,1,0,0:0:0:0:
256,192,60433,1,8,0:0:0:0:
256,192,60545,1,0,0:0:0:0:
256,192,60657,1,8,0:0:0:0:
256,192,60769,1,0,0:0:0:0:
256,192,60881,1,0,0:0:0:0:
256,192,60993,1,8,0:0:0:0:
256,192,61049,1,8,0:0:0:0:
256,192,61105,1,0,0:0:0:0:
256,192,61161,1,8,0:0:0:0:
256,192,61217,1,0,0:0:0:0:
256,192,61329,1,8,0:0:0:0:
256,192,61441,1,0,0:0:0:0:
256,192,61497,1,0,0:0:0:0:
256,192,61553,1,8,0:0:0:0:
256,192,61665,1,0,0:0:0:0:
256,192,61777,1,8,0:0:0:0:
256,192,61833,1,8,0:0:0:0:
256,192,61889,1,0,0:0:0:0:
256,192,61945,1,0,0:0:0:0:
256,192,62001,1,8,0:0:0:0:
256,192,62057,1,0,0:0:0:0:
256,192,62113,1,8,0:0:0:0:
256,192,62168,1,8,0:0:0:0:
256,192,62224,1,0,0:0:0:0:
256,192,62336,1,8,0:0:0:0:
256,192,62448,1,0,0:0:0:0:
256,192,62560,1,8,0:0:0:0:
256,192,62672,1,8,0:0:0:0:
256,192,62784,1,0,0:0:0:0:
256,192,62896,1,0,0:0:0:0:
256,192,63008,1,8,0:0:0:0:
256,192,63120,1,0,0:0:0:0:
256,192,63232,1,12,0:0:0:0:
256,192,63456,1,0,0:0:0:0:
256,192,63512,1,0,0:0:0:0:
256,192,63568,1,0,0:0:0:0:
256,192,63680,1,8,0:0:0:0:
256,192,63792,1,0,0:0:0:0:
256,192,63904,1,8,0:0:0:0:
256,192,63960,1,0,0:0:0:0:
256,192,64016,1,0,0:0:0:0:
256,192,64071,1,0,0:0:0:0:
256,192,64127,1,8,0:0:0:0:
256,192,64239,1,0,0:0:0:0:
256,192,64351,1,8,0:0:0:0:
256,192,64463,1,0,0:0:0:0:
256,192,64575,1,8,0:0:0:0:
256,192,64631,1,0,0:0:0:0:
256,192,64687,1,0,0:0:0:0:
256,192,64743,1,0,0:0:0:0:
256,192,64799,1,8,0:0:0:0:
256,192,64911,1,0,0:0:0:0:
256,192,65023,1,8,0:0:0:0:
256,192,65079,1,0,0:0:0:0:
256,192,65135,1,0,0:0:0:0:
256,192,65191,1,0,0:0:0:0:
256,192,65247,1,8,0:0:0:0:
256,192,65359,1,0,0:0:0:0:
256,192,65471,1,0,0:0:0:0:
256,192,65583,1,8,0:0:0:0:
256,192,65639,1,0,0:0:0:0:
256,192,65695,1,8,0:0:0:0:
256,192,65751,1,8,0:0:0:0:
256,192,65807,1,0,0:0:0:0:
256,192,65863,1,0,0:0:0:0:
256,192,65918,1,8,0:0:0:0:
256,192,66030,1,0,0:0:0:0:
256,192,66142,1,8,0:0:0:0:
256,192,66254,1,0,0:0:0:0:
256,192,66366,1,8,0:0:0:0:
256,192,66422,1,8,0:0:0:0:
256,192,66478,1,0,0:0:0:0:
256,192,66534,1,0,0:0:0:0:
256,192,66590,1,8,0:0:0:0:
256,192,66702,1,0,0:0:0:0:
256,192,66814,1,8,0:0:0:0:
256,192,66870,1,8,0:0:0:0:
256,192,66926,1,0,0:0:0:0:
256,192,66982,1,0,0:0:0:0:
256,192,67038,1,8,0:0:0:0:
256,192,67150,1,0,0:0:0:0:
256,192,67262,1,8,0:0:0:0:
256,192,67374,1,0,0:0:0:0:
256,192,67430,1,0,0:0:0:0:
256,192,67486,1,8,0:0:0:0:
256,192,67542,1,8,0:0:0:0:
256,192,67598,1,8,0:0:0:0:
256,192,67654,1,8,0:0:0:0:
256,192,67710,1,0,0:0:0:0:
256,192,67821,1,8,0:0:0:0:
256,192,67933,1,0,0:0:0:0:
256,192,68045,1,0,0:0:0:0:
256,192,68157,1,8,0:0:0:0:
256,192,68213,1,8,0:0:0:0:
256,192,68269,1,8,0:0:0:0:
256,192,68325,1,8,0:0:0:0:
256,192,68381,1,0,0:0:0:0:
256,192,68493,1,0,0:0:0:0:
256,192,68605,1,8,0:0:0:0:
256,192,68661,1,8,0:0:0:0:
256,192,68717,1,8,0:0:0:0:
256,192,68773,1,8,0:0:0:0:
256,192,68829,1,0,0:0:0:0:
256,192,68941,1,8,0:0:0:0:
256,192,69053,1,8,0:0:0:0:
256,192,69165,1,0,0:0:0:0:
256,192,69221,1,0,0:0:0:0:
256,192,69277,1,8,0:0:0:0:
256,192,69333,1,0,0:0:0:0:
256,192,69389,1,8,0:0:0:0:
256,192,69445,1,8,0:0:0:0:
256,192,69501,1,0,0:0:0:0:
256,192,69613,1,8,0:0:0:0:
256,192,69724,1,0,0:0:0:0:
256,192,69836,1,0,0:0:0:0:
256,192,69948,1,8,0:0:0:0:
256,192,70004,1,0,0:0:0:0:
256,192,70060,1,8,0:0:0:0:
256,192,70116,1,8,0:0:0:0:
256,192,70172,1,0,0:0:0:0:
256,192,70284,1,0,0:0:0:0:
256,192,70340,1,0,0:0:0:0:
256,192,70396,1,8,0:0:0:0:
256,192,70452,1,0,0:0:0:0:
256,192,70508,1,0,0:0:0:0:
256,192,70564,1,0,0:0:0:0:
256,192,70620,1,8,0:0:0:0:
256,192,70732,1,0,0:0:0:0:
256,192,70844,1,8,0:0:0:0:
256,192,70956,1,0,0:0:0:0:
256,192,71068,1,8,0:0:0:0:
256,192,71124,1,0,0:0:0:0:
256,192,71180,1,0,0:0:0:0:
256,192,71236,1,0,0:0:0:0:
256,192,71292,1,8,0:0:0:0:
256,192,71404,1,0,0:0:0:0:
256,192,71516,1,0,0:0:0:0:
256,192,71627,1,8,0:0:0:0:
256,192,71739,1,8,0:0:0:0:
256,192,71795,1,0,0:0:0:0:
256,192,71851,1,0,0:0:0:0:
256,192,71907,1,0,0:0:0:0:
256,192,71963,1,8,0:0:0:0:
256,192,72075,1,8,0:0:0:0:
256,192,72131,1,8,0:0:0:0:
256,192,72187,1,0,0:0:0:0:
256,192,72243,1,8,0:0:0:0:
256,192,72299,1,0,0:0:0:0:
256,192,72355,1,0,0:0:0:0:
256,192,72411,1,8,0:0:0:0:
256,192,72523,1,8,0:0:0:0:
256,192,72635,1,0,0:0:0:0:
256,192,72747,1,8,0:0:0:0:
256,192,72859,1,0,0:0:0:0:
256,192,72915,1,8,0:0:0:0:
256,192,72971,1,0,0:0:0:0:
256,192,73027,1,0,0:0:0:0:
256,192,73083,1,8,0:0:0:0:
256,192,73195,1,0,0:0:0:0:
256,192,73307,1,8,0:0:0:0:
256,192,73418,1,8,0:0:0:0:
256,192,73530,1,0,0:0:0:0:
256,192,73586,1,8,0:0:0:0:
256,192,73642,1,0,0:0:0:0:
256,192,73698,1,0,0:0:0:0:
256,192,73754,1,8,0:0:0:0:
256,192,73866,1,0,0:0:0:0:
256,192,73922,1,8,0:0:0:0:
256,192,73978,1,0,0:0:0:0:
256,192,74034,1,0,0:0:0:0:
256,192,74090,1,8,0:0:0:0:
256,192,74146,1,0,0:0:0:0:
256,192,74202,1,8,0:0:0:0:
256,192,74314,1,0,0:0:0:0:
256,192,74426,1,8,0:0:0:0:
256,192,74538,1,8,0:0:0:0:
256,192,74650,1,0,0:0:0:0:
256,192,74706,1,0,0:0:0:0:
256,192,74762,1,8,0:0:0:0:
256,192,74818,1,0,0:0:0:0:
256,192,74874,1,8,0:0:0:0:
256,192,74986,1,0,0:0:0:0:
256,192,75098,1,8,0:0:0:0:
256,192,75210,1,8,0:0:0:0:
256,192,75321,1,0,0:0:0:0:
256,192,75377,1,0,0:0:0:0:
256,192,75433,1,8,0:0:0:0:
256,192,75489,1,0,0:0:0:0:
256,192,75545,1,8,0:0:0:0:
256,192,75657,1,0,0:0:0:0:
256,192,75713,1,8,0:0:0:0:
256,192,75769,1,0,0:0:0:0:
256,192,75825,1,0,0:0:0:0:
256,192,75881,1,8,0:0:0:0:
256,192,75937,1,8,0:0:0:0:
256,192,75993,1,0,0:0:0:0:
256,192,76105,1,8,0:0:0:0:
256,192,76217,1,8,0:0:0:0:
256,192,76329,1,0,0:0:0:0:
256,192,76385,1,0,0:0:0:0:
256,192,76441,1,8,0:0:0:0:
256,192,76497,1,8,0:0:0:0:
256,192,76553,1,0,0:0:0:0:
256,192,76665,1,8,0:0:0:0:
256,192,76777,1,0,0:0:0:0:
256,192,76889,1,8,0:0:0:0:
256,192,77001,1,8,0:0:0:0:
256,192,77113,1,0,0:0:0:0:
256,192,77168,1,0,0:0:0:0:
256,192,77224,1,8,0:0:0:0:
256,192,77336,1,0,0:0:0:0:
256,192,77448,1,0,0:0:0:0:
256,192,77560,1,12,0:0:0:0:
