osu file format v14

[General]
AudioFilename: audio.mp3
AudioLeadIn: 0
PreviewTime: 16665
Countdown: 0
SampleSet: Normal
StackLeniency: 0
Mode: 1
LetterboxInBreaks: 0
WidescreenStoryboard: 1

[Editor]
DistanceSpacing: 0.7
BeatDivisor: 4
GridSize: 8
TimelineZoom: 2.8

[Metadata]
Title:Mochio-
TitleUnicode:モチオー
Artist:[Kyoro]
ArtistUnicode:【Kyoro】
Creator:The Law
Version:Muzukashii
Source:スーパーマリオRPG
Tags:meiqth arcpotato 音MAD oto-mad otomad ニコニコ動画 niconico douga YTPMV Youtube スロウスタート Slow Start 百地たまて Tamate Momochi たまちゃん tamachan 伊藤 彩沙 Itou Ayasa きららファンタジア Kirara Fantasia 芳文社 Houbunsha まんがタイムきらら manga time 対カジオー戦 Fight Against Smithy Kajioh Super Mario Legend of the Seven Stars 下村陽子 Yoko Shimomura 任天堂 nintendo novelty japanese liku the_law
BeatmapID:3632467
BeatmapSetID:1774068

[Difficulty]
HPDrainRate:6
CircleSize:5
OverallDifficulty:5
ApproachRate:5
SliderMultiplier:1.4
SliderTickRate:1

[Events]
//Background and Video events
0,0,"tamachan.jpg",0,10
//Break Periods
//Storyboard Layer 0 (Background)
//Storyboard Layer 1 (Fail)
//Storyboard Layer 2 (Pass)
//Storyboard Layer 3 (Foreground)
//Storyboard Layer 4 (Overlay)
//Storyboard Sound Samples

[TimingPoints]
322,223.880597014925,4,1,0,55,1,0
322,-133.333333333333,4,1,0,55,0,0
5695,223.880597014925,4,1,0,55,1,8
5919,223.880597014925,4,1,0,80,1,0
5919,-105.263157894737,4,1,0,80,0,0
16665,-105.263157894737,4,1,0,80,0,1
30993,-105.263157894737,4,1,0,80,0,0
45321,-105.263157894737,4,1,0,80,0,1
52486,-105.263157894737,4,1,0,80,0,0
63232,-105.263157894737,4,1,0,80,0,1
77560,-105.263157894737,4,1,0,80,0,0

[HitObjects]
256,192,3904,8,0,5695,0:0:0:0:
143,109,5919,5,4,0:0:0:0:
143,109,6142,1,0,0:0:0:0:
141,127,6254,1,8,0:0:0:0:
141,127,6366,1,0,0:0:0:0:
141,127,6478,1,0,0:0:0:0:
206,124,6590,1,8,0:0:0:0:
206,124,6814,1,0,0:0:0:0:
152,159,6870,1,0,0:0:0:0:
206,124,6926,1,0,0:0:0:0:
206,124,7038,1,8,0:0:0:0:
206,124,7150,1,8,0:0:0:0:
206,124,7262,1,0,0:0:0:0:
153,144,7486,1,8,0:0:0:0:
206,124,7710,1,0,0:0:0:0:
206,124,7933,1,8,0:0:0:0:
206,124,8045,1,0,0:0:0:0:
206,124,8157,1,8,0:0:0:0:
206,124,8269,1,8,0:0:0:0:
206,124,8381,1,0,0:0:0:0:
206,124,8605,1,8,0:0:0:0:
206,124,8829,1,8,0:0:0:0:
200,168,8885,1,8,0:0:0:0:
206,124,8941,1,8,0:0:0:0:
155,135,9053,1,0,0:0:0:0:
205,129,9277,1,8,0:0:0:0:
182,150,9389,1,8,0:0:0:0:
182,150,9501,1,0,0:0:0:0:
205,129,9948,1,0,0:0:0:0:
205,129,10172,1,8,0:0:0:0:
205,129,10396,1,0,0:0:0:0:
176,114,10508,1,8,0:0:0:0:
261,136,10620,1,0,0:0:0:0:
167,118,10732,1,8,0:0:0:0:
261,136,10844,1,0,0:0:0:0:
147,125,10900,1,0,0:0:0:0:
261,136,10956,1,0,0:0:0:0:
261,136,11068,1,8,0:0:0:0:
261,136,11292,1,0,0:0:0:0:
261,136,11404,1,0,0:0:0:0:
261,136,11516,1,8,0:0:0:0:
261,136,11627,1,8,0:0:0:0:
261,136,11739,1,0,0:0:0:0:
140,126,11963,1,8,0:0:0:0:
261,136,12187,1,0,0:0:0:0:
114,137,12299,1,8,0:0:0:0:
261,136,12411,1,8,0:0:0:0:
261,136,12523,1,8,0:0:0:0:
261,136,12635,1,0,0:0:0:0:
248,309,12747,1,0,0:0:0:0:
261,136,12859,1,8,0:0:0:0:
140,138,13083,1,0,0:0:0:0:
135,38,13307,1,8,0:0:0:0:
135,38,13418,1,8,0:0:0:0:
236,132,13530,1,0,0:0:0:0:
236,132,13642,1,8,0:0:0:0:
108,220,13698,1,8,0:0:0:0:
109,201,13754,1,8,0:0:0:0:
236,132,13978,1,0,0:0:0:0:
236,132,14090,1,0,0:0:0:0:
236,132,14202,1,8,0:0:0:0:
236,132,14314,1,0,0:0:0:0:
236,132,14426,1,8,0:0:0:0:
236,132,14874,1,0,0:0:0:0:
236,132,15098,1,8,0:0:0:0:
63,153,15210,1,0,0:0:0:0:
54,157,15321,1,8,0:0:0:0:
42,161,15545,1,8,0:0:0:0:
49,159,15769,1,0,0:0:0:0:
230,134,15993,1,8,0:0:0:0:
42,161,16217,1,0,0:0:0:0:
163,135,16329,1,0,0:0:0:0:
163,135,16441,1,8,0:0:0:0:
163,135,16553,1,8,0:0:0:0:
230,134,16665,1,4,0:0:0:0:
281,96,16889,1,8,0:0:0:0:
239,56,17113,1,0,0:0:0:0:
259,56,17224,1,8,0:0:0:0:
162,102,17448,1,0,0:0:0:0:
162,102,17504,1,0,0:0:0:0:
162,102,17560,1,0,0:0:0:0:
127,145,17672,1,8,0:0:0:0:
100,152,17784,1,0,0:0:0:0:
100,153,17896,1,8,0:0:0:0:
219,72,18120,1,8,0:0:0:0:
52,164,18232,1,8,0:0:0:0:
86,159,18456,1,0,0:0:0:0:
54,182,18680,1,8,0:0:0:0:
54,182,18792,1,0,0:0:0:0:
53,182,18904,1,8,0:0:0:0:
54,182,19127,1,0,0:0:0:0:
54,182,19351,1,8,0:0:0:0:
54,182,19463,1,0,0:0:0:0:
54,182,19575,1,8,0:0:0:0:
53,182,19687,1,8,0:0:0:0:
53,182,19799,1,0,0:0:0:0:
49,186,20247,1,0,0:0:0:0:
162,128,20471,1,8,0:0:0:0:
163,128,20695,1,0,0:0:0:0:
155,144,20807,1,8,0:0:0:0:
102,164,21030,1,0,0:0:0:0:
102,164,21086,1,0,0:0:0:0:
182,136,21142,1,0,0:0:0:0:
129,141,21254,1,0,0:0:0:0:
166,155,21366,1,8,0:0:0:0:
154,114,21478,1,0,0:0:0:0:
258,96,21702,1,8,0:0:0:0:
253,100,21758,1,8,0:0:0:0:
249,101,21814,1,8,0:0:0:0:
216,106,22038,1,0,0:0:0:0:
137,217,22262,1,8,0:0:0:0:
137,217,22374,1,0,0:0:0:0:
137,217,22486,1,8,0:0:0:0:
137,217,22710,1,8,0:0:0:0:
137,217,22933,1,0,0:0:0:0:
132,221,23045,1,0,0:0:0:0:
132,221,23157,1,8,0:0:0:0:
132,221,23269,1,0,0:0:0:0:
131,223,23381,1,8,0:0:0:0:
132,221,23829,1,0,0:0:0:0:
100,181,24053,1,8,0:0:0:0:
100,181,24277,1,0,0:0:0:0:
159,70,24389,1,0,0:0:0:0:
100,181,24501,1,8,0:0:0:0:
155,143,24613,1,8,0:0:0:0:
100,181,24724,1,0,0:0:0:0:
100,181,24948,1,8,0:0:0:0:
132,67,25060,1,8,0:0:0:0:
100,181,25172,1,0,0:0:0:0:
155,155,25228,1,0,0:0:0:0:
100,181,25284,1,0,0:0:0:0:
100,181,25396,1,8,0:0:0:0:
100,181,25620,1,0,0:0:0:0:
100,181,25844,1,8,0:0:0:0:
100,181,25956,1,0,0:0:0:0:
162,134,26068,1,8,0:0:0:0:
160,134,26180,1,0,0:0:0:0:
100,181,26292,1,8,0:0:0:0:
100,181,26516,1,0,0:0:0:0:
100,181,26627,1,0,0:0:0:0:
100,181,26739,1,8,0:0:0:0:
155,135,26851,1,0,0:0:0:0:
59,154,26907,1,0,0:0:0:0:
86,148,26963,1,0,0:0:0:0:
100,181,27411,1,0,0:0:0:0:
100,181,27523,1,0,0:0:0:0:
100,181,27635,1,8,0:0:0:0:
100,181,27747,1,8,0:0:0:0:
100,181,27859,1,0,0:0:0:0:
120,141,27971,1,0,0:0:0:0:
100,181,28083,1,8,0:0:0:0:
100,181,28307,1,0,0:0:0:0:
119,141,28418,1,0,0:0:0:0:
100,181,28530,1,8,0:0:0:0:
100,181,28642,1,8,0:0:0:0:
100,181,28754,1,0,0:0:0:0:
162,128,28810,1,0,0:0:0:0:
100,181,28866,1,0,0:0:0:0:
100,181,28978,1,8,0:0:0:0:
100,181,29202,1,0,0:0:0:0:
100,181,29426,1,8,0:0:0:0:
188,157,29538,1,8,0:0:0:0:
100,181,29650,1,0,0:0:0:0:
100,181,29874,1,8,0:0:0:0:
100,181,30098,1,8,0:0:0:0:
100,181,30210,1,8,0:0:0:0:
66,225,30321,1,0,0:0:0:0:
66,225,30433,1,0,0:0:0:0:
66,225,30545,1,8,0:0:0:0:
174,158,30657,1,8,0:0:0:0:
180,157,30769,1,8,0:0:0:0:
180,157,30881,1,8,0:0:0:0:
217,157,30993,1,4,0:0:0:0:
217,157,31441,1,8,0:0:0:0:
149,143,31665,1,8,0:0:0:0:
149,143,31777,1,8,0:0:0:0:
180,129,31889,1,0,0:0:0:0:
180,129,32113,1,8,0:0:0:0:
180,129,32336,1,8,0:0:0:0:
154,134,32448,1,0,0:0:0:0:
154,134,32560,1,8,0:0:0:0:
179,144,32784,1,0,0:0:0:0:
178,144,33008,1,8,0:0:0:0:
177,144,33120,1,8,0:0:0:0:
177,144,33232,1,0,0:0:0:0:
177,144,33288,1,0,0:0:0:0:
177,144,33344,1,0,0:0:0:0:
177,144,33456,1,8,0:0:0:0:
177,144,33680,1,8,0:0:0:0:
179,144,33736,1,8,0:0:0:0:
179,144,33792,1,8,0:0:0:0:
179,144,33904,1,0,0:0:0:0:
178,144,34016,1,8,0:0:0:0:
177,144,34127,1,0,0:0:0:0:
219,181,34575,1,0,0:0:0:0:
213,180,34687,1,8,0:0:0:0:
219,181,34743,1,8,0:0:0:0:
219,181,34799,1,8,0:0:0:0:
219,181,34911,1,8,0:0:0:0:
219,181,35023,1,0,0:0:0:0:
219,174,35247,1,8,0:0:0:0:
222,171,35471,1,0,0:0:0:0:
219,174,35583,1,8,0:0:0:0:
222,171,35695,1,8,0:0:0:0:
222,171,35918,1,0,0:0:0:0:
223,173,36030,1,0,0:0:0:0:
222,171,36142,1,8,0:0:0:0:
219,174,36254,1,8,0:0:0:0:
161,113,36478,1,0,0:0:0:0:
283,166,36590,1,8,0:0:0:0:
283,166,36702,1,0,0:0:0:0:
283,166,36814,1,0,0:0:0:0:
283,166,36870,1,0,0:0:0:0:
283,166,36926,1,0,0:0:0:0:
283,166,37038,1,8,0:0:0:0:
283,166,37262,1,0,0:0:0:0:
283,166,37374,1,0,0:0:0:0:
283,166,37486,1,8,0:0:0:0:
283,166,37598,1,8,0:0:0:0:
283,166,37710,1,0,0:0:0:0:
137,160,37821,1,0,0:0:0:0:
137,160,37933,1,8,0:0:0:0:
137,160,38045,1,8,0:0:0:0:
175,47,38157,1,4,0:0:0:0:
100,97,38605,1,8,0:0:0:0:
100,97,38829,1,0,0:0:0:0:
179,119,38941,1,8,0:0:0:0:
100,97,39053,1,0,0:0:0:0:
100,97,39165,1,8,0:0:0:0:
100,97,39221,1,8,0:0:0:0:
100,97,39277,1,8,0:0:0:0:
100,97,39389,1,0,0:0:0:0:
100,97,39501,1,8,0:0:0:0:
100,97,39724,1,8,0:0:0:0:
100,97,39948,1,8,0:0:0:0:
100,97,40060,1,0,0:0:0:0:
100,97,40116,1,0,0:0:0:0:
100,97,40172,1,0,0:0:0:0:
100,97,40284,1,0,0:0:0:0:
100,97,40396,1,8,0:0:0:0:
148,98,40620,1,8,0:0:0:0:
100,97,40844,1,0,0:0:0:0:
100,97,40956,1,8,0:0:0:0:
100,97,41012,1,8,0:0:0:0:
100,97,41068,1,8,0:0:0:0:
100,97,41180,1,8,0:0:0:0:
100,97,41292,1,0,0:0:0:0:
100,97,41739,1,0,0:0:0:0:
100,97,41851,1,0,0:0:0:0:
100,97,41963,1,0,0:0:0:0:
100,97,42187,1,8,0:0:0:0:
100,97,42299,1,8,0:0:0:0:
100,97,42411,1,8,0:0:0:0:
100,97,42635,1,0,0:0:0:0:
106,175,42747,1,0,0:0:0:0:
100,97,42859,1,8,0:0:0:0:
108,174,42971,1,8,0:0:0:0:
100,97,43083,1,0,0:0:0:0:
100,97,43195,1,0,0:0:0:0:
100,97,43307,1,8,0:0:0:0:
175,48,43530,1,0,0:0:0:0:
100,97,43642,1,8,0:0:0:0:
100,97,43866,1,0,0:0:0:0:
100,97,43978,1,8,0:0:0:0:
137,62,44090,1,8,0:0:0:0:
43,98,44202,1,0,0:0:0:0:
100,97,44426,1,8,0:0:0:0:
100,97,44538,1,8,0:0:0:0:
100,97,44650,1,8,0:0:0:0:
100,97,44762,1,8,0:0:0:0:
127,131,44874,1,0,0:0:0:0:
127,131,44986,1,0,0:0:0:0:
127,131,45098,1,8,0:0:0:0:
214,162,45210,1,8,0:0:0:0:
146,126,45321,1,4,0:0:0:0:
102,189,45769,1,0,0:0:0:0:
102,189,45881,1,0,0:0:0:0:
102,189,45993,1,8,0:0:0:0:
179,114,46105,1,0,0:0:0:0:
179,114,46161,1,0,0:0:0:0:
179,114,46217,1,0,0:0:0:0:
106,165,46441,1,8,0:0:0:0:
106,165,46553,1,8,0:0:0:0:
106,165,46665,1,0,0:0:0:0:
106,165,46889,1,0,0:0:0:0:
155,115,47001,1,8,0:0:0:0:
154,115,47057,1,8,0:0:0:0:
154,115,47113,1,8,0:0:0:0:
106,165,47224,1,0,0:0:0:0:
106,165,47336,1,8,0:0:0:0:
106,165,47448,1,0,0:0:0:0:
106,165,47560,1,0,0:0:0:0:
106,165,47672,1,8,0:0:0:0:
205,166,47896,1,0,0:0:0:0:
106,165,48008,1,8,0:0:0:0:
106,165,48120,1,0,0:0:0:0:
106,165,48344,1,8,0:0:0:0:
106,165,48456,1,0,0:0:0:0:
153,113,48680,1,8,0:0:0:0:
106,165,48904,1,0,0:0:0:0:
108,169,49351,1,8,0:0:0:0:
108,169,49463,1,0,0:0:0:0:
108,169,49575,1,8,0:0:0:0:
207,139,49687,1,0,0:0:0:0:
207,139,49743,1,0,0:0:0:0:
118,137,49799,1,0,0:0:0:0:
141,153,50023,1,8,0:0:0:0:
141,153,50135,1,8,0:0:0:0:
141,153,50247,1,0,0:0:0:0:
194,158,50359,1,0,0:0:0:0:
87,132,50471,1,8,0:0:0:0:
148,153,50695,1,0,0:0:0:0:
87,100,50918,1,8,0:0:0:0:
75,102,51142,1,8,0:0:0:0:
148,153,51254,1,0,0:0:0:0:
87,112,51366,1,8,0:0:0:0:
174,140,51478,1,8,0:0:0:0:
174,140,51534,1,8,0:0:0:0:
148,153,51590,1,8,0:0:0:0:
159,154,51702,1,0,0:0:0:0:
117,93,51926,1,0,0:0:0:0:
159,155,52038,1,8,0:0:0:0:
168,90,52150,1,0,0:0:0:0:
168,90,52262,1,8,0:0:0:0:
143,109,52486,1,4,0:0:0:0:
141,127,52821,1,8,0:0:0:0:
141,127,52933,1,0,0:0:0:0:
206,124,53157,1,8,0:0:0:0:
206,124,53381,1,0,0:0:0:0:
152,159,53437,1,0,0:0:0:0:
206,124,53493,1,0,0:0:0:0:
206,124,53605,1,8,0:0:0:0:
206,124,53717,1,8,0:0:0:0:
206,124,53829,1,0,0:0:0:0:
153,144,54053,1,8,0:0:0:0:
206,124,54277,1,0,0:0:0:0:
206,124,54501,1,8,0:0:0:0:
206,124,54613,1,0,0:0:0:0:
206,124,54724,1,8,0:0:0:0:
206,124,54836,1,8,0:0:0:0:
206,124,54948,1,0,0:0:0:0:
206,124,55172,1,8,0:0:0:0:
206,124,55396,1,8,0:0:0:0:
200,168,55452,1,8,0:0:0:0:
206,124,55508,1,8,0:0:0:0:
155,135,55620,1,0,0:0:0:0:
205,129,55844,1,8,0:0:0:0:
182,150,55956,1,8,0:0:0:0:
182,150,56068,1,0,0:0:0:0:
205,129,56516,1,0,0:0:0:0:
205,129,56739,1,8,0:0:0:0:
205,129,56963,1,0,0:0:0:0:
176,114,57075,1,8,0:0:0:0:
261,136,57187,1,0,0:0:0:0:
167,118,57299,1,8,0:0:0:0:
261,136,57411,1,0,0:0:0:0:
147,125,57467,1,0,0:0:0:0:
261,136,57523,1,0,0:0:0:0:
261,136,57635,1,8,0:0:0:0:
261,136,57859,1,0,0:0:0:0:
261,136,57971,1,0,0:0:0:0:
261,136,58083,1,8,0:0:0:0:
261,136,58195,1,8,0:0:0:0:
261,136,58307,1,0,0:0:0:0:
140,126,58530,1,8,0:0:0:0:
261,136,58754,1,0,0:0:0:0:
114,137,58866,1,8,0:0:0:0:
261,136,58978,1,0,0:0:0:0:
261,136,59090,1,8,0:0:0:0:
261,136,59202,1,0,0:0:0:0:
220,157,59314,1,0,0:0:0:0:
261,136,59426,1,8,0:0:0:0:
140,138,59650,1,0,0:0:0:0:
135,38,59874,1,8,0:0:0:0:
135,38,59986,1,8,0:0:0:0:
236,132,60098,1,0,0:0:0:0:
236,132,60210,1,8,0:0:0:0:
108,220,60266,1,8,0:0:0:0:
109,201,60321,1,8,0:0:0:0:
236,132,60545,1,0,0:0:0:0:
236,132,60657,1,0,0:0:0:0:
236,132,60769,1,8,0:0:0:0:
236,132,60881,1,8,0:0:0:0:
236,132,60993,1,0,0:0:0:0:
236,132,61441,1,0,0:0:0:0:
236,132,61665,1,8,0:0:0:0:
63,153,61777,1,0,0:0:0:0:
54,157,61889,1,8,0:0:0:0:
42,161,62113,1,8,0:0:0:0:
49,159,62336,1,0,0:0:0:0:
230,134,62560,1,8,0:0:0:0:
42,161,62784,1,0,0:0:0:0:
163,135,62896,1,0,0:0:0:0:
163,135,63008,1,8,0:0:0:0:
163,135,63120,1,8,0:0:0:0:
230,134,63232,1,4,0:0:0:0:
281,96,63456,1,8,0:0:0:0:
239,56,63680,1,0,0:0:0:0:
259,56,63792,1,8,0:0:0:0:
162,102,64016,1,0,0:0:0:0:
162,102,64071,1,0,0:0:0:0:
162,102,64127,1,0,0:0:0:0:
127,145,64239,1,8,0:0:0:0:
100,152,64351,1,0,0:0:0:0:
100,153,64463,1,8,0:0:0:0:
219,72,64687,1,8,0:0:0:0:
52,164,64799,1,8,0:0:0:0:
86,159,65023,1,0,0:0:0:0:
54,182,65247,1,8,0:0:0:0:
54,182,65359,1,0,0:0:0:0:
53,182,65471,1,8,0:0:0:0:
54,182,65695,1,0,0:0:0:0:
54,182,65918,1,8,0:0:0:0:
54,182,66030,1,8,0:0:0:0:
54,182,66142,1,0,0:0:0:0:
53,182,66254,1,0,0:0:0:0:
53,182,66366,1,8,0:0:0:0:
49,186,66814,1,0,0:0:0:0:
162,128,67038,1,8,0:0:0:0:
163,128,67262,1,0,0:0:0:0:
155,144,67374,1,8,0:0:0:0:
102,164,67598,1,0,0:0:0:0:
102,164,67654,1,0,0:0:0:0:
182,136,67710,1,0,0:0:0:0:
129,141,67821,1,0,0:0:0:0:
166,155,67933,1,8,0:0:0:0:
116,151,68045,1,0,0:0:0:0:
258,96,68269,1,8,0:0:0:0:
253,100,68325,1,8,0:0:0:0:
249,101,68381,1,8,0:0:0:0:
216,106,68605,1,0,0:0:0:0:
137,217,68829,1,8,0:0:0:0:
137,217,68941,1,0,0:0:0:0:
137,217,69053,1,8,0:0:0:0:
137,217,69277,1,8,0:0:0:0:
137,217,69501,1,0,0:0:0:0:
132,221,69613,1,0,0:0:0:0:
132,221,69724,1,8,0:0:0:0:
132,221,69836,1,0,0:0:0:0:
131,223,69948,1,8,0:0:0:0:
132,221,70396,1,0,0:0:0:0:
100,181,70620,1,8,0:0:0:0:
100,181,70732,1,8,0:0:0:0:
100,181,70844,1,0,0:0:0:0:
159,70,70956,1,0,0:0:0:0:
100,181,71068,1,8,0:0:0:0:
100,181,71292,1,8,0:0:0:0:
100,181,71404,1,0,0:0:0:0:
100,181,71516,1,8,0:0:0:0:
132,67,71627,1,8,0:0:0:0:
100,181,71739,1,0,0:0:0:0:
155,155,71795,1,0,0:0:0:0:
100,181,71851,1,0,0:0:0:0:
100,181,71963,1,8,0:0:0:0:
100,181,72187,1,0,0:0:0:0:
100,181,72411,1,8,0:0:0:0:
100,181,72523,1,0,0:0:0:0:
162,134,72635,1,8,0:0:0:0:
160,134,72747,1,0,0:0:0:0:
100,181,72859,1,8,0:0:0:0:
100,181,73083,1,0,0:0:0:0:
100,181,73195,1,0,0:0:0:0:
100,181,73307,1,8,0:0:0:0:
155,135,73418,1,0,0:0:0:0:
128,142,73474,1,0,0:0:0:0:
145,140,73530,1,0,0:0:0:0:
100,181,73978,1,0,0:0:0:0:
100,181,74090,1,0,0:0:0:0:
100,181,74202,1,8,0:0:0:0:
100,181,74314,1,8,0:0:0:0:
100,181,74426,1,0,0:0:0:0:
120,141,74538,1,0,0:0:0:0:
100,181,74650,1,8,0:0:0:0:
100,181,74874,1,0,0:0:0:0:
119,141,74986,1,0,0:0:0:0:
100,181,75098,1,8,0:0:0:0:
100,181,75210,1,8,0:0:0:0:
100,181,75321,1,0,0:0:0:0:
162,128,75377,1,0,0:0:0:0:
100,181,75433,1,0,0:0:0:0:
100,181,75545,1,8,0:0:0:0:
100,181,75769,1,0,0:0:0:0:
100,181,75993,1,8,0:0:0:0:
188,157,76105,1,8,0:0:0:0:
100,181,76217,1,0,0:0:0:0:
100,181,76441,1,8,0:0:0:0:
100,181,76665,1,8,0:0:0:0:
100,181,76777,1,8,0:0:0:0:
66,225,76889,1,8,0:0:0:0:
66,225,77001,1,8,0:0:0:0:
66,225,77113,1,0,0:0:0:0:
174,158,77224,1,0,0:0:0:0:
180,157,77336,1,8,0:0:0:0:
180,157,77448,1,8,0:0:0:0:
217,157,77560,1,4,0:0:0:0:
