osu file format v14

[General]
AudioFilename: audio.mp3
AudioLeadIn: 0
PreviewTime: 16665
Countdown: 0
SampleSet: Normal
StackLeniency: 0
Mode: 1
LetterboxInBreaks: 0
WidescreenStoryboard: 1

[Editor]
DistanceSpacing: 0.7
BeatDivisor: 4
GridSize: 8
TimelineZoom: 1.1

[Metadata]
Title:Mochio-
TitleUnicode:モチオー
Artist:[Kyoro]
ArtistUnicode:【Kyoro】
Creator:The Law
Version:Kantan
Source:スーパーマリオRPG
Tags:meiqth arcpotato 音MAD oto-mad otomad ニコニコ動画 niconico douga YTPMV Youtube スロウスタート Slow Start 百地たまて Tamate Momochi たまちゃん tamachan 伊藤 彩沙 Itou Ayasa きららファンタジア Kirara Fantasia 芳文社 Houbunsha まんがタイムきらら manga time 対カジオー戦 Fight Against Smithy Kajioh Super Mario Legend of the Seven Stars 下村陽子 Yoko Shimomura 任天堂 nintendo novelty japanese liku the_law
BeatmapID:3632466
BeatmapSetID:1774068

[Difficulty]
HPDrainRate:8
CircleSize:5
OverallDifficulty:4
ApproachRate:5
SliderMultiplier:1.2
SliderTickRate:1

[Events]
//Background and Video events
0,0,"tamachan.jpg",0,10
//Break Periods
//Storyboard Layer 0 (Background)
//Storyboard Layer 1 (Fail)
//Storyboard Layer 2 (Pass)
//Storyboard Layer 3 (Foreground)
//Storyboard Layer 4 (Overlay)
//Storyboard Sound Samples

[TimingPoints]
322,223.880597014925,4,1,0,55,1,0
322,-133.333333333333,4,1,0,55,0,0
5695,223.880597014925,4,1,0,55,1,8
5919,223.880597014925,4,1,0,80,1,0
5919,-117.647058823529,4,1,0,80,0,0
16665,-117.647058823529,4,1,0,80,0,1
30993,-117.647058823529,4,1,0,80,0,0
45321,-117.647058823529,4,1,0,80,0,1
52486,-117.647058823529,4,1,0,80,0,0
63232,-117.647058823529,4,1,0,80,0,1
77560,-117.647058823529,4,1,0,80,0,0

[HitObjects]
256,192,3904,8,0,5695,0:0:0:0:
143,109,5919,5,4,0:0:0:0:
218,122,6590,1,8,0:0:0:0:
206,124,6814,1,0,0:0:0:0:
206,124,7262,1,8,0:0:0:0:
206,124,7710,1,0,0:0:0:0:
206,124,8157,1,0,0:0:0:0:
206,124,8605,1,8,0:0:0:0:
206,124,8941,1,8,0:0:0:0:
176,152,9277,1,8,0:0:0:0:
182,150,9501,1,0,0:0:0:0:
248,144,10172,1,8,0:0:0:0:
205,129,10396,1,0,0:0:0:0:
261,136,10844,1,8,0:0:0:0:
261,136,11292,1,0,0:0:0:0:
261,136,11740,1,0,0:0:0:0:
261,136,12187,1,8,0:0:0:0:
248,144,12635,1,8,0:0:0:0:
160,192,12859,1,8,0:0:0:0:
140,138,13083,1,0,0:0:0:0:
240,144,13754,1,8,0:0:0:0:
236,132,13978,1,0,0:0:0:0:
236,132,14426,1,8,0:0:0:0:
236,132,14874,1,0,0:0:0:0:
54,157,15210,1,8,0:0:0:0:
200,168,15545,1,8,0:0:0:0:
216,160,15769,1,0,0:0:0:0:
216,160,16217,1,8,0:0:0:0:
230,134,16665,1,4,0:0:0:0:
89,55,17336,1,8,0:0:0:0:
86,91,18008,1,8,0:0:0:0:
192,97,18232,1,8,0:0:0:0:
86,159,18456,1,0,0:0:0:0:
53,182,19127,1,8,0:0:0:0:
216,144,19799,1,0,0:0:0:0:
216,144,20023,1,0,0:0:0:0:
49,186,20247,1,8,0:0:0:0:
172,160,20918,1,8,0:0:0:0:
109,58,21590,1,8,0:0:0:0:
240,86,21814,1,0,0:0:0:0:
170,190,22038,1,8,0:0:0:0:
137,217,22710,1,8,0:0:0:0:
208,176,23381,1,0,0:0:0:0:
192,168,23605,1,8,0:0:0:0:
132,221,23829,1,0,0:0:0:0:
154,117,24501,1,8,0:0:0:0:
154,117,24948,1,0,0:0:0:0:
154,117,25172,1,8,0:0:0:0:
184,144,25396,1,0,0:0:0:0:
100,181,25620,1,8,0:0:0:0:
144,152,26292,1,8,0:0:0:0:
192,136,26739,1,0,0:0:0:0:
184,184,26963,1,8,0:0:0:0:
184,184,27187,1,0,0:0:0:0:
100,181,27411,1,8,0:0:0:0:
142,77,28083,1,8,0:0:0:0:
142,77,28531,1,0,0:0:0:0:
100,181,28754,1,8,0:0:0:0:
280,168,28978,1,8,0:0:0:0:
100,181,29202,1,0,0:0:0:0:
192,120,29650,1,0,0:0:0:0:
100,181,30098,1,8,0:0:0:0:
232,192,30321,1,8,0:0:0:0:
232,192,30545,1,8,0:0:0:0:
232,192,30769,1,8,0:0:0:0:
217,157,30993,1,4,0:0:0:0:
180,129,31889,1,0,0:0:0:0:
116,130,32113,1,0,0:0:0:0:
180,129,32337,1,8,0:0:0:0:
116,130,32784,1,8,0:0:0:0:
177,144,33232,1,0,0:0:0:0:
177,144,33680,1,8,0:0:0:0:
219,181,34575,1,0,0:0:0:0:
219,181,35023,1,0,0:0:0:0:
76,140,35471,1,8,0:0:0:0:
157,112,35695,1,0,0:0:0:0:
76,140,35919,1,8,0:0:0:0:
219,174,36366,1,0,0:0:0:0:
283,166,36814,1,0,0:0:0:0:
110,146,37262,1,8,0:0:0:0:
175,47,38157,1,0,0:0:0:0:
98,138,38605,1,0,0:0:0:0:
100,97,39053,1,8,0:0:0:0:
98,138,39277,1,0,0:0:0:0:
100,97,39501,1,8,0:0:0:0:
100,97,39948,1,8,0:0:0:0:
100,97,40396,1,0,0:0:0:0:
100,97,40844,1,8,0:0:0:0:
100,97,41740,1,0,0:0:0:0:
100,97,42187,1,8,0:0:0:0:
91,140,42635,1,8,0:0:0:0:
91,140,42859,1,8,0:0:0:0:
100,97,43083,1,0,0:0:0:0:
85,140,43531,1,8,0:0:0:0:
85,140,43978,1,0,0:0:0:0:
100,96,44426,1,8,0:0:0:0:
100,135,44650,1,8,0:0:0:0:
100,135,44874,1,8,0:0:0:0:
176,144,45098,1,8,0:0:0:0:
146,126,45322,1,4,0:0:0:0:
91,205,46217,1,8,0:0:0:0:
106,165,46665,1,0,0:0:0:0:
184,96,46889,1,0,0:0:0:0:
167,110,47113,1,8,0:0:0:0:
89,126,47560,1,0,0:0:0:0:
106,165,48008,1,8,0:0:0:0:
106,165,48344,1,8,0:0:0:0:
106,165,48904,1,0,0:0:0:0:
124,107,49799,1,8,0:0:0:0:
124,107,50247,1,8,0:0:0:0:
184,112,50471,1,8,0:0:0:0:
148,153,50695,1,0,0:0:0:0:
124,107,51143,1,0,0:0:0:0:
148,153,51590,1,8,0:0:0:0:
159,155,51926,1,8,0:0:0:0:
143,109,52486,1,4,0:0:0:0:
218,122,53157,1,8,0:0:0:0:
206,124,53381,1,0,0:0:0:0:
206,124,53829,1,8,0:0:0:0:
206,124,54277,1,0,0:0:0:0:
206,124,54724,1,0,0:0:0:0:
206,124,55172,1,8,0:0:0:0:
206,124,55508,1,8,0:0:0:0:
191,128,55844,1,8,0:0:0:0:
182,150,56068,1,0,0:0:0:0:
205,129,56963,1,0,0:0:0:0:
261,136,57187,1,0,0:0:0:0:
261,136,57411,1,8,0:0:0:0:
261,136,57859,1,8,0:0:0:0:
261,136,58307,1,0,0:0:0:0:
261,136,58754,1,8,0:0:0:0:
200,192,59202,1,8,0:0:0:0:
200,192,59426,1,8,0:0:0:0:
140,138,59650,1,0,0:0:0:0:
208,184,60321,1,8,0:0:0:0:
236,132,60545,1,0,0:0:0:0:
236,132,60993,1,8,0:0:0:0:
236,132,61441,1,0,0:0:0:0:
54,157,61777,1,8,0:0:0:0:
116,140,62112,1,8,0:0:0:0:
49,159,62336,1,0,0:0:0:0:
280,208,62784,1,8,0:0:0:0:
230,134,63232,1,4,0:0:0:0:
89,55,63903,1,8,0:0:0:0:
86,91,64575,1,8,0:0:0:0:
192,97,64799,1,0,0:0:0:0:
86,159,65023,1,8,0:0:0:0:
53,182,65694,1,8,0:0:0:0:
216,144,66366,1,0,0:0:0:0:
216,144,66590,1,0,0:0:0:0:
49,186,66814,1,8,0:0:0:0:
172,160,67485,1,8,0:0:0:0:
109,58,68157,1,8,0:0:0:0:
240,86,68381,1,8,0:0:0:0:
170,190,68605,1,8,0:0:0:0:
137,217,69277,1,0,0:0:0:0:
208,176,69948,1,0,0:0:0:0:
192,168,70172,1,8,0:0:0:0:
132,221,70396,1,0,0:0:0:0:
154,117,71068,1,8,0:0:0:0:
154,117,71515,1,0,0:0:0:0:
154,117,71739,1,8,0:0:0:0:
184,144,71963,1,8,0:0:0:0:
100,181,72187,1,0,0:0:0:0:
144,152,72859,1,8,0:0:0:0:
192,136,73306,1,0,0:0:0:0:
184,184,73530,1,8,0:0:0:0:
184,184,73754,1,0,0:0:0:0:
100,181,73978,1,8,0:0:0:0:
142,77,74650,1,8,0:0:0:0:
142,77,75098,1,8,0:0:0:0:
100,181,75321,1,8,0:0:0:0:
280,168,75545,1,0,0:0:0:0:
100,181,75769,1,8,0:0:0:0:
248,168,76217,1,0,0:0:0:0:
100,181,76665,1,8,0:0:0:0:
168,48,76889,1,8,0:0:0:0:
93,123,77113,1,8,0:0:0:0:
168,48,77336,1,8,0:0:0:0:
93,123,77560,1,4,0:0:0:0:
