osu file format v14

[General]
AudioFilename: audio.mp3
AudioLeadIn: 0
PreviewTime: 16665
Countdown: 0
SampleSet: Normal
StackLeniency: 0
Mode: 1
LetterboxInBreaks: 0
WidescreenStoryboard: 1

[Editor]
DistanceSpacing: 0.7
BeatDivisor: 4
GridSize: 8
TimelineZoom: 1.9

[Metadata]
Title:Mochio-
TitleUnicode:モチオー
Artist:[Kyoro]
ArtistUnicode:【Kyoro】
Creator:The Law
Version:Futsuu
Source:スーパーマリオRPG
Tags:meiqth arcpotato 音MAD oto-mad otomad ニコニコ動画 niconico douga YTPMV Youtube スロウスタート Slow Start 百地たまて Tamate Momochi たまちゃん tamachan 伊藤 彩沙 Itou Ayasa きららファンタジア Kirara Fantasia 芳文社 Houbunsha まんがタイムきらら manga time 対カジオー戦 Fight Against Smithy Kajioh Super Mario Legend of the Seven Stars 下村陽子 Yoko Shimomura 任天堂 nintendo novelty japanese liku the_law
BeatmapID:3632465
BeatmapSetID:1774068

[Difficulty]
HPDrainRate:7
CircleSize:5
OverallDifficulty:4.5
ApproachRate:5
SliderMultiplier:1.3
SliderTickRate:1

[Events]
//Background and Video events
0,0,"tamachan.jpg",0,10
//Break Periods
//Storyboard Layer 0 (Background)
//Storyboard Layer 1 (Fail)
//Storyboard Layer 2 (Pass)
//Storyboard Layer 3 (Foreground)
//Storyboard Layer 4 (Overlay)
//Storyboard Sound Samples

[TimingPoints]
322,223.880597014925,4,1,0,55,1,0
322,-133.333333333333,4,1,0,55,0,0
5695,223.880597014925,4,1,0,55,1,8
5919,223.880597014925,4,1,0,80,1,0
5919,-111.111111111111,4,1,0,80,0,0
16665,-111.111111111111,4,1,0,80,0,1
30993,-111.111111111111,4,1,0,80,0,0
45321,-111.111111111111,4,1,0,80,0,1
52486,-111.111111111111,4,1,0,80,0,0
63232,-111.111111111111,4,1,0,80,0,1
77560,-111.111111111111,4,1,0,80,0,0

[HitObjects]
256,192,3904,8,0,5695,0:0:0:0:
143,109,5919,5,4,0:0:0:0:
141,127,6254,1,8,0:0:0:0:
141,127,6366,1,0,0:0:0:0:
206,124,6590,1,8,0:0:0:0:
206,124,6814,1,0,0:0:0:0:
208,136,6926,1,0,0:0:0:0:
206,124,7038,1,8,0:0:0:0:
206,124,7262,1,0,0:0:0:0:
206,124,7486,1,8,0:0:0:0:
206,124,7710,1,0,0:0:0:0:
206,124,8157,1,8,0:0:0:0:
206,124,8381,1,0,0:0:0:0:
206,124,8605,1,8,0:0:0:0:
206,124,8829,1,0,0:0:0:0:
206,124,8941,1,8,0:0:0:0:
206,124,9277,1,8,0:0:0:0:
206,124,9389,1,8,0:0:0:0:
182,150,9501,1,0,0:0:0:0:
205,129,9948,1,0,0:0:0:0:
235,239,10060,1,0,0:0:0:0:
235,239,10172,1,8,0:0:0:0:
205,129,10396,1,0,0:0:0:0:
261,136,10620,1,0,0:0:0:0:
261,136,10844,1,8,0:0:0:0:
261,136,11292,1,0,0:0:0:0:
261,136,11516,1,8,0:0:0:0:
261,136,11628,1,8,0:0:0:0:
261,136,11740,1,0,0:0:0:0:
140,126,11963,1,8,0:0:0:0:
261,136,12187,1,0,0:0:0:0:
192,80,12299,1,0,0:0:0:0:
74,164,12411,1,8,0:0:0:0:
261,136,12635,1,0,0:0:0:0:
74,164,12747,1,0,0:0:0:0:
184,160,12859,1,8,0:0:0:0:
140,138,13083,1,0,0:0:0:0:
236,132,13531,1,0,0:0:0:0:
108,220,13754,1,8,0:0:0:0:
200,160,13866,1,8,0:0:0:0:
236,132,13978,1,0,0:0:0:0:
236,132,14202,1,0,0:0:0:0:
236,132,14426,1,8,0:0:0:0:
236,132,14874,1,0,0:0:0:0:
236,132,15098,1,8,0:0:0:0:
63,153,15210,1,0,0:0:0:0:
54,157,15321,1,8,0:0:0:0:
42,161,15545,1,8,0:0:0:0:
49,159,15769,1,0,0:0:0:0:
230,134,15993,1,0,0:0:0:0:
42,161,16217,1,8,0:0:0:0:
230,134,16665,1,4,0:0:0:0:
248,184,16889,1,8,0:0:0:0:
239,56,17113,1,0,0:0:0:0:
259,56,17225,1,8,0:0:0:0:
162,102,17448,1,0,0:0:0:0:
232,184,17672,1,0,0:0:0:0:
52,164,17896,1,8,0:0:0:0:
161,150,18120,1,0,0:0:0:0:
161,150,18232,1,8,0:0:0:0:
86,159,18456,1,0,0:0:0:0:
54,182,18680,1,8,0:0:0:0:
54,182,18792,1,0,0:0:0:0:
53,182,18904,1,8,0:0:0:0:
54,182,19128,1,8,0:0:0:0:
54,182,19351,1,0,0:0:0:0:
54,182,19575,1,0,0:0:0:0:
53,182,19799,1,8,0:0:0:0:
49,186,20247,1,0,0:0:0:0:
162,128,20471,1,8,0:0:0:0:
163,128,20695,1,8,0:0:0:0:
155,144,20807,1,8,0:0:0:0:
102,164,21031,1,0,0:0:0:0:
166,155,21254,1,8,0:0:0:0:
240,86,21478,1,0,0:0:0:0:
258,96,21702,1,8,0:0:0:0:
249,101,21814,1,8,0:0:0:0:
216,106,22038,1,0,0:0:0:0:
137,217,22262,1,8,0:0:0:0:
137,217,22374,1,8,0:0:0:0:
137,217,22486,1,0,0:0:0:0:
137,217,22710,1,8,0:0:0:0:
137,217,22934,1,0,0:0:0:0:
132,221,23157,1,0,0:0:0:0:
131,223,23381,1,8,0:0:0:0:
132,221,23829,1,0,0:0:0:0:
100,181,24053,1,0,0:0:0:0:
192,176,24277,1,8,0:0:0:0:
192,176,24389,1,8,0:0:0:0:
100,181,24501,1,8,0:0:0:0:
100,181,24725,1,0,0:0:0:0:
100,181,24949,1,8,0:0:0:0:
100,181,25060,1,0,0:0:0:0:
100,181,25172,1,8,0:0:0:0:
100,181,25620,1,0,0:0:0:0:
100,181,25844,1,8,0:0:0:0:
100,181,26068,1,0,0:0:0:0:
80,136,26180,1,0,0:0:0:0:
100,181,26292,1,8,0:0:0:0:
100,181,26516,1,0,0:0:0:0:
100,181,26740,1,8,0:0:0:0:
100,181,26851,1,0,0:0:0:0:
96,154,26963,1,8,0:0:0:0:
100,181,27411,1,0,0:0:0:0:
100,181,27635,1,0,0:0:0:0:
100,181,27859,1,8,0:0:0:0:
105,120,27971,1,0,0:0:0:0:
100,181,28083,1,8,0:0:0:0:
100,181,28307,1,0,0:0:0:0:
100,181,28531,1,8,0:0:0:0:
100,181,28643,1,8,0:0:0:0:
100,181,28754,1,8,0:0:0:0:
100,181,29202,1,0,0:0:0:0:
100,181,29426,1,8,0:0:0:0:
100,181,29650,1,0,0:0:0:0:
100,181,29874,1,8,0:0:0:0:
100,181,30098,1,0,0:0:0:0:
224,168,30210,1,0,0:0:0:0:
74,148,30322,1,0,0:0:0:0:
74,148,30545,1,8,0:0:0:0:
207,150,30657,1,8,0:0:0:0:
133,197,30769,1,8,0:0:0:0:
217,157,30993,1,4,0:0:0:0:
217,157,31441,1,0,0:0:0:0:
180,129,31665,1,8,0:0:0:0:
180,129,31777,1,8,0:0:0:0:
180,129,31889,1,0,0:0:0:0:
180,129,32113,1,0,0:0:0:0:
180,129,32337,1,8,0:0:0:0:
154,134,32560,1,8,0:0:0:0:
179,144,32672,1,0,0:0:0:0:
178,144,33008,1,8,0:0:0:0:
177,144,33232,1,0,0:0:0:0:
177,144,33344,1,0,0:0:0:0:
142,56,33456,1,8,0:0:0:0:
216,146,33680,1,8,0:0:0:0:
186,195,33792,1,0,0:0:0:0:
200,144,33904,1,8,0:0:0:0:
142,56,34127,1,0,0:0:0:0:
219,181,34575,1,0,0:0:0:0:
219,181,34799,1,0,0:0:0:0:
219,181,34911,1,8,0:0:0:0:
219,181,35023,1,0,0:0:0:0:
219,174,35247,1,8,0:0:0:0:
222,171,35471,1,0,0:0:0:0:
224,176,35583,1,8,0:0:0:0:
83,174,35918,1,0,0:0:0:0:
192,168,36030,1,8,0:0:0:0:
222,171,36143,1,0,0:0:0:0:
219,174,36254,1,8,0:0:0:0:
248,160,36478,1,0,0:0:0:0:
283,166,36590,1,8,0:0:0:0:
283,166,36814,1,0,0:0:0:0:
283,166,37038,1,8,0:0:0:0:
283,166,37262,1,0,0:0:0:0:
283,166,37374,1,0,0:0:0:0:
283,166,37486,1,0,0:0:0:0:
283,166,37710,1,8,0:0:0:0:
283,166,37821,1,8,0:0:0:0:
248,120,37933,1,8,0:0:0:0:
175,47,38157,1,0,0:0:0:0:
100,97,38605,1,8,0:0:0:0:
100,97,38829,1,0,0:0:0:0:
100,97,39053,1,8,0:0:0:0:
100,97,39277,1,0,0:0:0:0:
100,97,39389,1,0,0:0:0:0:
100,97,39501,1,8,0:0:0:0:
100,97,39724,1,0,0:0:0:0:
100,97,39948,1,8,0:0:0:0:
100,97,40396,1,8,0:0:0:0:
152,73,40620,1,0,0:0:0:0:
152,73,40844,1,8,0:0:0:0:
152,73,40956,1,0,0:0:0:0:
100,97,41068,1,8,0:0:0:0:
100,97,41292,1,0,0:0:0:0:
100,97,41740,1,0,0:0:0:0:
100,97,41963,1,0,0:0:0:0:
100,97,42187,1,8,0:0:0:0:
106,74,42299,1,0,0:0:0:0:
100,97,42411,1,8,0:0:0:0:
100,97,42635,1,0,0:0:0:0:
100,97,42859,1,8,0:0:0:0:
100,97,43083,1,0,0:0:0:0:
175,48,43531,1,0,0:0:0:0:
100,97,43642,1,8,0:0:0:0:
152,136,43866,1,8,0:0:0:0:
100,97,43978,1,0,0:0:0:0:
100,97,44090,1,8,0:0:0:0:
100,97,44314,1,0,0:0:0:0:
100,97,44426,1,8,0:0:0:0:
100,97,44650,1,0,0:0:0:0:
100,97,44874,1,8,0:0:0:0:
160,144,45098,1,8,0:0:0:0:
146,126,45322,1,4,0:0:0:0:
102,189,45769,1,8,0:0:0:0:
102,189,45993,1,0,0:0:0:0:
160,216,46105,1,0,0:0:0:0:
91,205,46217,1,8,0:0:0:0:
106,165,46441,1,8,0:0:0:0:
168,192,46553,1,8,0:0:0:0:
168,192,46665,1,0,0:0:0:0:
106,165,46889,1,8,0:0:0:0:
106,165,47113,1,0,0:0:0:0:
106,165,47560,1,8,0:0:0:0:
186,140,47784,1,0,0:0:0:0:
106,165,48008,1,8,0:0:0:0:
106,165,48120,1,0,0:0:0:0:
106,165,48344,1,8,0:0:0:0:
184,152,48456,1,0,0:0:0:0:
168,144,48680,1,8,0:0:0:0:
106,165,48904,1,0,0:0:0:0:
108,169,49351,1,8,0:0:0:0:
108,169,49575,1,0,0:0:0:0:
176,176,49687,1,0,0:0:0:0:
118,137,49799,1,8,0:0:0:0:
141,153,50023,1,0,0:0:0:0:
141,153,50135,1,0,0:0:0:0:
141,153,50247,1,8,0:0:0:0:
87,132,50471,1,8,0:0:0:0:
148,153,50695,1,0,0:0:0:0:
75,102,51143,1,8,0:0:0:0:
184,168,51366,1,8,0:0:0:0:
148,153,51590,1,0,0:0:0:0:
159,154,51702,1,8,0:0:0:0:
117,93,51926,1,8,0:0:0:0:
159,155,52038,1,0,0:0:0:0:
168,128,52262,1,8,0:0:0:0:
143,109,52486,1,4,0:0:0:0:
141,127,52821,1,8,0:0:0:0:
141,127,52933,1,0,0:0:0:0:
206,124,53157,1,8,0:0:0:0:
206,124,53381,1,0,0:0:0:0:
208,136,53493,1,0,0:0:0:0:
206,124,53605,1,8,0:0:0:0:
206,124,53829,1,0,0:0:0:0:
206,124,54053,1,8,0:0:0:0:
206,124,54277,1,0,0:0:0:0:
206,124,54724,1,8,0:0:0:0:
206,124,54948,1,0,0:0:0:0:
206,124,55172,1,8,0:0:0:0:
206,124,55396,1,0,0:0:0:0:
206,124,55508,1,8,0:0:0:0:
206,124,55844,1,8,0:0:0:0:
206,124,55956,1,8,0:0:0:0:
182,150,56068,1,0,0:0:0:0:
205,129,56515,1,0,0:0:0:0:
235,239,56627,1,0,0:0:0:0:
235,239,56739,1,8,0:0:0:0:
205,129,56963,1,0,0:0:0:0:
261,136,57187,1,0,0:0:0:0:
261,136,57411,1,8,0:0:0:0:
261,136,57859,1,0,0:0:0:0:
261,136,58083,1,8,0:0:0:0:
261,136,58195,1,8,0:0:0:0:
261,136,58307,1,0,0:0:0:0:
140,126,58530,1,8,0:0:0:0:
261,136,58754,1,0,0:0:0:0:
192,80,58866,1,0,0:0:0:0:
74,164,58978,1,8,0:0:0:0:
261,136,59202,1,0,0:0:0:0:
74,164,59314,1,0,0:0:0:0:
184,160,59426,1,8,0:0:0:0:
140,138,59650,1,0,0:0:0:0:
236,132,60098,1,0,0:0:0:0:
108,220,60321,1,8,0:0:0:0:
200,160,60433,1,8,0:0:0:0:
236,132,60545,1,0,0:0:0:0:
236,132,60769,1,0,0:0:0:0:
236,132,60993,1,8,0:0:0:0:
236,132,61441,1,0,0:0:0:0:
236,132,61665,1,8,0:0:0:0:
63,153,61777,1,0,0:0:0:0:
54,157,61888,1,8,0:0:0:0:
42,161,62112,1,8,0:0:0:0:
49,159,62336,1,0,0:0:0:0:
230,134,62560,1,0,0:0:0:0:
42,161,62784,1,8,0:0:0:0:
230,134,63232,1,4,0:0:0:0:
248,184,63456,1,8,0:0:0:0:
239,56,63680,1,0,0:0:0:0:
259,56,63792,1,8,0:0:0:0:
162,102,64015,1,0,0:0:0:0:
232,184,64239,1,0,0:0:0:0:
52,164,64463,1,8,0:0:0:0:
161,150,64687,1,8,0:0:0:0:
161,150,64799,1,8,0:0:0:0:
86,159,65023,1,0,0:0:0:0:
54,182,65247,1,8,0:0:0:0:
54,182,65359,1,0,0:0:0:0:
53,182,65471,1,8,0:0:0:0:
54,182,65695,1,8,0:0:0:0:
54,182,65918,1,0,0:0:0:0:
54,182,66142,1,0,0:0:0:0:
53,182,66366,1,8,0:0:0:0:
49,186,66814,1,0,0:0:0:0:
162,128,67038,1,8,0:0:0:0:
163,128,67262,1,0,0:0:0:0:
155,144,67374,1,8,0:0:0:0:
102,164,67598,1,0,0:0:0:0:
166,155,67821,1,8,0:0:0:0:
240,86,68045,1,8,0:0:0:0:
258,96,68269,1,0,0:0:0:0:
249,101,68381,1,8,0:0:0:0:
216,106,68605,1,0,0:0:0:0:
137,217,68829,1,8,0:0:0:0:
137,217,68941,1,8,0:0:0:0:
137,217,69053,1,0,0:0:0:0:
137,217,69277,1,8,0:0:0:0:
137,217,69501,1,0,0:0:0:0:
132,221,69724,1,0,0:0:0:0:
131,223,69948,1,8,0:0:0:0:
132,221,70396,1,0,0:0:0:0:
100,181,70620,1,0,0:0:0:0:
192,176,70844,1,8,0:0:0:0:
192,176,70956,1,8,0:0:0:0:
100,181,71068,1,8,0:0:0:0:
100,181,71292,1,0,0:0:0:0:
100,181,71516,1,8,0:0:0:0:
100,181,71627,1,0,0:0:0:0:
100,181,71739,1,8,0:0:0:0:
100,181,72187,1,0,0:0:0:0:
100,181,72411,1,8,0:0:0:0:
100,181,72635,1,0,0:0:0:0:
80,136,72747,1,0,0:0:0:0:
100,181,72859,1,8,0:0:0:0:
100,181,73083,1,0,0:0:0:0:
100,181,73307,1,8,0:0:0:0:
100,181,73418,1,0,0:0:0:0:
96,154,73530,1,8,0:0:0:0:
100,181,73978,1,0,0:0:0:0:
100,181,74202,1,0,0:0:0:0:
100,181,74426,1,8,0:0:0:0:
105,120,74538,1,0,0:0:0:0:
100,181,74650,1,8,0:0:0:0:
100,181,74874,1,0,0:0:0:0:
100,181,75098,1,8,0:0:0:0:
100,181,75210,1,8,0:0:0:0:
100,181,75321,1,8,0:0:0:0:
100,181,75769,1,0,0:0:0:0:
100,181,75993,1,8,0:0:0:0:
100,181,76217,1,0,0:0:0:0:
100,181,76441,1,8,0:0:0:0:
100,181,76665,1,0,0:0:0:0:
224,168,76777,1,0,0:0:0:0:
74,148,76889,1,0,0:0:0:0:
74,148,77112,1,8,0:0:0:0:
207,150,77224,1,8,0:0:0:0:
133,197,77336,1,8,0:0:0:0:
240,160,77560,1,4,0:0:0:0:
