osu file format v14

[General]
AudioFilename: audio.mp3
AudioLeadIn: 0
PreviewTime: 16161
Countdown: 0
SampleSet: Soft
StackLeniency: 0.7
Mode: 2
LetterboxInBreaks: 0
WidescreenStoryboard: 1

[Editor]
Bookmarks: 5919,16665,23829,30993,45322,52486,63232,70396,77560
DistanceSpacing: 1
BeatDivisor: 4
GridSize: 8
TimelineZoom: 2.1

[Metadata]
Title:Mochio-
TitleUnicode:モチオー
Artist:[Kyoro]
ArtistUnicode:【Kyoro】
Creator:Spectator
Version:Xinnoh's Overdose
Source:スーパーマリオRPG
Tags:sinnoh xinnoh lacrima myle mochi_- mochi kukkai japanese novelty super mario legend of the seven stars 音mad oto-mad otomad ニコニコ動画 niconico douga ytpmv youtube スロウスタート slow start 百地たまて tamate momochi たまちゃん tamachan 伊藤 彩沙 itou ayasa きららファンタジア kirara fantasia 芳文社 houbunsha まんがタイムきらら manga time 対カジオー戦 fight against smithy kajioh 下村陽子 yoko shimomura 任天堂 nintendo
BeatmapID:4444174
BeatmapSetID:1939725

[Difficulty]
HPDrainRate:5
CircleSize:4
OverallDifficulty:9.6
ApproachRate:9.6
SliderMultiplier:2
SliderTickRate:2

[Events]
//Background and Video events
0,0,"tamachan.png",0,0
Video,0,"video.mp4"
//Break Periods
//Storyboard Layer 0 (Background)
//Storyboard Layer 1 (Fail)
//Storyboard Layer 2 (Pass)
//Storyboard Layer 3 (Foreground)
//Storyboard Layer 4 (Overlay)
//Storyboard Sound Samples

[TimingPoints]
546,223.880597014925,4,2,1,70,1,0
30993,-100,4,2,1,60,0,0
45322,-100,4,2,1,70,0,0

[Colours]
Combo1 : 196,107,224
Combo2 : 101,143,241
Combo3 : 121,242,197

[HitObjects]
407,285,5919,6,0,P|463:235|359:186,1,200,4|8,1:2|1:2,0:0:0:0:
152,160,6254,2,0,L|346:81,1,200,0|4,1:3|1:3,0:0:0:0:
141,316,6590,2,0,L|131:203,1,100,8|0,1:2|0:0,0:0:0:0:
346,61,6814,2,0,L|458:81,1,100,0|0,1:2|0:0,0:0:0:0:
233,278,7039,1,8,1:2:0:0:
449,185,7150,1,0,1:3:0:0:
228,229,7262,1,0,0:0:0:0:
449,109,7374,1,4,1:3:0:0:
224,170,7486,2,0,L|101:150,1,100,8|0,1:2|0:0,0:0:0:0:
367,357,7710,5,0,1:2:0:0:
425,281,7821,1,0,0:0:0:0:
394,190,7933,1,8,1:2:0:0:
301,167,8045,1,4,1:3:0:0:
108,294,8157,2,0,L|226:253,1,100,0|0,0:0|1:3,0:0:0:0:
21,146,8381,2,0,L|157:113,1,100,8|0,1:2|0:0,0:0:0:0:
361,300,8605,6,0,L|243:259,1,100,2|0,1:3|0:0,0:0:0:0:
448,152,8829,2,0,L|312:119,1,100,10|4,1:2|1:3,0:0:0:0:
111,315,9053,2,0,L|125:180,1,100,8|0,0:2|1:3,0:0:0:0:
348,190,9277,1,10,1:2:0:0:
124,148,9389,1,8,1:2:0:0:
429,281,9501,6,0,P|434:225|318:140,1,200,4|8,1:2|1:2,0:0:0:0:
218,155,9838,1,4,1:3:0:0:
431,107,9948,2,0,L|301:81,1,100,0|0,0:0|1:3,0:0:0:0:
121,86,10172,2,0,L|-21:61,1,100,8|0,1:2|0:0,0:0:0:0:
233,263,10396,6,0,L|361:233,1,100,0|0,1:2|0:0,0:0:0:0:
112,150,10620,2,0,L|237:121,1,100,8|4,1:2|1:3,0:0:0:0:
315,105,10844,1,0,0:0:0:0:
208,68,10956,1,0,0:0:0:0:
450,284,11068,2,0,L|452:162,1,100,8|0,1:2|0:0,0:0:0:0:
196,193,11292,5,0,1:2:0:0:
434,69,11404,1,0,0:0:0:0:
197,249,11516,2,0,L|61:209,1,100,8|4,1:2|1:3,0:0:0:0:
372,223,11740,2,0,L|383:82,1,100,0|0,0:0|1:3,0:0:0:0:
159,73,11963,1,8,1:2:0:0:
386,35,12075,1,0,0:0:0:0:
147,253,12187,6,0,L|17:208,1,100,4|0,1:3|0:0,0:0:0:0:
272,153,12411,2,0,L|150:121,1,100,8|4,1:2|1:3,0:0:0:0:
378,272,12635,2,0,L|393:128,1,100,8|0,1:2|1:3,0:0:0:0:
184,204,12859,1,8,1:2:0:0:
384,124,12970,1,8,1:2:0:0:
153,334,13083,6,0,P|78:281|165:200,1,200,4|8,1:2|1:2,0:0:0:0:
222,193,13420,1,4,1:3:0:0:
451,116,13532,2,0,L|346:88,1,100,2|0,0:3|1:3,0:0:0:0:
123,133,13754,2,0,L|228:105,1,100,8|0,1:2|0:0,0:0:0:0:
470,289,13978,6,0,L|478:154,1,100,0|2,1:2|0:3,0:0:0:0:
348,213,14202,2,0,L|333:67,1,100,8|4,1:2|1:3,0:0:0:0:
137,97,14426,1,2,0:3:0:0:
331,37,14537,1,2,1:3:0:0:
137,97,14650,1,8,1:2:0:0:
331,37,14761,1,2,0:3:0:0:
143,278,14874,6,0,L|18:255,1,100,4|2,1:2|0:3,0:0:0:0:
267,132,15098,2,0,L|364:105,1,100,8|4,1:2|1:3,0:0:0:0:
132,171,15322,2,0,L|260:126,1,100,2|0,0:3|1:3,0:0:0:0:
462,196,15545,2,0,L|352:164,1,100,8|0,1:2|0:0,0:0:0:0:
102,308,15769,6,0,L|86:182,1,100,8|0,1:2|0:0,0:0:0:0:
371,254,15993,2,0,L|387:128,1,100,8|4,1:2|1:3,0:0:0:0:
99,132,16217,1,8,1:2:0:0:
361,102,16329,1,8,1:2:0:0:
99,132,16441,1,8,1:2:0:0:
361,102,16553,1,8,1:2:0:0:
76,313,16665,6,0,P|15:262|99:197,1,200,4|8,1:2|1:2,0:0:0:0:
186,196,17001,1,2,1:3:0:0:
436,218,17112,1,0,2:3:0:0:
192,286,17225,2,0,L|179:161,1,100,2|8,1:3|1:2,0:0:0:0:
295,161,17448,6,0,L|305:21,1,100,0|0,0:0|1:0,0:0:0:0:
173,162,17671,1,0,0:0:0:0:
288,215,17784,1,8,1:2:0:0:
78,247,17897,1,2,1:3:0:0:
287,268,18008,2,0,L|393:232,1,100,0|2,0:0|1:3,0:0:0:0:
184,174,18232,2,0,L|76:146,1,100,8|0,1:2|0:0,0:0:0:0:
318,337,18456,6,0,P|375:271|282:212,1,200,0|8,1:0|1:2,0:0:0:0:
210,134,18791,1,2,1:3:0:0:
421,296,18904,2,0,L|441:167,1,100,0|0,1:0|0:0,0:0:0:0:
318,193,19128,2,0,L|304:60,1,100,8|0,1:2|1:0,0:0:0:0:
51,217,19351,6,0,L|153:189,1,100,0|0,1:0|0:0,0:0:0:0:
248,122,19575,2,0,L|133:107,1,100,8|0,1:2|0:0,0:0:0:0:
365,358,19799,2,0,P|386:259|279:221,1,200,0|8,1:0|1:2,0:0:0:0:
184,226,20135,1,0,1:0:0:0:
422,122,20247,6,0,L|307:93,1,100,4|0,1:2|0:0,0:0:0:0:
113,317,20471,2,0,L|126:190,1,100,8|2,1:2|1:3,0:0:0:0:
245,185,20695,1,0,2:3:0:0:
58,126,20807,1,2,1:3:0:0:
243,125,20919,2,0,L|356:90,1,100,8|0,1:2|0:0,0:0:0:0:
234,259,21143,6,0,L|111:219,1,100,0|0,1:0|0:0,0:0:0:0:
259,179,21366,1,8,1:2:0:0:
475,157,21478,1,2,1:3:0:0:
250,274,21590,2,0,L|232:175,1,100,0|2,0:0|1:3,0:0:0:0:
451,273,21814,2,0,L|436:168,1,100,8|0,1:2|0:0,0:0:0:0:
191,327,22038,5,0,1:0:0:0:
105,285,22149,1,0,0:0:0:0:
100,189,22261,1,8,1:2:0:0:
180,138,22373,1,0,1:3:0:0:
407,287,22486,2,0,L|415:176,1,100,0|0,1:0|0:0,0:0:0:0:
193,266,22710,2,0,L|177:154,1,100,8|0,1:2|1:0,0:0:0:0:
414,108,22934,5,0,1:0:0:0:
174,90,23045,1,0,0:0:0:0:
414,108,23157,1,8,1:2:0:0:
174,90,23268,1,0,0:0:0:0:
414,291,23381,2,0,L|421:156,1,100,2|0,1:3|1:3,0:0:0:0:
174,240,23605,2,0,L|70:201,1,100,8|4,1:2|1:3,0:0:0:0:
303,234,23829,6,0,L|500:164,1,200,4|8,1:2|1:2,0:0:0:0:
389,119,24165,1,4,0:3:0:0:
170,326,24277,2,0,L|154:214,1,100,4|0,1:3|2:3,0:0:0:0:
384,209,24501,2,0,L|248:176,1,100,8|0,1:2|0:0,0:0:0:0:
56,175,24725,6,0,L|176:142,1,100,0|0,1:0|0:0,0:0:0:0:
256,287,24948,2,0,L|264:150,1,100,8|0,1:2|0:0,0:0:0:0:
44,122,25172,2,0,L|157:90,1,100,2|2,1:3|0:3,0:0:0:0:
377,86,25396,2,0,L|490:45,1,100,10|2,1:3|0:3,0:0:0:0:
240,353,25620,5,4,1:3:0:0:
152,313,25731,1,0,0:0:0:0:
142,218,25843,1,8,1:2:0:0:
218,161,25955,1,4,0:3:0:0:
436,163,26068,1,4,1:3:0:0:
228,98,26180,1,0,2:3:0:0:
436,163,26292,1,8,1:2:0:0:
228,98,26404,1,0,0:0:0:0:
436,300,26516,6,0,L|447:166,1,100,0|0,1:0|0:0,0:0:0:0:
212,281,26740,2,0,L|203:162,1,100,8|0,1:2|0:0,0:0:0:0:
453,140,26964,2,0,L|338:116,1,100,2|2,1:3|0:3,0:0:0:0:
153,154,27187,2,0,L|23:132,1,100,10|2,1:3|0:3,0:0:0:0:
279,362,27411,5,4,1:2:0:0:
327,278,27522,1,0,0:0:0:0:
290,189,27634,1,8,1:2:0:0:
197,163,27746,1,4,0:3:0:0:
414,238,27859,1,4,1:3:0:0:
201,238,27971,1,0,2:3:0:0:
427,205,28083,2,0,L|445:91,1,100,8|0,1:2|0:0,0:0:0:0:
235,276,28307,6,0,L|113:249,1,100,0|0,1:0|0:0,0:0:0:0:
349,140,28531,2,0,L|210:114,1,100,8|0,1:2|0:0,0:0:0:0:
37,263,28754,2,0,L|50:153,1,100,2|2,1:3|0:3,0:0:0:0:
261,249,28978,2,0,L|373:224,1,100,10|2,1:3|0:3,0:0:0:0:
97,311,29202,6,0,L|88:188,1,100,0|0,1:0|0:0,0:0:0:0:
451,128,29426,2,0,L|328:106,1,100,8|0,1:2|0:0,0:0:0:0:
234,256,29650,2,0,L|237:124,1,100,4|4,1:3|0:3,0:0:0:0:
350,157,29874,2,0,L|466:185,1,100,8|0,1:2|0:0,0:0:0:0:
250,304,30098,5,0,1:3:0:0:
53,237,30211,1,0,1:3:0:0:
262,304,30322,1,0,1:3:0:0:
459,237,30435,1,0,1:3:0:0:
250,304,30545,1,8,1:2:0:0:
53,237,30658,1,8,1:2:0:0:
262,304,30769,1,8,1:2:0:0:
459,237,30882,1,8,1:2:0:0:
166,295,30993,6,0,P|118:258|212:176,1,200,4|8,1:2|0:0,0:0:0:0:
285,192,31329,2,0,P|329:145|227:73,1,200
152,246,31665,2,0,L|132:130,1,100,8|8,0:0|0:0,0:0:0:0:
450,296,31889,6,0,L|467:173,1,100,4|0,1:3|0:0,0:0:0:0:
261,215,32113,2,0,L|263:81,1,100,8|0,0:0|1:0,0:0:0:0:
62,296,32337,2,0,L|45:173,1,100,0|0,1:0|0:0,0:0:0:0:
251,215,32560,1,8,2:2:0:0:
48,196,32672,1,10,2:3:0:0:
166,240,32784,6,0,P|224:188|153:104,1,200,4|8,1:3|0:0,0:0:0:0:
59,109,33120,1,0,0:0:0:0:
274,320,33232,1,2,1:3:0:0:
347,259,33343,1,0,0:0:0:0:
334,164,33455,1,10,1:3:0:0:
246,127,33567,1,8,0:0:0:0:
142,298,33680,6,0,L|130:188,1,100,4|2,1:3|1:3,0:0:0:0:
252,205,33904,2,0,L|267:89,1,100,8|0,0:0|0:0,0:0:0:0:
48,88,34128,2,0,L|161:69,1,100,4|0,1:3|1:0,0:0:0:0:
322,51,34351,1,8,0:0:0:0:
150,232,34464,1,10,0:3:0:0:
381,326,34575,6,0,P|436:272|349:198,1,200,4|8,1:3|0:0,0:0:0:0:
267,192,34911,1,0,0:0:0:0:
378,232,35024,2,0,L|385:118,1,100,4|4,1:3|0:3,0:0:0:0:
151,312,35247,2,0,L|139:200,1,100,8|8,0:0|0:0,0:0:0:0:
379,302,35471,5,4,1:3:0:0:
427,219,35582,1,0,1:3:0:0:
362,165,35694,1,8,0:0:0:0:
268,179,35808,2,0,L|256:48,1,100,0|0,1:0|1:3,0:0:0:0:
474,131,36031,2,0,L|357:111,1,100,0|8,0:0|0:0,0:0:0:0:
130,233,36254,6,0,P|111:176|229:97,1,200,10|0,0:3|0:0,0:0:0:0:
319,183,36589,1,8,0:0:0:0:
212,221,36702,1,4,1:3:0:0:
316,285,36814,2,0,L|327:165,1,100,0|2,1:0|0:3,0:0:0:0:
120,268,37038,2,0,L|105:150,1,100,8|2,0:0|0:3,0:0:0:0:
327,117,37262,5,4,1:3:0:0:
108,95,37374,1,0,1:0:0:0:
326,270,37486,2,0,L|334:150,1,100,8|0,1:2|1:0,0:0:0:0:
112,155,37710,5,8,1:2:0:0:
331,133,37822,1,0,1:0:0:0:
112,155,37934,1,8,1:2:0:0:
331,133,38046,1,8,1:2:0:0:
88,299,38157,5,4,1:2:0:0:
24,225,38268,1,0,0:0:0:0:
43,131,38380,1,8,0:0:0:0:
130,88,38492,1,0,1:0:0:0:
357,291,38605,2,0,L|344:144,1,100,4|0,1:3|0:0,0:0:0:0:
141,197,38829,2,0,L|249:161,1,100,8|8,0:0|0:0,0:0:0:0:
20,154,39053,6,0,L|154:110,1,100,4|0,1:3|0:0,0:0:0:0:
325,292,39277,2,0,L|320:165,1,100,8|0,0:0|0:0,0:0:0:0:
120,187,39501,2,0,P|15:227|-13:237,1,100,2|0,1:3|0:0,0:0:0:0:
284,179,39725,2,0,L|382:193,1,100,8|10,0:0|1:3,0:0:0:0:
141,260,39948,6,0,P|109:204|224:150,1,200,4|8,1:3|0:0,0:0:0:0:
299,162,40283,1,0,0:0:0:0:
201,214,40396,1,0,1:0:0:0:
299,251,40508,1,0,1:0:0:0:
58,193,40620,5,8,0:0:0:0:
300,147,40732,1,10,1:3:0:0:
60,255,40845,1,4,1:3:0:0:
297,236,40956,1,2,1:3:0:0:
61,242,41068,2,0,L|57:125,1,100,8|0,1:2|0:0,0:0:0:0:
289,171,41292,2,0,L|412:128,1,100,4|0,1:3|0:0,0:0:0:0:
116,115,41516,2,0,L|239:74,1,100,8|8,0:0|0:0,0:0:0:0:
427,319,41740,5,4,1:3:0:0:
453,225,41851,1,0,0:0:0:0:
400,144,41963,1,8,0:0:0:0:
304,130,42075,1,0,0:0:0:0:
198,269,42187,2,0,L|185:146,1,100,2|4,3:3|0:3,0:0:0:0:
407,216,42411,2,0,L|426:103,1,100,8|8,0:0|0:0,0:0:0:0:
142,89,42635,6,0,L|267:63,1,100,2|4,1:3|3:3,0:0:0:0:
34,259,42859,2,0,L|168:223,1,100,8|2,1:2|3:3,0:0:0:0:
333,292,43083,2,0,L|341:183,1,100,4|0,1:3|0:0,0:0:0:0:
215,188,43307,2,0,L|201:83,1,100,8|8,1:2|0:0,0:0:0:0:
409,299,43531,5,4,1:3:0:0:
456,215,43642,1,0,0:0:0:0:
418,126,43754,1,8,0:0:0:0:
325,103,43866,1,4,0:3:0:0:
99,286,43978,2,0,L|82:162,1,100,4|2,1:3|0:3,0:0:0:0:
313,248,44202,2,0,L|317:133,1,100,8|12,0:0|1:3,0:0:0:0:
71,122,44426,5,8,1:2:0:0:
318,70,44538,1,0,0:0:0:0:
71,122,44650,1,8,1:2:0:0:
318,70,44762,1,0,0:0:0:0:
70,287,44874,2,0,L|61:162,1,100,8|8,1:2|1:2,0:0:0:0:
324,199,45098,2,0,L|448:141,1,100,8|8,1:2|1:2,0:0:0:0:
167,315,45322,6,0,L|175:206,1,100,4|2,1:2|0:2,0:0:0:0:
297,228,45545,2,0,L|313:117,1,100,10|2,1:3|0:2,0:0:0:0:
51,130,45769,2,0,L|157:96,1,100,4|2,1:3|0:2,0:0:0:0:
270,91,45993,2,0,L|155:63,1,100,10|2,1:3|0:2,0:0:0:0:
387,298,46217,6,0,L|376:187,1,100,4|2,1:3|0:0,0:0:0:0:
265,199,46441,2,0,L|147:173,1,100,10|2,1:3|0:0,0:0:0:0:
383,136,46665,2,0,L|483:109,1,100,4|2,1:3|0:0,0:0:0:0:
232,291,46889,2,0,L|345:261,1,100,10|4,1:3|1:3,0:0:0:0:
125,303,47113,5,4,1:3:0:0:
60,232,47224,1,0,0:0:0:0:
86,139,47336,1,8,1:2:0:0:
177,112,47448,1,0,0:0:0:0:
293,129,47560,1,4,3:0:0:0:
114,300,47672,2,0,L|120:182,1,100,0|8,0:0|1:2,0:0:0:0:
222,187,47896,1,0,0:0:0:0:
22,230,48008,6,0,P|124:211|135:206,1,100,8|4,1:2|1:3,0:0:0:0:
318,147,48232,2,0,L|429:110,1,100,0|8,0:0|1:2,0:0:0:0:
202,127,48456,2,0,L|79:95,1,100,4|0,1:3|0:0,0:0:0:0:
318,231,48680,2,0,L|190:202,1,100,4|2,1:2|0:0,0:0:0:0:
439,345,48904,6,0,L|423:217,1,100,4|2,1:2|0:2,0:0:0:0:
312,256,49129,2,0,L|289:125,1,100,10|2,1:3|0:2,0:0:0:0:
479,224,49351,2,0,L|359:189,1,100,4|2,1:3|0:2,0:0:0:0:
253,247,49575,2,0,L|132:213,1,100,10|2,1:3|0:2,0:0:0:0:
369,345,49799,6,0,P|415:295|305:226,1,200,4|10,1:3|1:3,0:0:0:0:
235,221,50135,1,2,0:0:0:0:
410,97,50247,2,0,L|289:65,1,100,4|2,1:3|0:0,0:0:0:0:
93,160,50472,2,0,L|214:128,1,100,10|4,1:3|1:3,0:0:0:0:
413,336,50695,6,0,L|408:224,1,100,4|0,1:3|0:0,0:0:0:0:
215,335,50919,1,8,1:2:0:0:
169,250,51030,1,0,1:0:0:0:
217,167,51142,1,4,1:3:0:0:
313,165,51254,1,2,0:0:0:0:
130,147,51366,2,0,L|10:93,1,100,8|2,1:2|0:0,0:0:0:0:
249,247,51590,6,0,L|349:205,1,100,8|2,1:2|0:0,0:0:0:0:
228,167,51814,2,0,L|99:113,1,100,8|4,1:2|3:3,0:0:0:0:
416,199,52038,2,0,L|299:161,1,100,8|0,1:2|3:3,0:0:0:0:
86,280,52263,2,0,L|73:164,1,100,12|0,1:3|0:0,0:0:0:0:
331,286,52486,6,0,P|372:238|268:159,1,200,4|8,1:2|1:2,0:0:0:0:
79,257,52822,2,0,P|33:201|132:143,1,200,0|4,1:3|1:3,0:0:0:0:
323,245,53157,2,0,L|329:140,1,100,8|0,1:2|0:0,0:0:0:0:
136,196,53381,6,0,L|14:157,1,100,0|0,1:2|0:0,0:0:0:0:
279,278,53605,1,8,1:2:0:0:
63,185,53716,1,0,1:3:0:0:
284,229,53828,1,0,0:0:0:0:
63,109,53940,1,4,1:3:0:0:
272,127,54053,2,0,L|378:85,1,100,8|0,1:2|0:0,0:0:0:0:
147,340,54277,5,0,1:2:0:0:
63,293,54388,1,0,0:0:0:0:
61,197,54500,1,8,1:2:0:0:
143,147,54612,1,4,1:3:0:0:
360,282,54725,2,0,L|235:253,1,100,0|0,0:0|1:3,0:0:0:0:
477,146,54948,2,0,L|378:128,1,100,8|0,1:2|0:0,0:0:0:0:
152,282,55172,6,0,L|277:253,1,100,2|0,1:3|0:0,0:0:0:0:
35,146,55395,2,0,L|134:128,1,100,10|4,1:2|1:3,0:0:0:0:
347,298,55620,2,0,L|357:173,1,100,8|0,0:2|1:3,0:0:0:0:
150,167,55844,1,10,1:2:0:0:
359,100,55956,1,8,1:2:0:0:
133,270,56068,6,0,P|70:220|164:158,1,200,4|8,1:2|1:2,0:0:0:0:
240,161,56405,1,4,1:3:0:0:
35,141,56516,2,0,L|140:113,1,100,0|0,0:0|1:3,0:0:0:0:
310,117,56740,2,0,L|435:76,1,100,8|0,1:2|0:0,0:0:0:0:
197,294,56963,6,0,L|70:260,1,100,0|0,1:2|0:0,0:0:0:0:
330,161,57187,2,0,L|216:135,1,100,8|4,1:2|1:3,0:0:0:0:
125,106,57411,1,0,0:0:0:0:
228,64,57523,1,0,1:3:0:0:
34,338,57635,2,0,L|43:216,1,100,8|0,1:2|0:0,0:0:0:0:
275,304,57859,5,0,1:2:0:0:
59,190,57970,1,0,0:0:0:0:
264,216,58083,2,0,L|401:171,1,100,8|4,1:2|1:3,0:0:0:0:
142,269,58308,2,0,L|132:148,1,100,0|0,0:0|1:3,0:0:0:0:
354,86,58531,1,8,1:2:0:0:
137,67,58643,1,0,0:0:0:0:
385,274,58754,6,0,L|506:230,1,100,4|0,1:3|0:0,0:0:0:0:
231,203,58979,2,0,L|351:167,1,100,8|4,1:2|1:3,0:0:0:0:
89,300,59202,2,0,L|76:179,1,100,8|0,1:2|1:3,0:0:0:0:
292,243,59427,1,8,1:2:0:0:
77,104,59539,1,0,0:0:0:0:
315,304,59651,6,0,P|374:256|290:183,1,200,4|8,1:2|1:2,0:0:0:0:
198,200,59986,1,4,1:3:0:0:
419,307,60098,2,0,L|410:183,1,100,2|0,0:3|1:3,0:0:0:0:
204,290,60322,2,0,L|106:257,1,100,8|0,1:2|0:0,0:0:0:0:
353,239,60545,6,0,L|370:112,1,100,0|2,1:2|0:3,0:0:0:0:
242,160,60769,2,0,L|230:39,1,100,8|4,1:2|1:3,0:0:0:0:
423,227,60993,1,2,0:3:0:0:
212,205,61104,1,2,1:3:0:0:
423,227,61217,1,8,1:2:0:0:
212,205,61328,1,2,0:3:0:0:
425,324,61441,6,0,P|464:264|361:212,1,200,4|8,1:2|1:2,0:0:0:0:
261,182,61777,1,4,1:3:0:0:
73,324,61889,2,0,L|54:204,1,100,2|0,0:3|1:3,0:0:0:0:
252,285,62113,2,0,L|269:166,1,100,8|0,1:2|0:0,0:0:0:0:
46,134,62337,6,0,L|166:95,1,100,8|0,1:2|0:0,0:0:0:0:
339,117,62560,2,0,L|434:147,1,100,8|4,1:2|1:3,0:0:0:0:
129,247,62784,1,8,1:2:0:0:
391,217,62896,1,8,1:2:0:0:
129,247,63008,1,8,1:2:0:0:
391,217,63120,1,8,1:2:0:0:
112,291,63232,6,0,P|84:238|180:153,1,200,4|8,1:2|1:2,0:0:0:0:
276,144,63568,1,2,1:3:0:0:
78,80,63680,1,0,2:3:0:0:
276,282,63792,2,0,L|293:135,1,100,2|8,1:3|1:2,0:0:0:0:
183,157,64016,6,0,L|87:123,1,100,0|0,0:0|1:0,0:0:0:0:
196,76,64240,1,0,0:0:0:0:
91,74,64351,1,8,1:2:0:0:
311,240,64463,2,0,L|441:182,1,100,2|0,1:3|0:0,0:0:0:0:
187,260,64688,1,2,1:3:0:0:
393,304,64798,2,0,L|381:164,1,100,8|0,1:2|0:0,0:0:0:0:
173,307,65023,6,0,P|95:254|138:157,1,200,0|8,1:0|1:2,0:0:0:0:
198,97,65358,1,2,1:3:0:0:
400,156,65471,2,0,L|519:127,1,100,0|0,1:0|0:0,0:0:0:0:
388,119,65695,2,0,L|252:91,1,100,8|0,1:2|1:0,0:0:0:0:
55,262,65919,6,0,L|191:220,1,100,0|0,1:0|0:0,0:0:0:0:
54,178,66143,2,0,L|64:68,1,100,8|0,1:2|0:0,0:0:0:0:
315,268,66366,2,0,P|368:192|280:143,1,200,0|8,1:0|1:2,0:0:0:0:
198,117,66703,1,0,1:0:0:0:
407,288,66814,6,0,L|395:162,1,100,4|0,1:2|0:0,0:0:0:0:
184,231,67038,2,0,L|67:191,1,100,8|2,1:2|1:3,0:0:0:0:
196,170,67262,1,0,2:3:0:0:
392,124,67374,1,2,1:3:0:0:
201,108,67486,2,0,L|76:73,1,100,8|0,1:2|0:0,0:0:0:0:
336,262,67710,6,0,L|437:235,1,100,0|0,1:0|0:0,0:0:0:0:
312,186,67934,1,8,1:2:0:0:
119,147,68045,1,2,1:3:0:0:
312,131,68157,2,0,L|438:94,1,100,0|2,0:0|1:3,0:0:0:0:
196,327,68381,2,0,L|184:197,1,100,8|0,1:2|0:0,0:0:0:0:
415,283,68605,5,0,1:0:0:0:
448,192,68716,1,0,0:0:0:0:
397,110,68828,1,8,1:2:0:0:
301,100,68940,1,0,1:3:0:0:
97,297,69054,2,0,L|89:175|89:175,1,100,0|0,1:0|0:0,0:0:0:0:
299,258,69277,2,0,L|306:116,1,100,8|0,1:2|1:0,0:0:0:0:
86,118,69501,5,0,1:0:0:0:
297,68,69613,1,0,0:0:0:0:
86,118,69725,1,8,1:2:0:0:
297,68,69837,1,0,0:0:0:0:
80,273,69948,2,0,L|64:149,1,100,2|0,1:3|1:3,0:0:0:0:
302,160,70172,2,0,L|430:118,1,100,8|4,1:2|1:3,0:0:0:0:
167,329,70396,6,0,P|100:285|163:182,1,200,4|8,1:2|1:2,0:0:0:0:
256,171,70732,1,4,0:3:0:0:
65,298,70844,2,0,L|51:165,1,100,4|0,1:3|2:3,0:0:0:0:
253,96,71067,2,0,L|390:62,1,100,8|0,1:2|0:0,0:0:0:0:
118,241,71292,6,0,L|227:207,1,100,0|0,1:0|0:0,0:0:0:0:
413,235,71516,2,0,L|425:106,1,100,8|0,1:2|0:0,0:0:0:0:
217,122,71740,2,0,L|99:152,1,100,2|2,1:3|0:3,0:0:0:0:
342,273,71964,2,0,L|334:144,1,100,10|2,1:3|0:3,0:0:0:0:
116,344,72188,5,4,1:2:0:0:
37,288,72299,1,0,0:0:0:0:
34,192,72411,1,8,1:2:0:0:
110,132,72523,1,4,0:3:0:0:
336,120,72635,1,4,1:3:0:0:
128,55,72747,1,0,2:3:0:0:
336,120,72859,1,8,1:2:0:0:
128,55,72971,1,0,0:0:0:0:
341,303,73083,6,0,L|331:172,1,100,0|0,1:0|0:0,0:0:0:0:
124,262,73307,2,0,L|114:146,1,100,8|0,1:2|0:0,0:0:0:0:
318,122,73531,2,0,L|428:98,1,100,2|2,1:3|0:3,0:0:0:0:
184,113,73754,2,0,L|321:79,1,100,10|2,1:3|0:3,0:0:0:0:
88,329,73978,5,4,1:2:0:0:
41,244,74089,1,0,0:0:0:0:
78,154,74201,1,8,1:2:0:0:
171,126,74313,1,4,0:3:0:0:
415,215,74426,1,4,1:3:0:0:
178,127,74538,1,0,2:3:0:0:
407,284,74650,2,0,L|400:173,1,100,8|0,1:2|0:0,0:0:0:0:
174,282,74874,6,0,L|53:247,1,100,0|0,1:0|0:0,0:0:0:0:
319,144,75097,2,0,L|186:117,1,100,8|0,1:2|0:0,0:0:0:0:
445,276,75322,2,0,L|429:139,1,100,2|2,1:3|0:3,0:0:0:0:
209,231,75545,2,0,L|88:204,1,100,10|2,1:3|0:3,0:0:0:0:
354,332,75769,6,0,L|362:230,1,100,0|0,1:0|0:0,0:0:0:0:
136,166,75993,2,0,L|29:140,1,100,8|0,1:2|0:0,0:0:0:0:
143,310,76217,2,0,L|148:180,1,100,4|0,1:3|0:0,0:0:0:0:
30,234,76441,2,0,L|43:117,1,100,8|0,1:2|0:0,0:0:0:0:
262,304,76665,5,8,1:2:0:0:
459,237,76778,1,8,1:2:0:0:
250,304,76889,1,8,1:2:0:0:
53,237,77002,1,8,1:2:0:0:
262,304,77112,1,8,1:2:0:0:
459,237,77225,1,8,1:2:0:0:
250,304,77336,1,8,1:2:0:0:
53,237,77449,1,8,1:2:0:0:
262,304,77560,5,6,0:0:0:0:
