osu file format v14

[General]
AudioFilename: audio.mp3
AudioLeadIn: 0
PreviewTime: 16161
Countdown: 0
SampleSet: Soft
StackLeniency: 0.7
Mode: 2
LetterboxInBreaks: 0
WidescreenStoryboard: 1

[Editor]
Bookmarks: 5919,16665,23829,30993,45322,52486,63232,70396,77560
DistanceSpacing: 1
BeatDivisor: 2
GridSize: 8
TimelineZoom: 2

[Metadata]
Title:Mochio-
TitleUnicode:モチオー
Artist:[Kyoro]
ArtistUnicode:【Kyoro】
Creator:Spectator
Version:Platter
Source:スーパーマリオRPG
Tags:sinnoh xinnoh lacrima myle mochi_- mochi kukkai japanese novelty super mario legend of the seven stars 音mad oto-mad otomad ニコニコ動画 niconico douga ytpmv youtube スロウスタート slow start 百地たまて tamate momochi たまちゃん tamachan 伊藤 彩沙 itou ayasa きららファンタジア kirara fantasia 芳文社 houbunsha まんがタイムきらら manga time 対カジオー戦 fight against smithy kajioh 下村陽子 yoko shimomura 任天堂 nintendo
BeatmapID:4443408
BeatmapSetID:1939725

[Difficulty]
HPDrainRate:4
CircleSize:3.5
OverallDifficulty:8
ApproachRate:8
SliderMultiplier:1.2
SliderTickRate:1

[Events]
//Background and Video events
0,0,"tamachan.png",0,0
Video,0,"video.mp4"
//Break Periods
//Storyboard Layer 0 (Background)
//Storyboard Layer 1 (Fail)
//Storyboard Layer 2 (Pass)
//Storyboard Layer 3 (Foreground)
//Storyboard Layer 4 (Overlay)
//Storyboard Sound Samples

[TimingPoints]
546,223.880597014925,4,2,1,70,1,0
30993,-100,4,2,1,60,0,0
45322,-100,4,2,1,70,0,0

[Colours]
Combo1 : 196,107,224
Combo2 : 101,143,241
Combo3 : 121,242,197

[HitObjects]
104,280,5919,6,0,P|113:223|172:192,1,120,4|8,1:2|1:2,0:0:0:0:
223,193,6254,2,0,L|224:61,1,120,0|4,1:3|1:3,0:0:0:0:
163,74,6590,1,8,1:2:0:0:
390,296,6814,6,0,P|451:267|456:174,1,120,0|8,1:2|1:2,0:0:0:0:
409,206,7150,1,0,1:3:0:0:
350,191,7262,1,0,0:0:0:0:
469,181,7486,1,8,1:2:0:0:
242,228,7710,5,0,1:2:0:0:
185,208,7822,1,0,0:0:0:0:
185,208,7934,1,8,1:2:0:0:
242,228,8045,1,4,1:3:0:0:
298,248,8157,2,0,L|435:210,1,120,0|8,0:0|1:2,0:0:0:0:
298,181,8605,6,0,P|240:154|221:78,1,120,2|10,1:3|1:2,0:0:0:0:
277,91,8941,1,4,1:3:0:0:
333,71,9053,2,0,L|473:69,1,120,8|10,0:2|1:2,0:0:0:0:
161,306,9501,6,0,L|36:280,1,120,4|8,1:2|1:2,0:0:0:0:
99,259,9837,1,4,1:3:0:0:
154,237,9948,2,0,L|164:89,1,120,0|8,0:0|1:2,0:0:0:0:
103,100,10284,1,0,0:0:0:0:
45,82,10396,6,0,L|183:50,2,120,0|8|0,1:2|1:2|0:0,0:0:0:0:
271,208,11068,1,8,1:2:0:0:
322,177,11180,1,0,0:0:0:0:
337,119,11292,5,0,1:2:0:0:
316,62,11404,1,0,0:0:0:0:
261,35,11516,2,0,L|429:21,1,120,8|0,1:2|0:0,0:0:0:0:
265,58,11963,2,0,L|259:152,1,60,8|0,1:2|0:0,0:0:0:0:
321,118,12187,6,0,P|377:150|394:244,1,120,4|8,1:3|1:2,0:0:0:0:
342,220,12523,1,4,1:3:0:0:
286,241,12635,2,0,L|454:275,1,120,8|8,1:2|1:2,0:0:0:0:
93,240,13083,6,0,L|14:255,1,60,4|2,1:2|0:3,0:0:0:0:
137,150,13419,2,0,L|216:165,1,60,4|2,1:3|0:3,0:0:0:0:
99,58,13754,2,0,L|96:157,1,60,8|0,1:2|0:0,0:0:0:0:
168,146,13978,6,0,L|246:152,1,60,0|2,1:2|0:3,0:0:0:0:
168,146,14202,2,0,P|109:124|88:44,1,120,8|2,1:2|0:3,0:0:0:0:
144,65,14538,1,2,1:3:0:0:
203,55,14650,1,8,1:2:0:0:
432,245,14874,6,0,L|434:115,1,120,4|8,1:2|1:2,0:0:0:0:
373,115,15210,1,4,1:3:0:0:
313,104,15322,2,0,L|451:83,1,120,2|8,0:3|1:2,0:0:0:0:
142,207,15769,6,0,L|23:225,2,120,8|8|8,1:2|1:2|1:2,0:0:0:0:
82,216,16329,1,8,1:2:0:0:
23,224,16441,1,8,1:2:0:0:
322,107,16665,5,4,1:2:0:0:
378,128,16777,1,0,0:0:0:0:
412,177,16889,1,8,1:2:0:0:
422,236,17001,1,2,1:3:0:0:
413,295,17113,1,0,2:3:0:0:
379,344,17225,1,2,1:3:0:0:
324,361,17337,1,8,1:2:0:0:
122,160,17560,6,0,L|117:82,1,60,0|0,1:0|0:0,0:0:0:0:
177,89,17784,1,8,1:2:0:0:
235,75,17896,2,0,L|99:57,1,120,2|2,1:3|1:3,0:0:0:0:
58,79,18232,1,8,1:2:0:0:
286,283,18456,6,0,P|342:260|359:168,1,120,0|8,1:0|1:2,0:0:0:0:
307,191,18792,1,2,1:3:0:0:
249,174,18904,2,0,L|241:33,1,120,0|8,1:0|1:2,0:0:0:0:
470,142,19351,5,0,1:0:0:0:
411,128,19463,1,0,0:0:0:0:
352,114,19575,2,0,L|488:144,1,120,8|0,1:2|1:0,0:0:0:0:
470,142,20023,1,8,1:2:0:0:
156,106,20247,5,4,1:2:0:0:
100,127,20359,1,0,0:0:0:0:
66,176,20471,1,8,1:2:0:0:
56,235,20583,1,2,1:3:0:0:
65,294,20695,1,0,2:3:0:0:
99,343,20807,1,2,1:3:0:0:
154,360,20919,1,8,1:2:0:0:
369,175,21142,6,0,L|374:97,1,60,0|0,1:0|0:0,0:0:0:0:
314,104,21366,1,8,1:2:0:0:
256,90,21478,2,0,L|392:72,1,120,2|2,1:3|1:3,0:0:0:0:
433,94,21814,1,8,1:2:0:0:
211,298,22038,5,0,1:0:0:0:
152,283,22150,2,0,L|149:135,1,120,0|0,0:0|1:3,0:0:0:0:
209,152,22486,1,0,1:0:0:0:
268,141,22598,1,0,0:0:0:0:
209,152,22710,1,8,1:2:0:0:
427,207,22934,5,0,1:0:0:0:
484,192,23045,1,0,0:0:0:0:
427,207,23157,2,0,L|275:169,1,120,8|2,1:2|1:3,0:0:0:0:
368,160,23493,1,0,1:3:0:0:
425,142,23605,1,8,1:2:0:0:
99,280,23829,5,4,1:2:0:0:
41,263,23941,1,0,0:0:0:0:
41,263,24053,1,8,1:2:0:0:
238,207,24277,1,4,1:3:0:0:
296,190,24389,1,0,2:3:0:0:
296,190,24501,1,8,1:2:0:0:
176,205,24725,5,0,1:0:0:0:
118,188,24837,1,0,0:0:0:0:
118,188,24949,1,8,1:2:0:0:
176,205,25061,1,0,0:0:0:0:
237,216,25172,2,0,L|91:253,1,120,2|10,1:3|1:3,0:0:0:0:
413,280,25620,5,4,1:3:0:0:
471,263,25732,1,0,0:0:0:0:
471,263,25844,1,8,1:2:0:0:
274,207,26068,1,4,1:3:0:0:
216,190,26180,1,0,2:3:0:0:
216,190,26292,1,8,1:2:0:0:
336,205,26516,5,0,1:0:0:0:
394,188,26628,1,0,0:0:0:0:
394,188,26740,1,8,1:2:0:0:
336,205,26852,1,0,0:0:0:0:
275,216,26963,2,0,L|421:253,1,120,2|10,1:3|1:3,0:0:0:0:
42,276,27411,5,4,1:2:0:0:
43,216,27523,1,0,0:0:0:0:
101,192,27635,1,8,1:2:0:0:
290,272,27859,1,4,1:3:0:0:
348,255,27971,1,0,2:3:0:0:
348,255,28083,1,8,1:2:0:0:
228,270,28307,5,0,1:0:0:0:
170,253,28419,1,0,0:0:0:0:
170,253,28531,1,8,1:2:0:0:
228,270,28643,1,0,0:0:0:0:
361,312,28754,2,0,L|487:255,1,120,2|10,1:3|1:3,0:0:0:0:
168,182,29202,6,0,P|142:117|187:61,1,120,0|8,1:0|1:2,0:0:0:0:
284,66,29650,2,0,L|146:47,1,120,0|8,0:0|1:2,0:0:0:0:
385,172,30098,5,0,1:3:0:0:
445,172,30210,1,0,1:3:0:0:
385,172,30322,1,0,1:3:0:0:
325,171,30433,1,0,1:3:0:0:
385,172,30545,1,8,1:2:0:0:
445,172,30657,1,8,1:2:0:0:
385,172,30769,1,8,1:2:0:0:
98,222,30993,6,0,P|41:194|23:124,1,120,4|8,1:2|0:0,0:0:0:0:
81,142,31329,1,0,0:0:0:0:
141,141,31441,2,0,L|19:140,1,120,4|8,1:3|0:0,0:0:0:0:
81,137,31777,1,8,0:0:0:0:
140,134,31889,5,4,1:3:0:0:
264,92,32113,2,0,P|272:160|256:226,1,120,8|0,0:0|1:0,0:0:0:0:
140,134,32560,1,8,2:2:0:0:
199,131,32672,1,10,2:3:0:0:
258,129,32784,6,0,L|126:135,1,120,4|8,1:3|0:0,0:0:0:0:
258,129,33232,1,2,1:3:0:0:
317,121,33344,1,0,0:0:0:0:
317,121,33456,1,10,1:3:0:0:
258,129,33568,1,8,0:0:0:0:
120,70,33680,5,4,1:3:0:0:
60,62,33792,1,2,1:3:0:0:
120,70,33904,2,0,P|178:96|192:169,1,120,8|4,0:0|1:3,0:0:0:0:
137,161,34240,1,0,1:0:0:0:
79,177,34351,1,8,0:0:0:0:
305,273,34575,6,0,P|362:251|379:185,1,120,4|8,1:3|0:0,0:0:0:0:
323,180,34911,1,0,0:0:0:0:
263,169,35023,2,0,L|256:32,1,120,4|8,1:3|0:0,0:0:0:0:
317,44,35359,1,8,0:0:0:0:
382,41,35471,6,0,L|254:48,1,120,4|8,1:3|0:0,0:0:0:0:
322,53,35807,1,0,1:0:0:0:
381,59,35919,2,0,L|389:197,1,120,0|8,1:3|0:0,0:0:0:0:
328,184,36254,1,10,0:3:0:0:
189,224,36366,6,0,P|129:205|104:129,1,120,4|8,1:3|0:0,0:0:0:0:
157,130,36702,1,4,1:3:0:0:
211,106,36814,2,0,L|63:84,1,120,0|8,1:0|0:0,0:0:0:0:
400,143,37262,5,4,1:3:0:0:
459,132,37374,1,0,1:0:0:0:
400,143,37486,1,8,1:2:0:0:
341,154,37598,1,0,1:0:0:0:
400,143,37710,1,8,1:2:0:0:
459,132,37822,1,0,1:0:0:0:
400,143,37934,1,8,1:2:0:0:
111,251,38157,5,4,1:2:0:0:
51,240,38269,1,0,0:0:0:0:
51,240,38381,1,8,0:0:0:0:
111,251,38493,1,0,1:0:0:0:
170,257,38605,2,0,L|27:273,1,120,4|8,1:3|0:0,0:0:0:0:
277,200,39053,5,4,1:3:0:0:
336,207,39165,1,0,0:0:0:0:
395,214,39277,1,8,0:0:0:0:
336,207,39389,1,0,0:0:0:0:
277,200,39501,2,0,L|431:179,1,120,2|8,1:3|0:0,0:0:0:0:
175,177,39948,6,0,P|155:118|197:46,1,120,4|8,1:3|0:0,0:0:0:0:
234,60,40284,1,0,0:0:0:0:
293,54,40396,2,0,L|151:28,1,120,0|8,1:0|0:0,0:0:0:0:
234,40,40732,1,10,1:3:0:0:
373,103,40844,5,4,1:3:0:0:
432,97,40956,1,2,1:3:0:0:
373,103,41068,2,0,L|229:78,2,120,8|4|8,1:2|1:3|0:0,0:0:0:0:
151,241,41740,6,0,P|95:216|77:139,1,120,4|8,1:3|0:0,0:0:0:0:
132,154,42075,1,0,0:0:0:0:
190,140,42187,2,0,L|57:119,1,120,2|8,3:3|0:0,0:0:0:0:
297,171,42635,5,2,1:3:0:0:
355,157,42747,1,4,3:3:0:0:
355,157,42859,1,8,1:2:0:0:
297,171,42971,1,2,3:3:0:0:
238,183,43083,2,0,L|400:220,1,120,4|8,1:3|1:2,0:0:0:0:
131,268,43531,5,4,1:3:0:0:
73,249,43643,1,0,0:0:0:0:
73,249,43754,1,8,0:0:0:0:
131,268,43866,1,4,0:3:0:0:
266,223,43978,1,4,1:3:0:0:
324,204,44090,1,2,0:3:0:0:
324,204,44201,1,8,0:0:0:0:
134,167,44426,6,0,L|53:169,1,60,8|0,1:2|0:0,0:0:0:0:
139,120,44650,2,0,L|219:118,1,60,8|0,1:2|0:0,0:0:0:0:
134,167,44874,2,0,L|53:169,1,60,8|8,1:2|1:2,0:0:0:0:
134,167,45098,1,8,1:2:0:0:
464,96,45322,6,0,L|464:240,1,120,4|10,1:2|1:3,0:0:0:0:
333,221,45769,2,0,L|214:210,1,120,4|10,1:3|1:3,0:0:0:0:
272,198,46105,1,2,0:2:0:0:
408,158,46217,1,4,1:3:0:0:
466,145,46329,1,2,0:0:0:0:
466,145,46441,1,10,1:3:0:0:
408,158,46553,1,2,0:0:0:0:
268,112,46665,2,0,L|399:88,1,120,4|10,1:3|1:3,0:0:0:0:
156,215,47113,6,0,P|103:187|88:105,1,120,4|8,1:3|1:2,0:0:0:0:
142,126,47448,1,0,0:0:0:0:
200,114,47560,2,0,L|206:254,1,120,4|8,3:0|1:2,0:0:0:0:
85,219,48008,5,8,1:2:0:0:
143,231,48120,1,4,1:3:0:0:
201,243,48232,1,0,0:0:0:0:
143,231,48344,1,8,1:2:0:0:
85,219,48456,1,4,1:3:0:0:
143,231,48568,1,0,0:0:0:0:
201,243,48680,1,4,1:2:0:0:
490,193,48904,6,0,L|493:66,1,120,4|10,1:2|1:3,0:0:0:0:
376,79,49351,2,0,L|259:55,1,120,4|10,1:3|1:3,0:0:0:0:
317,93,49687,1,2,0:2:0:0:
180,197,49799,1,4,1:3:0:0:
122,184,49911,1,2,0:0:0:0:
122,184,50023,1,10,1:3:0:0:
180,197,50135,1,2,0:0:0:0:
320,151,50247,2,0,L|189:127,1,120,4|10,1:3|1:3,0:0:0:0:
414,232,50695,5,4,1:3:0:0:
469,209,50807,1,0,0:0:0:0:
488,152,50919,1,8,1:2:0:0:
470,94,51031,1,0,1:0:0:0:
414,71,51143,2,0,L|281:45,2,120,4|8|8,1:3|1:2|1:2,0:0:0:0:
278,232,51702,6,0,P|215:205|210:130,1,120,2|4,0:0|3:3,0:0:0:0:
261,149,52038,1,8,1:2:0:0:
320,138,52150,1,0,3:3:0:0:
379,129,52262,1,12,1:3:0:0:
73,349,52486,6,0,L|70:-40,1,360,4|8,1:2|1:2,0:0:0:0:
126,9,53269,1,0,0:0:0:0:
181,32,53381,6,0,L|60:68,1,120,0|8,1:2|1:2,0:0:0:0:
125,75,53717,1,0,1:3:0:0:
181,93,53829,2,0,L|36:133,1,120,0|8,0:0|1:2,0:0:0:0:
282,183,54277,5,0,1:2:0:0:
340,197,54389,1,0,0:0:0:0:
398,209,54501,2,0,L|405:69,1,120,8|0,1:2|0:0,0:0:0:0:
345,104,54837,1,0,1:3:0:0:
319,157,54948,1,8,1:2:0:0:
344,211,55060,1,0,0:0:0:0:
401,227,55172,6,0,L|243:251,1,120,2|10,1:3|1:2,0:0:0:0:
173,268,55620,2,0,L|291:286,1,120,8|10,0:2|1:2,0:0:0:0:
57,324,56068,6,0,L|51:191,1,120,4|8,1:2|1:2,0:0:0:0:
111,192,56404,1,4,1:3:0:0:
169,180,56516,2,0,L|43:166,1,120,0|8,0:0|1:2,0:0:0:0:
269,92,56963,6,0,L|276:225,1,120,0|8,1:2|1:2,0:0:0:0:
155,202,57411,2,0,L|323:226,1,120,0|8,0:0|1:2,0:0:0:0:
213,227,57747,1,0,0:0:0:0:
155,243,57859,6,0,L|291:258,1,120,0|8,1:2|1:2,0:0:0:0:
334,264,58195,2,0,P|356:210|323:140,1,120,4|0,1:3|1:3,0:0:0:0:
277,144,58531,1,8,1:2:0:0:
41,62,58754,5,4,1:3:0:0:
102,61,58866,1,0,0:0:0:0:
163,61,58978,1,8,1:2:0:0:
102,61,59090,1,4,1:3:0:0:
41,62,59202,1,8,1:2:0:0:
102,61,59314,1,0,1:3:0:0:
163,61,59426,1,8,1:2:0:0:
453,263,59650,6,0,L|456:192,1,60,4|2,1:2|0:3,0:0:0:0:
352,154,59986,2,0,L|273:169,1,60,4|2,1:3|0:3,0:0:0:0:
390,62,60321,2,0,L|393:161,1,60,8|0,1:2|0:0,0:0:0:0:
321,150,60545,6,0,L|243:156,1,60,0|2,1:2|0:3,0:0:0:0:
321,150,60769,2,0,P|380:128|401:48,1,120,8|2,1:2|0:3,0:0:0:0:
345,69,61105,1,2,1:3:0:0:
286,59,61217,1,8,1:2:0:0:
57,249,61441,6,0,L|55:119,1,120,4|8,1:2|1:2,0:0:0:0:
116,119,61777,1,4,1:3:0:0:
176,108,61889,2,0,L|38:87,1,120,2|8,0:3|1:2,0:0:0:0:
347,211,62336,6,0,L|466:229,2,120,8|8|8,1:2|1:2|1:2,0:0:0:0:
407,220,62896,1,8,1:2:0:0:
466,228,63008,1,8,1:2:0:0:
178,107,63232,5,4,1:2:0:0:
122,128,63344,1,0,0:0:0:0:
88,177,63456,1,8,1:2:0:0:
78,236,63568,1,2,1:3:0:0:
87,295,63680,1,0,2:3:0:0:
121,344,63792,1,2,1:3:0:0:
176,361,63904,1,8,1:2:0:0:
378,160,64127,6,0,L|383:82,1,60,0|0,1:0|0:0,0:0:0:0:
323,89,64351,1,8,1:2:0:0:
265,75,64463,2,0,L|401:57,1,120,2|2,1:3|1:3,0:0:0:0:
442,79,64799,1,8,1:2:0:0:
214,283,65023,6,0,P|158:260|141:168,1,120,0|8,1:0|1:2,0:0:0:0:
193,191,65359,1,2,1:3:0:0:
251,174,65471,2,0,L|259:33,1,120,0|8,1:0|1:2,0:0:0:0:
30,142,65918,5,0,1:0:0:0:
89,128,66030,1,0,0:0:0:0:
148,114,66142,2,0,L|12:144,1,120,8|0,1:2|1:0,0:0:0:0:
30,142,66590,1,8,1:2:0:0:
343,107,66814,5,4,1:2:0:0:
399,128,66926,1,0,0:0:0:0:
433,177,67038,1,8,1:2:0:0:
443,236,67150,1,2,1:3:0:0:
434,295,67262,1,0,2:3:0:0:
400,344,67374,1,2,1:3:0:0:
345,361,67486,1,8,1:2:0:0:
143,175,67709,6,0,L|138:97,1,60,0|0,1:0|0:0,0:0:0:0:
198,104,67933,1,8,1:2:0:0:
256,90,68045,2,0,L|120:72,1,120,2|2,1:3|1:3,0:0:0:0:
79,94,68381,1,8,1:2:0:0:
301,298,68605,5,0,1:0:0:0:
360,283,68717,2,0,L|363:135,1,120,0|0,0:0|1:3,0:0:0:0:
303,152,69053,1,0,1:0:0:0:
244,141,69165,1,0,0:0:0:0:
303,152,69277,1,8,1:2:0:0:
85,207,69501,5,0,1:0:0:0:
28,192,69612,1,0,0:0:0:0:
86,207,69725,1,8,1:2:0:0:
278,263,69948,1,2,1:3:0:0:
336,251,70060,1,0,1:3:0:0:
336,251,70172,1,8,1:2:0:0:
278,263,70284,1,4,1:3:0:0:
413,280,70396,5,4,1:2:0:0:
471,263,70508,1,0,0:0:0:0:
471,263,70620,1,8,1:2:0:0:
274,207,70844,1,4,1:3:0:0:
216,190,70956,1,0,2:3:0:0:
216,190,71068,1,8,1:2:0:0:
336,205,71292,5,0,1:0:0:0:
394,188,71404,1,0,0:0:0:0:
394,188,71516,1,8,1:2:0:0:
336,205,71628,1,0,0:0:0:0:
275,216,71739,2,0,L|421:253,1,120,2|10,1:3|1:3,0:0:0:0:
99,280,72187,5,4,1:2:0:0:
41,263,72299,1,0,0:0:0:0:
41,263,72411,1,8,1:2:0:0:
238,207,72635,1,4,1:3:0:0:
296,190,72747,1,0,2:3:0:0:
296,190,72859,1,8,1:2:0:0:
176,205,73083,5,0,1:0:0:0:
118,188,73195,1,0,0:0:0:0:
118,188,73307,1,8,1:2:0:0:
176,205,73419,1,0,0:0:0:0:
237,216,73530,2,0,L|91:253,1,120,2|10,1:3|1:3,0:0:0:0:
470,276,73978,5,4,1:2:0:0:
470,276,74090,1,0,0:0:0:0:
409,265,74202,1,8,1:2:0:0:
222,272,74426,1,4,1:3:0:0:
164,255,74538,1,0,2:3:0:0:
164,255,74650,1,8,1:2:0:0:
284,270,74874,5,0,1:0:0:0:
342,253,74986,1,0,0:0:0:0:
342,253,75098,1,8,1:2:0:0:
284,270,75210,1,0,0:0:0:0:
151,312,75321,2,0,L|15:271,1,120,2|10,1:3|1:3,0:0:0:0:
344,182,75769,6,0,P|370:117|325:61,1,120,0|8,1:0|1:2,0:0:0:0:
228,66,76217,2,0,L|366:47,1,120,4|8,1:3|1:2,0:0:0:0:
127,172,76665,5,8,1:2:0:0:
67,172,76777,1,8,1:2:0:0:
127,172,76889,1,8,1:2:0:0:
187,171,77000,1,8,1:2:0:0:
127,172,77112,1,8,1:2:0:0:
67,172,77224,1,8,1:2:0:0:
127,172,77336,1,8,1:2:0:0:
187,171,77448,1,8,1:2:0:0:
323,172,77560,5,6,0:0:0:0:
