osu file format v14

[General]
AudioFilename: audio.mp3
AudioLeadIn: 0
PreviewTime: 16161
Countdown: 0
SampleSet: Soft
StackLeniency: 0.7
Mode: 2
LetterboxInBreaks: 0
WidescreenStoryboard: 1

[Editor]
Bookmarks: 5919,16665,23829,30993,45322,52486,61217,63232,70396,77560
DistanceSpacing: 1
BeatDivisor: 4
GridSize: 8
TimelineZoom: 3.199999

[Metadata]
Title:Mochio-
TitleUnicode:モチオー
Artist:[Kyoro]
ArtistUnicode:【Kyoro】
Creator:Spectator
Version:Mochi's Overdose
Source:スーパーマリオRPG
Tags:sinnoh xinnoh lacrima myle mochi_- mochi kukkai japanese novelty super mario legend of the seven stars 音mad oto-mad otomad ニコニコ動画 niconico douga ytpmv youtube スロウスタート slow start 百地たまて tamate momochi たまちゃん tamachan 伊藤 彩沙 itou ayasa きららファンタジア kirara fantasia 芳文社 houbunsha まんがタイムきらら manga time 対カジオー戦 fight against smithy kajioh 下村陽子 yoko shimomura 任天堂 nintendo
BeatmapID:4451967
BeatmapSetID:1939725

[Difficulty]
HPDrainRate:5
CircleSize:4
OverallDifficulty:9.4
ApproachRate:9.4
SliderMultiplier:1.8
SliderTickRate:1

[Events]
//Background and Video events
0,0,"tamachan.png",0,0
Video,0,"video.mp4"
//Break Periods
//Storyboard Layer 0 (Background)
//Storyboard Layer 1 (Fail)
//Storyboard Layer 2 (Pass)
//Storyboard Layer 3 (Foreground)
//Storyboard Layer 4 (Overlay)
//Storyboard Sound Samples

[TimingPoints]
546,223.880597014925,4,2,1,70,1,0
30993,-100,4,2,1,60,0,0
45322,-100,4,2,1,70,0,0

[Colours]
Combo1 : 179,114,218
Combo2 : 101,143,241
Combo3 : 121,242,197

[HitObjects]
381,351,5919,6,0,L|387:229,1,90,4|0,1:2|0:0,0:0:0:0:
295,254,6143,1,8,1:2:0:0:
482,124,6254,2,0,L|366:125,1,90,0|0,1:3|0:0,0:0:0:0:
201,311,6478,2,0,L|196:244,1,45,4|0,1:3|0:0,0:0:0:0:
335,316,6590,2,0,L|441:316,1,90,8|0,1:2|0:0,0:0:0:0:
216,164,6814,6,0,L|209:48,1,90,0|0,1:2|0:0,0:0:0:0:
333,166,7038,2,0,L|340:45,1,90,8|0,1:2|1:3,0:0:0:0:
461,323,7262,2,0,L|360:323,1,90,0|4,0:0|1:3,0:0:0:0:
162,159,7486,2,0,L|271:161,1,90,8|0,1:2|0:0,0:0:0:0:
251,160,7654,1,0,0:0:0:0:
116,263,7710,6,0,L|109:379,1,90,0|0,1:2|0:0,0:0:0:0:
233,347,7934,2,0,L|124:347,1,90,8|4,1:2|1:3,0:0:0:0:
368,180,8157,2,0,L|486:179,3,90,0|0|8|0,0:0|1:3|1:2|0:0,0:0:0:0:
249,173,8605,6,0,L|243:60,1,90,2|0,1:3|0:0,0:0:0:0:
367,353,8829,2,0,L|373:233,1,90,10|4,1:2|1:3,0:0:0:0:
162,142,9053,1,8,0:2:0:0:
279,151,9165,1,0,1:3:0:0:
162,142,9277,1,10,1:2:0:0:
279,151,9389,1,8,1:2:0:0:
63,210,9501,6,0,P|3:150|84:116,1,180,4|8,1:2|1:2,0:0:0:0:
271,332,9837,2,0,L|281:222,1,90,4|0,1:3|0:0,0:0:0:0:
189,242,10060,1,0,1:3:0:0:
311,176,10172,2,0,L|314:64,1,90,8|0,1:2|0:0,0:0:0:0:
86,317,10396,6,0,L|184:317,1,90,0|0,1:2|0:0,0:0:0:0:
385,301,10620,2,0,L|261:301,1,90,8|4,1:2|1:3,0:0:0:0:
77,161,10844,2,0,L|192:161,3,90,0|0|8|0,0:0|0:0|1:2|0:0,0:0:0:0:
385,329,11292,6,0,L|392:202,1,90,0|0,1:2|0:0,0:0:0:0:
267,327,11516,2,0,L|262:215,1,90,8|4,1:2|1:3,0:0:0:0:
45,279,11740,2,0,L|156:279,3,90,0|0|8|0,0:0|1:3|1:2|0:0,0:0:0:0:
333,154,12187,6,0,L|338:46,1,90,4|0,1:3|0:0,0:0:0:0:
214,159,12411,2,0,L|207:45,1,90,8|4,1:2|1:3,0:0:0:0:
418,284,12635,1,8,1:2:0:0:
301,293,12747,1,0,1:3:0:0:
418,284,12859,1,8,1:2:0:0:
301,293,12971,1,8,1:2:0:0:
62,152,13083,5,4,1:2:0:0:
152,184,13195,2,0,L|152:81,1,90,2|8,0:3|1:2,0:0:0:0:
361,109,13419,1,4,1:3:0:0:
271,109,13531,2,0,L|373:109,1,90,2|0,0:3|1:3,0:0:0:0:
145,317,13754,2,0,L|140:217,1,90,8|0,1:2|0:0,0:0:0:0:
354,284,13978,5,0,1:2:0:0:
444,288,14090,1,2,0:3:0:0:
322,229,14202,2,0,L|317:126,1,90,8|4,1:2|1:3,0:0:0:0:
409,114,14426,1,2,0:3:0:0:
157,96,14538,1,2,1:3:0:0:
274,89,14650,1,8,1:2:0:0:
157,96,14762,1,2,0:3:0:0:
355,351,14874,6,0,L|360:241,1,90,4|2,1:2|0:3,0:0:0:0:
268,264,15098,1,8,1:2:0:0:
466,115,15210,1,4,1:3:0:0:
349,117,15322,1,2,0:3:0:0:
466,115,15434,1,0,1:3:0:0:
216,341,15545,2,0,L|211:228,1,90,8|0,1:2|0:0,0:0:0:0:
403,143,15769,6,0,P|472:182|417:274,1,180,8|8,1:2|1:2,0:0:0:0:
355,267,16105,1,4,1:3:0:0:
112,162,16217,1,8,1:2:0:0:
283,160,16329,1,8,1:2:0:0:
454,159,16441,1,8,1:2:0:0:
283,160,16553,1,8,1:2:0:0:
67,340,16665,6,0,L|62:217,1,90,4|0,1:2|0:0,0:0:0:0:
318,116,16889,1,8,1:2:0:0:
228,324,17001,2,0,L|225:205,1,90,2|0,1:3|2:3,0:0:0:0:
426,188,17225,1,2,1:3:0:0:
237,141,17337,1,8,1:2:0:0:
326,141,17448,2,0,L|327:64,1,45
161,350,17560,6,0,L|159:229,1,90,0|0,1:0|0:0,0:0:0:0:
278,259,17784,1,8,1:2:0:0:
159,260,17896,1,2,1:3:0:0:
366,146,18008,2,0,L|371:15,1,90,0|2,0:0|1:3,0:0:0:0:
151,347,18232,2,0,L|146:217,1,90,8|0,1:2|0:0,0:0:0:0:
384,139,18456,6,0,P|447:173|390:274,1,180,0|8,1:0|1:2,0:0:0:0:
332,272,18792,1,2,1:3:0:0:
143,115,18904,2,0,L|355:85,1,180,0|8,1:0|1:2,0:0:0:0:
403,104,19240,1,0,1:0:0:0:
189,333,19351,6,0,L|180:214,1,90,0|0,1:0|0:0,0:0:0:0:
391,181,19575,2,0,L|282:181,1,90,8|0,1:2|0:0,0:0:0:0:
391,181,19799,1,0,1:0:0:0:
166,133,19911,1,4,1:3:0:0:
76,133,20023,2,0,L|189:133,1,90,8|0,1:2|1:0,0:0:0:0:
366,352,20247,6,0,L|243:350,1,90,4|0,1:2|0:0,0:0:0:0:
477,266,20471,2,0,L|480:147,1,90,8|2,1:2|1:3,0:0:0:0:
270,154,20695,1,0,2:3:0:0:
360,156,20807,2,0,L|360:41,1,90,2|8,1:3|1:2,0:0:0:0:
171,343,21030,2,0,L|94:342,1,45
309,340,21142,6,0,L|430:342,1,90,0|0,1:0|0:0,0:0:0:0:
208,193,21366,2,0,L|202:292,1,90,8|2,1:2|1:3,0:0:0:0:
84,152,21590,2,0,L|184:152,1,90,0|2,0:0|1:3,0:0:0:0:
410,218,21814,2,0,L|311:217,1,90,8|0,1:2|0:0,0:0:0:0:
93,276,22038,6,0,L|90:157,1,90,0|0,1:0|0:0,0:0:0:0:
213,209,22262,2,0,L|219:89,1,90,8|0,1:2|1:3,0:0:0:0:
436,89,22486,2,0,L|307:89,3,90,0|0|8|0,1:0|0:0|1:2|1:0,0:0:0:0:
146,320,22934,6,0,L|261:319,1,90,0|0,1:0|0:0,0:0:0:0:
119,263,23157,2,0,L|113:148,1,90,8|0,1:2|0:0,0:0:0:0:
341,238,23381,1,2,1:3:0:0:
431,236,23493,1,0,1:3:0:0:
251,237,23605,1,8,1:2:0:0:
71,244,23717,1,4,1:3:0:0:
305,354,23829,6,0,L|400:354,1,90,4|0,1:2|0:0,0:0:0:0:
195,319,24053,2,0,L|190:224,1,90,8|4,1:2|0:3,0:0:0:0:
381,100,24277,1,4,1:3:0:0:
264,111,24389,1,0,2:3:0:0:
381,100,24501,1,8,1:2:0:0:
264,111,24613,1,0,0:0:0:0:
462,355,24725,6,0,L|467:245,1,90,0|0,1:0|0:0,0:0:0:0:
232,347,24948,2,0,L|227:237,1,90,8|0,1:2|0:0,0:0:0:0:
410,183,25172,2,0,L|474:183,1,45,2|0,1:3|0:0,0:0:0:0:
318,117,25284,2,0,L|255:117,1,45,2|0,0:3|0:0,0:0:0:0:
410,118,25396,2,0,L|474:118,1,45,10|0,1:3|0:0,0:0:0:0:
318,184,25508,2,0,L|255:184,1,45,2|0,0:3|0:0,0:0:0:0:
466,355,25620,6,0,L|475:241,1,90,4|0,1:3|0:0,0:0:0:0:
427,262,25844,2,0,L|326:263,1,90,8|4,1:2|0:3,0:0:0:0:
146,95,26068,1,4,1:3:0:0:
263,106,26180,1,0,2:3:0:0:
146,95,26292,1,8,1:2:0:0:
263,106,26404,1,0,0:0:0:0:
56,29,26516,6,0,L|51:139,1,90,0|0,1:0|0:0,0:0:0:0:
286,37,26739,2,0,L|291:147,1,90,8|0,1:2|0:0,0:0:0:0:
108,201,26963,2,0,L|44:201,1,45,2|0,1:3|0:0,0:0:0:0:
200,267,27075,2,0,L|263:267,1,45,2|0,0:3|0:0,0:0:0:0:
108,266,27187,2,0,L|44:266,1,45,10|0,1:3|0:0,0:0:0:0:
200,200,27299,2,0,L|263:200,1,45,2|0,0:3|0:0,0:0:0:0:
52,29,27411,6,0,L|43:143,1,90,4|0,1:2|0:0,0:0:0:0:
163,121,27635,2,0,L|57:122,1,90,8|4,1:2|0:3,0:0:0:0:
300,251,27859,2,0,L|188:256,1,90,4|0,1:3|2:3,0:0:0:0:
446,289,28083,2,0,L|452:168,1,90,8|0,1:2|0:0,0:0:0:0:
232,175,28307,6,0,L|334:174,1,90,0|0,1:0|0:0,0:0:0:0:
86,271,28531,2,0,L|80:166,1,90,8|0,1:2|0:0,0:0:0:0:
328,272,28754,2,0,L|392:272,1,45,2|0,1:3|0:0,0:0:0:0:
236,338,28866,2,0,L|173:338,1,45,2|0,0:3|0:0,0:0:0:0:
328,337,28978,2,0,L|392:337,1,45,10|0,1:3|0:0,0:0:0:0:
236,271,29090,2,0,L|173:271,1,45,2|0,0:3|0:0,0:0:0:0:
384,100,29202,6,0,L|483:101,1,90,0|0,1:0|0:0,0:0:0:0:
256,151,29426,1,8,1:2:0:0:
248,150,29538,1,0,0:0:0:0:
338,153,29650,1,4,1:3:0:0:
139,322,29762,2,0,L|34:323,2,90,4|8|0,0:3|1:2|0:0,0:0:0:0:
391,221,30098,5,0,1:3:0:0:
301,224,30210,1,0,1:3:0:0:
94,166,30322,1,0,1:3:0:0:
184,164,30434,1,0,1:3:0:0:
425,324,30545,1,8,1:2:0:0:
245,328,30657,1,8,1:2:0:0:
65,327,30769,1,8,1:2:0:0:
263,328,30881,1,8,1:2:0:0:
483,305,30993,6,0,P|486:208|402:188,1,180,4|8,1:2|0:0,0:0:0:0:
329,193,31329,1,0,0:0:0:0:
122,254,31441,2,0,L|115:156,1,90,4|0,1:3|0:0,0:0:0:0:
234,141,31665,1,8,0:0:0:0:
117,164,31777,1,8,0:0:0:0:
315,96,31889,6,0,L|504:122,1,180,4|8,1:3|0:0,0:0:0:0:
393,160,32225,1,0,1:0:0:0:
177,259,32337,2,0,L|171:361,1,90,0|0,1:0|0:0,0:0:0:0:
370,272,32560,2,0,L|246:270,1,90,8|10,2:2|2:3,0:0:0:0:
44,57,32784,6,0,P|41:154|125:174,1,180,4|8,1:3|0:0,0:0:0:0:
198,169,33120,1,0,0:0:0:0:
387,267,33232,2,0,L|392:374,1,90,2|0,1:3|0:0,0:0:0:0:
128,305,33456,1,10,1:3:0:0:
299,305,33568,1,8,0:0:0:0:
479,73,33680,6,0,L|481:188,1,90,4|2,1:3|1:3,0:0:0:0:
272,132,33904,2,0,L|387:130,1,90,8|0,0:0|0:0,0:0:0:0:
244,340,34128,2,0,L|239:225,1,90,4|0,1:3|1:0,0:0:0:0:
447,148,34351,2,0,L|326:148,1,90,8|10,0:0|0:3,0:0:0:0:
121,60,34575,6,0,L|313:60,1,180,4|8,1:3|0:0,0:0:0:0:
210,61,34911,1,0,0:0:0:0:
327,325,35023,2,0,L|222:325,1,90,4|4,1:3|0:3,0:0:0:0:
437,171,35247,2,0,L|442:292,1,90,8|8,0:0|0:0,0:0:0:0:
232,179,35471,6,0,L|334:179,1,90,4|0,1:3|1:3,0:0:0:0:
204,310,35695,2,0,L|198:205,1,90,8|0,0:0|1:0,0:0:0:0:
408,114,35919,2,0,L|299:114,2,90,0|0|8,1:3|0:0|0:0,0:0:0:0:
165,276,36254,6,0,P|101:314|171:328,1,180,10|0,0:3|0:0,0:0:0:0:
393,277,36590,2,0,L|396:163,1,90,8|4,0:0|1:3,0:0:0:0:
277,146,36814,2,0,L|386:145,1,90,0|2,1:0|0:3,0:0:0:0:
176,147,37038,2,0,L|170:39,1,90,8|2,0:0|0:3,0:0:0:0:
408,314,37262,5,4,1:3:0:0:
219,315,37374,1,0,1:0:0:0:
309,314,37486,1,8,1:2:0:0:
111,240,37598,1,0,1:0:0:0:
327,241,37710,1,8,1:2:0:0:
237,196,37822,1,0,1:0:0:0:
462,169,37934,1,8,1:2:0:0:
292,166,38045,1,8,1:2:0:0:
58,162,38157,6,0,L|54:60,1,90,4|0,1:2|0:0,0:0:0:0:
173,289,38381,2,0,L|178:182,1,90,8|0,0:0|1:0,0:0:0:0:
395,142,38605,2,0,L|193:114,1,180,4|8,1:3|0:0,0:0:0:0:
216,117,38941,1,8,0:0:0:0:
432,301,39053,6,0,L|336:301,3,90,4|0|8|0,1:3|0:0|0:0|0:0,0:0:0:0:
142,119,39501,2,0,L|139:237,1,90,2|0,1:3|0:0,0:0:0:0:
258,204,39725,1,8,0:0:0:0:
141,208,39837,1,10,1:3:0:0:
373,336,39948,6,0,P|436:297|349:280,1,180,4|8,1:3|0:0,0:0:0:0:
190,271,40284,1,0,0:0:0:0:
406,178,40396,2,0,L|409:73,1,90,0|0,1:0|1:0,0:0:0:0:
200,314,40620,1,8,0:0:0:0:
317,323,40732,1,10,1:3:0:0:
200,314,40844,5,4,1:3:0:0:
317,323,40956,1,2,1:3:0:0:
87,282,41068,2,0,L|83:166,1,90,8|0,1:2|0:0,0:0:0:0:
275,203,41292,2,0,L|281:87,1,90,4|0,1:3|0:0,0:0:0:0:
480,198,41516,2,0,L|366:198,1,90,8|8,0:0|0:0,0:0:0:0:
153,351,41740,6,0,L|261:352,1,90,4|0,1:3|0:0,0:0:0:0:
153,351,41963,1,8,0:0:0:0:
342,287,42075,1,0,0:0:0:0:
252,270,42187,2,0,L|251:156,1,90,2|4,3:3|0:3,0:0:0:0:
451,262,42411,2,0,L|455:147,1,90,8|8,0:0|0:0,0:0:0:0:
236,91,42635,5,2,1:3:0:0:
353,100,42747,1,4,3:3:0:0:
236,91,42859,1,8,1:2:0:0:
353,100,42971,1,2,3:3:0:0:
137,338,43083,2,0,L|133:244,1,90,4|0,1:3|0:0,0:0:0:0:
356,317,43307,2,0,L|457:317,1,90,8|8,1:2|0:0,0:0:0:0:
228,244,43531,6,0,L|218:138,1,90,4|0,1:3|0:0,0:0:0:0:
310,147,43754,1,8,0:0:0:0:
121,102,43866,1,4,0:3:0:0:
346,324,43978,2,0,L|347:229,1,90,4|2,1:3|0:3,0:0:0:0:
147,329,44202,2,0,L|143:237,1,90,8|12,0:0|1:3,0:0:0:0:
388,163,44426,5,8,1:2:0:0:
298,160,44538,1,0,0:0:0:0:
91,218,44650,1,8,1:2:0:0:
181,220,44762,1,0,0:0:0:0:
424,60,44873,1,8,1:2:0:0:
244,56,44985,1,8,1:2:0:0:
62,57,45098,1,8,1:2:0:0:
260,55,45210,1,8,1:2:0:0:
480,167,45322,6,0,L|486:263,1,90,4|2,1:2|0:2,0:0:0:0:
364,203,45545,2,0,L|364:299,1,90,10|2,1:3|0:2,0:0:0:0:
241,200,45769,2,0,L|234:295,1,90,4|2,1:3|0:2,0:0:0:0:
112,180,45993,2,0,L|94:274,1,90,10|2,1:3|0:2,0:0:0:0:
316,113,46217,6,0,L|413:113,1,90,4|2,1:3|0:0,0:0:0:0:
316,113,46441,2,0,L|219:113,1,90,10|2,1:3|0:0,0:0:0:0:
462,147,46665,2,0,L|468:238,1,90,4|2,1:3|0:0,0:0:0:0:
268,292,46889,2,0,L|358:292,1,90,10|4,1:3|1:3,0:0:0:0:
122,95,47113,6,0,L|26:95,1,90,4|0,1:3|0:0,0:0:0:0:
150,159,47337,2,0,L|155:257,1,90,8|0,1:2|0:0,0:0:0:0:
344,219,47560,2,0,L|438:219,1,90,4|0,3:0|0:0,0:0:0:0:
225,331,47784,2,0,L|129:331,1,90,8|0,1:2|0:0,0:0:0:0:
344,184,48008,6,0,L|352:81,1,90,8|4,1:2|1:3,0:0:0:0:
261,91,48232,1,0,0:0:0:0:
477,302,48344,2,0,L|383:302,2,90,8|4|0,1:2|1:3|0:0,0:0:0:0:
286,237,48680,2,0,L|278:131,1,90,4|2,1:2|0:0,0:0:0:0:
56,201,48904,6,0,L|50:105,1,90,4|2,1:2|0:2,0:0:0:0:
172,165,49127,2,0,L|172:69,1,90,10|2,1:3|0:2,0:0:0:0:
295,168,49351,2,0,L|302:73,1,90,4|2,1:3|0:2,0:0:0:0:
424,188,49575,2,0,L|442:94,1,90,10|2,1:3|0:2,0:0:0:0:
223,255,49799,6,0,L|126:255,1,90,4|2,1:3|0:0,0:0:0:0:
223,255,50023,2,0,L|320:255,1,90,10|2,1:3|0:0,0:0:0:0:
77,221,50247,2,0,L|71:130,1,90,4|2,1:3|0:0,0:0:0:0:
271,76,50471,2,0,L|181:76,1,90,10|4,1:3|1:3,0:0:0:0:
390,334,50695,6,0,L|507:334,1,90,4|0,1:3|0:0,0:0:0:0:
362,284,50919,2,0,L|359:180,1,90,8|0,1:2|1:0,0:0:0:0:
159,120,51143,2,0,L|268:120,1,90,4|2,1:3|0:0,0:0:0:0:
159,120,51366,1,8,1:2:0:0:
276,309,51478,2,0,L|277:237,1,45,2|0,0:0|0:0,0:0:0:0:
139,260,51590,6,0,L|26:259,1,90,8|2,1:2|0:0,0:0:0:0:
267,165,51814,2,0,L|382:166,1,90,8|4,1:2|3:3,0:0:0:0:
66,84,52038,1,8,1:2:0:0:
273,79,52150,1,0,3:3:0:0:
183,81,52262,1,12,1:3:0:0:
390,78,52374,1,0,0:0:0:0:
129,340,52486,6,0,L|126:226,1,90,4|0,1:2|0:0,0:0:0:0:
217,251,52710,1,8,1:2:0:0:
30,125,52821,2,0,L|137:125,1,90,0|0,1:3|0:0,0:0:0:0:
320,312,53045,2,0,L|325:245,1,45,4|0,1:3|0:0,0:0:0:0:
177,261,53157,2,0,L|51:262,1,90,8|0,1:2|0:0,0:0:0:0:
287,176,53381,6,0,L|289:73,1,90,0|0,1:2|0:0,0:0:0:0:
408,165,53605,2,0,L|414:38,1,90,8|0,1:2|1:3,0:0:0:0:
225,173,53829,2,0,L|321:172,2,90,0|4|8,0:0|1:3|1:2,0:0:0:0:
343,321,54165,2,0,L|347:258,1,45
190,312,54277,6,0,L|184:198,1,90,0|0,1:2|0:0,0:0:0:0:
385,165,54501,2,0,L|391:38,1,90,8|4,1:2|1:3,0:0:0:0:
144,204,54725,2,0,L|26:205,3,90,0|0|8|0,0:0|1:3|1:2|0:0,0:0:0:0:
263,211,55173,6,0,L|269:324,1,90,2|0,1:3|0:0,0:0:0:0:
145,31,55397,2,0,L|139:151,1,90,10|4,1:2|1:3,0:0:0:0:
350,242,55621,1,8,0:2:0:0:
233,233,55733,1,0,1:3:0:0:
350,242,55845,1,10,1:2:0:0:
233,233,55957,1,8,1:2:0:0:
447,206,56068,6,0,P|506:145|434:133,1,180,4|8,1:2|1:2,0:0:0:0:
242,313,56404,2,0,L|232:206,1,90,4|0,1:3|0:0,0:0:0:0:
324,227,56627,1,0,1:3:0:0:
133,96,56740,2,0,L|127:204,1,90,8|0,1:2|0:0,0:0:0:0:
335,258,56963,6,0,L|437:258,1,90,0|0,1:2|0:0,0:0:0:0:
189,328,57187,2,0,L|73:328,1,90,8|4,1:2|1:3,0:0:0:0:
308,68,57411,2,0,P|377:107|322:199,1,180,0|8,0:0|1:2,0:0:0:0:
276,190,57747,1,0,0:0:0:0:
474,340,57859,6,0,L|479:221,1,90,0|0,1:2|0:0,0:0:0:0:
242,356,58083,2,0,L|236:239,1,90,8|4,1:2|1:3,0:0:0:0:
456,138,58307,2,0,L|246:109,1,180,0|8,0:0|1:2,0:0:0:0:
368,61,58642,1,0,0:0:0:0:
161,363,58754,6,0,L|156:263,1,90,4|0,1:3|0:0,0:0:0:0:
375,261,58978,2,0,L|384:374,1,90,8|4,1:2|1:3,0:0:0:0:
173,97,59202,1,8,1:2:0:0:
290,108,59314,1,0,1:3:0:0:
173,97,59426,1,8,1:2:0:0:
290,108,59538,1,0,0:0:0:0:
83,197,59650,5,4,1:2:0:0:
173,352,59762,2,0,L|176:258,1,90,2|8,0:3|1:2,0:0:0:0:
394,164,59986,2,0,L|294:164,2,90,4|2|0,1:3|0:3|1:3,0:0:0:0:
176,337,60322,2,0,L|171:237,1,90,8|0,1:2|0:0,0:0:0:0:
379,137,60545,6,0,L|499:137,3,90,0|2|8|4,1:2|0:3|1:2|1:3,0:0:0:0:
260,334,60993,2,0,L|255:234,1,90,2|2,0:3|1:3,0:0:0:0:
455,309,61217,2,0,L|345:309,1,90,8|2,1:2|0:3,0:0:0:0:
146,46,61441,6,0,L|346:71,1,180,4|8,1:2|1:2,0:0:0:0:
407,78,61777,1,4,1:3:0:0:
218,318,61889,1,2,0:3:0:0:
335,317,62001,1,0,1:3:0:0:
130,239,62112,2,0,L|126:137,1,90,8|0,1:2|0:0,0:0:0:0:
374,273,62337,5,8,1:2:0:0:
284,276,62449,1,0,0:0:0:0:
77,218,62561,1,8,1:2:0:0:
167,216,62673,1,4,1:3:0:0:
410,376,62784,1,8,1:2:0:0:
230,380,62896,1,8,1:2:0:0:
51,379,63007,1,8,1:2:0:0:
251,380,63120,1,8,1:2:0:0:
471,54,63232,6,0,L|476:177,1,90,4|0,1:2|0:0,0:0:0:0:
247,279,63456,2,0,L|364:279,1,90,8|2,1:2|1:3,0:0:0:0:
219,231,63680,2,0,L|102:231,1,90,0|2,2:3|1:3,0:0:0:0:
329,139,63904,1,8,1:2:0:0:
240,310,64015,2,0,L|239:387,1,45
395,101,64127,6,0,L|397:222,1,90,0|0,1:0|0:0,0:0:0:0:
168,119,64351,2,0,L|50:119,1,90,8|2,1:2|1:3,0:0:0:0:
295,259,64575,2,0,L|300:390,1,90,0|2,0:0|1:3,0:0:0:0:
71,60,64799,2,0,L|180:60,1,90,8|0,1:2|0:0,0:0:0:0:
379,318,65023,6,0,P|442:284|385:183,1,180,0|8,1:0|1:2,0:0:0:0:
327,185,65359,1,2,1:3:0:0:
129,294,65471,2,0,L|341:324,1,180,0|8,1:0|1:2,0:0:0:0:
216,249,65807,1,0,1:0:0:0:
412,63,65918,6,0,L|421:182,1,90,0|0,1:0|0:0,0:0:0:0:
208,337,66143,2,0,L|200:228,1,90,8|0,1:2|0:0,0:0:0:0:
292,333,66366,1,0,1:0:0:0:
76,191,66478,2,0,L|185:191,2,90,4|8|0,1:3|1:2|1:0,0:0:0:0:
285,47,66814,6,0,L|408:49,1,90,4|0,1:2|0:0,0:0:0:0:
174,133,67038,2,0,L|171:252,1,90,8|2,1:2|1:3,0:0:0:0:
381,245,67262,1,0,2:3:0:0:
291,243,67374,2,0,L|291:358,1,90,2|8,1:3|1:2,0:0:0:0:
480,55,67597,2,0,L|479:132,1,45
342,59,67709,6,0,L|221:57,1,90,0|0,1:0|0:0,0:0:0:0:
452,327,67933,2,0,L|343:327,1,90,8|2,1:2|1:3,0:0:0:0:
153,307,68157,2,0,L|147:207,1,90,0|2,0:0|1:3,0:0:0:0:
266,174,68381,2,0,L|167:175,1,90,8|0,1:2|0:0,0:0:0:0:
412,105,68605,6,0,L|415:224,1,90,0|0,1:0|0:0,0:0:0:0:
292,172,68829,2,0,L|286:292,1,90,8|0,1:2|1:3,0:0:0:0:
69,292,69053,2,0,L|198:292,3,90,0|0|8|0,1:0|0:0|1:2|1:0,0:0:0:0:
377,92,69501,6,0,L|262:93,1,90,0|0,1:0|0:0,0:0:0:0:
404,149,69724,2,0,L|410:264,1,90,8|0,1:2|0:0,0:0:0:0:
182,174,69948,1,2,1:3:0:0:
92,176,70060,1,0,1:3:0:0:
272,175,70172,1,8,1:2:0:0:
452,168,70284,1,4,1:3:0:0:
200,42,70396,6,0,L|105:42,1,90,4|0,1:2|0:0,0:0:0:0:
310,77,70620,2,0,L|315:172,1,90,8|4,1:2|0:3,0:0:0:0:
124,296,70844,1,4,1:3:0:0:
241,285,70956,1,0,2:3:0:0:
124,296,71068,1,8,1:2:0:0:
241,285,71180,1,0,0:0:0:0:
43,41,71292,6,0,L|38:151,1,90,0|0,1:0|0:0,0:0:0:0:
273,49,71515,2,0,L|278:159,1,90,8|0,1:2|0:0,0:0:0:0:
101,213,71739,2,0,L|37:213,1,45,2|0,1:3|0:0,0:0:0:0:
193,279,71851,2,0,L|256:279,1,45,2|0,0:3|0:0,0:0:0:0:
101,278,71963,2,0,L|37:278,1,45,10|0,1:3|0:0,0:0:0:0:
193,212,72075,2,0,L|256:212,1,45,2|0,0:3|0:0,0:0:0:0:
45,41,72187,6,0,L|36:155,1,90,4|0,1:2|0:0,0:0:0:0:
156,76,72411,2,0,L|162:176,1,90,8|4,1:2|0:3,0:0:0:0:
370,297,72635,1,4,1:3:0:0:
253,286,72747,1,0,2:3:0:0:
370,297,72859,1,8,1:2:0:0:
253,286,72971,1,0,0:0:0:0:
451,363,73083,6,0,L|456:253,1,90,0|0,1:0|0:0,0:0:0:0:
221,353,73306,2,0,L|121:353,1,90,8|0,1:2|0:0,0:0:0:0:
358,191,73530,2,0,L|422:191,1,45,2|0,1:3|0:0,0:0:0:0:
266,125,73642,2,0,L|203:125,1,45,2|0,0:3|0:0,0:0:0:0:
358,126,73754,2,0,L|422:126,1,45,10|0,1:3|0:0,0:0:0:0:
266,192,73866,2,0,L|203:192,1,45,2|0,0:3|0:0,0:0:0:0:
414,257,73978,6,0,L|419:362,1,90,4|0,1:2|0:0,0:0:0:0:
200,303,74202,2,0,L|94:302,1,90,8|4,1:2|0:3,0:0:0:0:
328,172,74426,2,0,L|439:172,1,90,4|0,1:3|2:3,0:0:0:0:
191,114,74650,2,0,L|311:114,1,90,8|0,1:2|0:0,0:0:0:0:
63,330,74874,6,0,L|58:228,1,90,0|0,1:0|0:0,0:0:0:0:
304,295,75098,2,0,L|405:295,1,90,8|0,1:2|0:0,0:0:0:0:
172,124,75321,2,0,L|108:124,1,45,2|0,1:3|0:0,0:0:0:0:
264,58,75433,2,0,L|327:58,1,45,2|0,0:3|0:0,0:0:0:0:
172,59,75545,2,0,L|108:59,1,45,10|0,1:3|0:0,0:0:0:0:
264,125,75657,2,0,L|327:125,1,45,2|0,0:3|0:0,0:0:0:0:
116,296,75769,6,0,L|17:295,1,90,0|0,1:0|0:0,0:0:0:0:
262,235,75993,1,8,1:2:0:0:
270,236,76105,1,0,0:0:0:0:
180,233,76217,1,4,1:3:0:0:
378,74,76329,2,0,L|483:73,2,90,0|8|0,0:0|1:2|0:0,0:0:0:0:
105,176,76665,5,8,1:2:0:0:
195,173,76777,1,8,1:2:0:0:
438,225,76889,1,8,1:2:0:0:
348,227,77001,1,8,1:2:0:0:
62,72,77112,1,8,1:2:0:0:
233,76,77224,1,8,1:2:0:0:
469,68,77337,1,8,1:2:0:0:
299,69,77448,1,8,1:2:0:0:
38,313,77560,5,6,0:0:0:0:
