osu file format v14

[General]
AudioFilename: audio.mp3
AudioLeadIn: 0
PreviewTime: 16161
Countdown: 0
SampleSet: Soft
StackLeniency: 0.7
Mode: 2
LetterboxInBreaks: 0
WidescreenStoryboard: 1

[Editor]
Bookmarks: 5919,16665,23829,30993,45322,52486,63232,70396,77560
DistanceSpacing: 1
BeatDivisor: 4
GridSize: 16
TimelineZoom: 2.1

[Metadata]
Title:Mochio-
TitleUnicode:モチオー
Artist:[Kyoro]
ArtistUnicode:【Kyoro】
Creator:Spectator
Version:Lacrima's Ultra
Source:スーパーマリオRPG
Tags:sinnoh xinnoh lacrima myle mochi_- mochi kukkai japanese novelty super mario legend of the seven stars 音mad oto-mad otomad ニコニコ動画 niconico douga ytpmv youtube スロウスタート slow start 百地たまて tamate momochi たまちゃん tamachan 伊藤 彩沙 itou ayasa きららファンタジア kirara fantasia 芳文社 houbunsha まんがタイムきらら manga time 対カジオー戦 fight against smithy kajioh 下村陽子 yoko shimomura 任天堂 nintendo
BeatmapID:4448606
BeatmapSetID:1939725

[Difficulty]
HPDrainRate:3
CircleSize:4.2
OverallDifficulty:10
ApproachRate:10
SliderMultiplier:2
SliderTickRate:2

[Events]
//Background and Video events
0,0,"tamachan.png",0,0
Video,0,"video.mp4"
//Break Periods
//Storyboard Layer 0 (Background)
//Storyboard Layer 1 (Fail)
//Storyboard Layer 2 (Pass)
//Storyboard Layer 3 (Foreground)
//Storyboard Layer 4 (Overlay)
//Storyboard Sound Samples

[TimingPoints]
546,223.880597014925,4,2,1,70,1,0
8605,-50,4,2,1,70,0,0
11292,-100,4,2,1,70,0,0
16217,-50,4,2,1,70,0,0
16665,-100,4,2,1,70,0,0
24277,-50,4,2,1,70,0,0
24725,-100,4,2,1,70,0,0
26068,-50,4,2,1,70,0,0
26516,-100,4,2,1,70,0,0
27859,-50,4,2,1,70,0,0
28307,-100,4,2,1,70,0,0
30098,-33.3333333333333,4,2,1,70,0,0
30545,-28.5714285714286,4,2,1,70,0,0
30993,-100,4,2,1,60,0,0
37262,-50,4,2,1,60,0,0
38157,-100,4,2,1,60,0,0
44426,-50,4,2,1,60,0,0
45322,-100,4,2,1,70,0,0
56068,-50,4,2,1,70,0,0
56404,-100,4,2,1,70,0,0
57411,-50,4,2,1,70,0,0
57635,-100,4,2,1,70,0,0
62784,-50,4,2,1,70,0,0
63232,-100,4,2,1,70,0,0
70844,-50,4,2,1,70,0,0
71292,-100,4,2,1,70,0,0
72635,-50,4,2,1,70,0,0
73083,-100,4,2,1,70,0,0
74426,-50,4,2,1,70,0,0
74874,-100,4,2,1,70,0,0
76665,-33.3333333333333,4,2,1,70,0,0

[Colours]
Combo1 : 196,107,224
Combo2 : 101,143,241
Combo3 : 121,242,197

[HitObjects]
19,288,5919,5,4,1:2:0:0:
235,288,6031,1,0,0:0:0:0:
19,288,6143,1,8,1:2:0:0:
235,288,6254,2,0,P|300:261|211:210,1,200,0|4,1:3|1:3,0:0:0:0:
182,191,6534,1,0,0:0:0:0:
404,199,6590,2,0,L|528:200,1,100,8|0,1:2|0:0,0:0:0:0:
268,126,6814,6,0,L|200:126,2,50,0|0|0,1:2|0:0|0:0,0:0:0:0:
468,122,7038,1,8,1:2:0:0:
265,67,7150,2,0,L|400:67,2,100,0|0|4,1:3|0:0|1:3,0:0:0:0:
17,244,7486,2,0,L|150:243,1,100,8|0,1:2|0:0,0:0:0:0:
167,242,7654,1,0,0:0:0:0:
409,214,7710,6,0,L|298:214,2,100,0|0|8,1:2|0:0|1:2,0:0:0:0:
164,133,8045,1,4,1:3:0:0:
410,154,8157,1,0,0:0:0:0:
165,191,8269,1,0,1:3:0:0:
265,87,8381,1,8,1:2:0:0:
162,45,8493,1,0,0:0:0:0:
410,154,8605,6,0,L|174:154,2,200,2|0|10,1:3|0:0|1:2,0:0:0:0:
418,66,8941,1,4,1:3:0:0:
200,257,9053,2,0,L|436:257,2,200,8|0|10,0:2|1:3|1:2,0:0:0:0:
192,169,9389,1,8,1:2:0:0:
477,183,9501,6,0,L|61:182,1,400,4|8,1:2|1:2,0:0:0:0:
267,118,9837,2,0,L|369:289,2,200,4|0|0,1:3|0:0|1:3,0:0:0:0:
496,112,10172,2,0,L|394:283,1,200,8|0,1:2|0:0,0:0:0:0:
128,99,10396,6,0,L|230:270,1,200,0|0,1:2|0:0,0:0:0:0:
438,76,10620,2,0,L|336:247,1,200,8|4,1:2|1:3,0:0:0:0:
43,276,10844,2,0,L|486:275,1,400,0|8,0:0|1:2,0:0:0:0:
55,148,11292,5,0,1:2:0:0:
302,231,11404,2,0,L|185:232,1,100,0|8,0:0|1:2,0:0:0:0:
462,157,11628,1,4,1:3:0:0:
210,231,11740,2,0,L|327:232,1,100,0|0,0:0|1:3,0:0:0:0:
55,148,11963,1,8,1:2:0:0:
302,233,12075,1,0,0:0:0:0:
55,148,12187,1,4,1:3:0:0:
302,233,12299,2,0,L|432:233,2,100,0|8|4,0:0|1:2|1:3,0:0:0:0:
55,148,12635,1,8,1:2:0:0:
302,233,12747,1,0,1:3:0:0:
55,148,12859,1,8,1:2:0:0:
302,233,12971,2,0,L|391:233,1,50,8|0,1:2|0:0,0:0:0:0:
124,163,13083,6,0,L|16:163,2,100,4|2|8,1:2|0:3|1:2,0:0:0:0:
386,161,13419,1,4,1:3:0:0:
203,241,13531,2,0,L|340:240,1,100,2|0,0:3|1:3,0:0:0:0:
107,309,13754,2,0,L|-39:309,1,100,8|0,1:2|0:0,0:0:0:0:
285,164,13978,5,0,1:2:0:0:
31,153,14090,2,0,L|146:153,2,100,2|8|4,0:3|1:2|1:3,0:0:0:0:
299,290,14426,2,0,L|163:291,3,100,2|2|8|2,0:3|1:3|1:2|0:3,0:0:0:0:
478,288,14874,6,0,L|342:289,2,100,4|2|8,1:2|0:3|1:2,0:0:0:0:
240,188,15210,1,4,1:3:0:0:
478,288,15322,2,0,L|350:288,1,100,2|0,0:3|1:3,0:0:0:0:
159,342,15545,2,0,L|293:341,1,100,8|0,1:2|0:0,0:0:0:0:
39,177,15769,5,8,1:2:0:0:
306,170,15881,1,0,0:0:0:0:
39,177,15993,2,0,L|162:177,1,100,8|4,1:2|1:3,0:0:0:0:
362,336,16217,2,0,L|81:335,2,200,8|8|8,1:2|1:2|1:2,0:0:0:0:
49,141,16553,1,8,1:2:0:0:
312,251,16665,6,0,L|198:251,1,100,4|0,1:2|0:0,0:0:0:0:
415,150,16889,1,8,1:2:0:0:
200,251,17001,2,0,L|300:251,1,100,2|0,1:3|2:3,0:0:0:0:
97,150,17225,1,2,1:3:0:0:
357,321,17337,1,8,1:2:0:0:
306,321,17393,1,0,0:0:0:0:
256,321,17448,1,0,0:0:0:0:
205,321,17504,1,0,0:0:0:0:
154,322,17560,5,0,1:0:0:0:
361,256,17672,2,0,L|483:256,1,100,0|8,0:0|1:2,0:0:0:0:
195,198,17896,2,0,L|316:198,2,100,2|0|2,1:3|0:0|1:3,0:0:0:0:
434,200,18232,1,8,1:2:0:0:
191,283,18344,1,0,0:0:0:0:
442,129,18456,6,0,L|217:128,1,200,0|8,1:0|1:2,0:0:0:0:
342,128,18792,1,2,1:3:0:0:
165,225,18904,2,0,L|59:226,1,100,0|0,1:0|0:0,0:0:0:0:
292,294,19128,2,0,L|413:293,1,100,8|0,1:2|1:0,0:0:0:0:
115,352,19351,5,0,1:0:0:0:
393,203,19463,1,0,0:0:0:0:
116,207,19575,2,0,L|9:206,1,100,8|0,1:2|0:0,0:0:0:0:
313,112,19799,2,0,L|180:111,2,100,0|4|8,1:0|1:3|1:2,0:0:0:0:
73,187,20135,1,0,1:0:0:0:
316,311,20247,6,0,L|187:311,1,100,4|0,1:2|0:0,0:0:0:0:
412,191,20471,1,8,1:2:0:0:
197,310,20583,2,0,L|326:310,1,100,2|0,1:3|2:3,0:0:0:0:
100,191,20807,1,2,1:3:0:0:
357,345,20919,1,8,1:2:0:0:
306,345,20975,1,0,0:0:0:0:
255,346,21031,1,0,0:0:0:0:
204,347,21087,1,0,0:0:0:0:
153,348,21143,5,0,1:0:0:0:
367,274,21254,2,0,L|473:273,1,100,0|8,0:0|1:2,0:0:0:0:
219,231,21478,2,0,L|329:232,1,100,2|0,1:3|0:0,0:0:0:0:
94,284,21702,1,2,1:3:0:0:
354,158,21814,1,8,1:2:0:0:
94,284,21926,2,0,L|16:284,1,50
259,326,22038,6,0,L|372:325,1,100,0|0,1:0|0:0,0:0:0:0:
151,235,22262,2,0,L|37:236,1,100,8|0,1:2|1:3,0:0:0:0:
313,154,22486,1,0,1:0:0:0:
49,151,22598,2,0,L|193:150,2,100,0|8|0,0:0|1:2|1:0,0:0:0:0:
305,292,22934,5,0,1:0:0:0:
205,290,23045,1,0,0:0:0:0:
255,291,23101,1,0,0:0:0:0:
305,292,23157,1,8,1:2:0:0:
205,295,23269,1,0,0:0:0:0:
398,227,23381,1,2,1:3:0:0:
89,181,23493,2,0,L|209:180,2,100,0|8|4,1:3|1:2|1:3,0:0:0:0:
397,341,23829,6,0,L|510:342,3,100,4|0|8|4,1:2|0:0|1:2|0:3,0:0:0:0:
156,278,24277,2,0,L|394:279,3,200,4|0|8|0,1:3|2:3|1:2|0:0,0:0:0:0:
115,341,24725,6,0,L|243:341,2,100,0|0|8,1:0|0:0|1:2,0:0:0:0:
439,232,25060,1,0,0:0:0:0:
152,278,25172,2,0,L|63:278,1,50,2|0,1:3|0:0,0:0:0:0:
337,180,25284,2,0,L|426:180,1,50,2|0,0:3|0:0,0:0:0:0:
142,195,25396,2,0,L|53:195,1,50,10|0,1:3|0:0,0:0:0:0:
327,97,25508,2,0,L|416:97,1,50,2|0,0:3|0:0,0:0:0:0:
115,341,25620,6,0,L|2:342,3,100,4|0|8|4,1:3|0:0|1:2|0:3,0:0:0:0:
356,278,26068,2,0,L|118:279,3,200,4|0|8|0,1:3|2:3|1:2|0:0,0:0:0:0:
397,341,26516,6,0,L|284:341,2,100,0|0|8,1:0|0:0|1:2,0:0:0:0:
73,232,26851,1,0,0:0:0:0:
360,278,26963,2,0,L|449:278,1,50,2|0,1:3|0:0,0:0:0:0:
175,180,27075,2,0,L|86:180,1,50,2|0,0:3|0:0,0:0:0:0:
370,195,27187,2,0,L|459:195,1,50,10|0,1:3|0:0,0:0:0:0:
185,97,27299,2,0,L|96:97,1,50,2|0,0:3|0:0,0:0:0:0:
410,125,27411,6,0,L|522:124,1,100,4|0,1:2|0:0,0:0:0:0:
199,257,27635,2,0,L|84:257,1,100,8|4,1:2|0:3,0:0:0:0:
359,332,27859,2,0,L|72:333,3,200,4|0|8|0,1:3|2:3|1:2|0:0,0:0:0:0:
474,227,28307,5,0,1:0:0:0:
154,182,28419,2,0,L|284:182,2,100,0|8|0,0:0|1:2|0:0,0:0:0:0:
378,181,28754,1,2,1:3:0:0:
493,184,28810,1,0,0:0:0:0:
281,281,28866,1,2,0:3:0:0:
166,284,28922,1,0,0:0:0:0:
378,181,28978,1,10,1:3:0:0:
493,184,29034,1,0,0:0:0:0:
281,281,29090,1,2,0:3:0:0:
166,284,29146,1,0,0:0:0:0:
390,152,29202,6,0,L|496:152,1,100,0|0,1:0|0:0,0:0:0:0:
217,275,29426,2,0,L|323:275,1,100,8|4,1:2|0:3,0:0:0:0:
42,352,29650,2,0,L|258:350,1,200,0|8,0:0|1:2,0:0:0:0:
141,352,29986,1,0,0:0:0:0:
408,259,30098,6,0,L|82:260,7,300.000011444092,0|0|0|0|8|8|8|8,1:3|1:3|1:3|1:3|1:2|1:2|1:2|1:2,0:0:0:0:
376,176,30993,5,4,1:2:0:0:
164,275,31105,2,0,L|60:275,2,100,0|8|0,0:0|0:0|0:0,0:0:0:0:
430,93,31441,2,0,P|490:131|411:212,1,200,4|8,1:3|0:0,0:0:0:0:
162,164,31777,1,8,0:0:0:0:
389,254,31889,6,0,L|272:254,1,100,4|0,1:3|0:0,0:0:0:0:
402,303,32113,2,0,L|285:303,1,100,8|0,0:0|1:0,0:0:0:0:
49,322,32337,2,0,L|251:322,1,200,0|8,1:0|2:2,0:0:0:0:
148,320,32672,1,10,2:3:0:0:
394,190,32784,6,0,L|181:188,2,200,4|8|2,1:3|0:0|1:3,0:0:0:0:
130,268,33344,2,0,L|274:267,2,100,0|10|8,0:0|1:3|0:0,0:0:0:0:
384,335,33680,6,0,L|489:335,1,100,4|2,1:3|1:3,0:0:0:0:
253,211,33904,2,0,L|135:212,1,100,8|0,0:0|0:0,0:0:0:0:
378,152,34128,1,4,1:3:0:0:
171,136,34240,2,0,L|42:136,2,100,0|8|10,1:0|0:0|0:3,0:0:0:0:
383,279,34575,5,4,1:3:0:0:
205,202,34687,2,0,L|316:202,1,100,2|8,0:3|0:0,0:0:0:0:
117,297,34911,1,0,0:0:0:0:
325,146,35023,2,0,L|428:144,3,100,4|4|8|8,1:3|0:3|0:0|0:0,0:0:0:0:
187,146,35471,6,0,L|84:144,3,100,4|0|8|0,1:3|1:3|0:0|1:0,0:0:0:0:
333,71,35919,2,0,L|216:70,2,100,0|0|8,1:3|0:0|0:0,0:0:0:0:
101,281,36254,6,0,L|308:281,1,200,10|0,0:3|0:0,0:0:0:0:
104,184,36590,2,0,L|-27:182,1,100,8|4,0:0|1:3,0:0:0:0:
245,241,36814,2,0,L|350:240,1,100,0|2,1:0|0:3,0:0:0:0:
109,334,37038,2,0,L|-11:336,1,100,8|2,0:0|0:3,0:0:0:0:
323,226,37262,6,0,L|98:228,2,200,4|0|8,1:3|1:0|1:2,0:0:0:0:
78,113,37598,1,0,1:0:0:0:
381,280,37710,2,0,L|156:282,2,200,8|0|8,1:2|1:0|1:2,0:0:0:0:
136,167,38046,1,8,1:2:0:0:
384,141,38157,6,0,L|510:141,2,100,4|0|8,1:2|0:0|0:0,0:0:0:0:
174,267,38493,1,0,1:0:0:0:
384,141,38605,2,0,L|258:141,2,100,4|0|8,1:3|0:0|0:0,0:0:0:0:
174,267,38941,1,8,0:0:0:0:
441,261,39053,6,0,L|313:260,1,100,4|0,1:3|0:0,0:0:0:0:
129,340,39277,2,0,L|265:338,1,100,8|0,0:0|0:0,0:0:0:0:
30,213,39501,2,0,L|249:214,1,200,2|8,1:3|0:0,0:0:0:0:
16,132,39837,1,10,1:3:0:0:
283,126,39948,6,0,P|347:162|260:227,1,200,4|8,1:3|0:0,0:0:0:0:
25,225,40284,1,0,0:0:0:0:
275,236,40396,2,0,L|157:236,3,100,0|0|8|10,1:0|1:0|0:0|1:3,0:0:0:0:
386,328,40844,6,0,L|490:328,1,100,4|2,1:3|1:3,0:0:0:0:
238,349,41068,2,0,L|123:348,1,100,8|0,1:2|0:0,0:0:0:0:
377,252,41292,2,0,L|155:256,1,200,4|8,1:3|0:0,0:0:0:0:
391,180,41628,1,8,0:0:0:0:
139,182,41740,6,0,L|34:184,3,100,4|0|8|0,1:3|0:0|0:0|0:0,0:0:0:0:
279,284,42187,1,2,3:3:0:0:
37,129,42299,2,0,L|155:131,2,100,4|8|8,0:3|0:0|0:0,0:0:0:0:
284,222,42635,5,2,1:3:0:0:
82,251,42747,1,4,3:3:0:0:
284,222,42859,2,0,L|178:216,1,100,8|2,1:2|3:3,0:0:0:0:
406,294,43083,2,0,L|516:292,3,100,4|0|8|8,1:3|0:0|1:2|0:0,0:0:0:0:
167,337,43531,5,4,1:3:0:0:
369,321,43643,2,0,L|247:318,1,100,0|8,0:0|0:0,0:0:0:0:
465,337,43866,1,4,0:3:0:0:
263,321,43978,2,0,L|385:318,1,100,4|2,1:3|0:3,0:0:0:0:
167,337,44202,1,8,0:0:0:0:
465,337,44314,1,12,1:3:0:0:
164,199,44426,6,0,L|366:196,2,200,8|0|8,1:2|0:0|1:2,0:0:0:0:
439,100,44762,1,0,0:0:0:0:
213,246,44874,2,0,L|415:243,2,200,8|8|8,1:2|1:2|1:2,0:0:0:0:
488,147,45210,1,8,1:2:0:0:
95,321,45322,5,4,1:2:0:0:
335,271,45434,2,0,L|335:216,2,50,2|0|10,0:2|0:0|1:3,0:0:0:0:
95,321,45657,1,2,0:2:0:0:
335,271,45769,2,0,L|223:270,2,100,4|2|10,1:3|0:2|1:3,0:0:0:0:
95,321,46105,2,0,L|95:252,1,50,2|0,0:2|0:0,0:0:0:0:
410,180,46217,5,4,1:3:0:0:
205,353,46329,2,0,L|320:353,1,100,2|10,0:0|1:3,0:0:0:0:
102,180,46553,1,2,0:0:0:0:
307,353,46665,2,0,L|192:353,1,100,4|2,1:3|0:0,0:0:0:0:
410,180,46889,1,10,1:3:0:0:
136,130,47001,2,0,L|43:130,1,50,4|0,1:3|0:0,0:0:0:0:
351,110,47113,6,0,L|469:111,1,100,4|0,1:3|0:0,0:0:0:0:
333,186,47337,2,0,L|451:187,1,100,8|0,1:2|0:0,0:0:0:0:
316,268,47560,2,0,L|434:269,1,100,4|0,3:0|0:0,0:0:0:0:
299,350,47784,2,0,L|417:351,1,100,8|0,1:2|0:0,0:0:0:0:
65,292,48008,5,8,1:2:0:0:
311,164,48120,2,0,L|209:163,1,100,4|0,1:3|0:0,0:0:0:0:
447,292,48344,1,8,1:2:0:0:
201,164,48456,2,0,L|303:163,1,100,4|0,1:3|0:0,0:0:0:0:
65,292,48680,1,4,1:2:0:0:
393,342,48792,2,0,L|392:281,1,50,2|0,0:0|0:0,0:0:0:0:
198,270,48904,5,4,1:2:0:0:
423,228,49016,2,0,L|423:165,2,50,2|0|10,0:2|0:0|1:3,0:0:0:0:
198,270,49240,1,2,0:2:0:0:
423,228,49351,2,0,L|311:228,2,100,4|2|10,1:3|0:2|1:3,0:0:0:0:
198,270,49687,2,0,L|198:207,1,50,2|0,0:2|0:0,0:0:0:0:
388,278,49799,5,4,1:3:0:0:
202,196,49911,2,0,L|202:131,2,50,2|0|10,0:0|0:0|1:3,0:0:0:0:
302,196,50135,1,2,0:0:0:0:
70,278,50247,1,4,1:3:0:0:
302,196,50359,1,2,0:0:0:0:
71,184,50471,2,0,L|176:183,1,100,10|4,1:3|1:3,0:0:0:0:
378,328,50695,6,0,L|262:328,1,100,4|0,1:3|0:0,0:0:0:0:
396,269,50919,2,0,L|280:269,1,100,8|0,1:2|1:0,0:0:0:0:
414,210,51143,2,0,L|298:210,1,100,4|2,1:3|0:0,0:0:0:0:
432,151,51366,2,0,L|316:151,1,100,8|2,1:2|0:0,0:0:0:0:
281,151,51534,1,0,0:0:0:0:
64,149,51590,5,8,1:2:0:0:
308,353,51702,2,0,L|184:354,1,100,2|8,0:0|1:2,0:0:0:0:
424,147,51926,1,4,3:3:0:0:
206,275,52038,2,0,L|348:273,1,100,8|0,1:2|3:3,0:0:0:0:
64,149,52262,1,12,1:3:0:0:
424,147,52374,1,0,0:0:0:0:
64,101,52486,6,0,L|176:102,2,100,4|0|8,1:2|0:0|1:2,0:0:0:0:
345,288,52822,2,0,L|106:287,1,200,0|4,1:3|1:3,0:0:0:0:
94,286,53101,1,0,0:0:0:0:
340,232,53157,2,0,L|441:232,1,100,8|0,1:2|0:0,0:0:0:0:
157,170,53381,6,0,L|83:169,2,50,0|0|0,1:2|0:0|0:0,0:0:0:0:
379,165,53605,1,8,1:2:0:0:
154,262,53717,1,0,1:3:0:0:
374,60,53829,2,0,P|435:86|355:158,1,200,0|8,0:0|1:2,0:0:0:0:
155,185,54165,2,0,L|102:185,1,50
347,307,54277,6,0,L|460:307,1,100,0|0,1:2|0:0,0:0:0:0:
198,339,54501,2,0,L|54:339,1,100,8|4,1:2|1:3,0:0:0:0:
347,242,54725,2,0,L|214:240,3,100,0|0|8|0,0:0|1:3|1:2|0:0,0:0:0:0:
480,343,55172,5,2,1:3:0:0:
283,166,55284,2,0,L|173:172,2,100,0|10|4,0:0|1:2|1:3,0:0:0:0:
32,343,55620,1,8,0:2:0:0:
229,166,55732,2,0,L|339:172,2,100,0|10|8,1:3|1:2|1:2,0:0:0:0:
496,67,56068,6,0,L|40:61,1,400,4|8,1:2|1:2,0:0:0:0:
397,93,56404,1,4,1:3:0:0:
202,177,56516,2,0,L|348:175,1,100,0|0,0:0|1:3,0:0:0:0:
114,255,56740,2,0,L|2:256,1,100,8|0,1:2|0:0,0:0:0:0:
344,332,56963,6,0,L|452:332,1,100,0|0,1:2|0:0,0:0:0:0:
215,241,57187,2,0,L|97:242,1,100,8|4,1:2|1:3,0:0:0:0:
461,177,57411,2,0,L|43:177,1,400,0|8,0:0|1:2,0:0:0:0:
457,148,57859,5,0,1:2:0:0:
210,231,57971,2,0,L|327:232,1,100,0|8,0:0|1:2,0:0:0:0:
50,157,58195,1,4,1:3:0:0:
302,231,58307,2,0,L|185:232,1,100,0|0,0:0|1:3,0:0:0:0:
457,148,58530,1,8,1:2:0:0:
210,233,58642,1,0,0:0:0:0:
457,148,58754,1,4,1:3:0:0:
210,233,58866,2,0,L|80:233,2,100,0|8|4,0:0|1:2|1:3,0:0:0:0:
457,148,59202,1,8,1:2:0:0:
210,233,59314,1,0,1:3:0:0:
457,148,59426,1,8,1:2:0:0:
210,233,59538,2,0,L|121:233,1,50
388,163,59650,6,0,L|496:163,2,100,4|2|8,1:2|0:3|1:2,0:0:0:0:
126,161,59986,1,4,1:3:0:0:
309,241,60098,2,0,L|172:240,1,100,2|0,0:3|1:3,0:0:0:0:
405,309,60321,2,0,L|551:309,1,100,8|0,1:2|0:0,0:0:0:0:
227,164,60545,5,0,1:2:0:0:
481,153,60657,2,0,L|366:153,2,100,2|8|4,0:3|1:2|1:3,0:0:0:0:
213,290,60993,2,0,L|349:291,3,100,2|2|8|2,0:3|1:3|1:2|0:3,0:0:0:0:
55,148,61441,5,4,1:2:0:0:
302,231,61553,2,0,L|185:232,1,100,2|8,0:3|1:2,0:0:0:0:
462,157,61777,1,4,1:3:0:0:
210,231,61889,2,0,L|327:232,1,100,2|0,0:3|1:3,0:0:0:0:
55,148,62112,1,8,1:2:0:0:
302,233,62224,1,0,0:0:0:0:
55,148,62336,1,8,1:2:0:0:
302,233,62448,2,0,L|432:233,2,100,0|8|4,0:0|1:2|1:3,0:0:0:0:
100,332,62784,2,0,L|381:331,2,200,8|8|8,1:2|1:2|1:2,0:0:0:0:
463,141,63120,1,8,1:2:0:0:
200,251,63232,6,0,L|314:251,1,100,4|0,1:2|0:0,0:0:0:0:
97,150,63456,1,8,1:2:0:0:
312,251,63568,2,0,L|212:251,1,100,2|0,1:3|2:3,0:0:0:0:
415,150,63792,1,2,1:3:0:0:
155,321,63904,1,8,1:2:0:0:
206,321,63960,1,0,0:0:0:0:
256,321,64015,1,0,0:0:0:0:
307,321,64071,1,0,0:0:0:0:
357,322,64127,5,0,1:0:0:0:
151,256,64239,2,0,L|29:256,1,100,0|8,0:0|1:2,0:0:0:0:
317,198,64463,2,0,L|196:198,2,100,2|0|2,1:3|0:0|1:3,0:0:0:0:
78,200,64799,1,8,1:2:0:0:
321,283,64911,1,0,0:0:0:0:
70,129,65023,6,0,L|295:128,1,200,0|8,1:0|1:2,0:0:0:0:
170,128,65359,1,2,1:3:0:0:
347,225,65471,2,0,L|453:226,1,100,0|0,1:0|0:0,0:0:0:0:
220,294,65695,2,0,L|99:293,1,100,8|0,1:2|1:0,0:0:0:0:
397,352,65918,5,0,1:0:0:0:
119,203,66030,1,0,0:0:0:0:
396,207,66142,2,0,L|503:206,1,100,8|0,1:2|0:0,0:0:0:0:
199,112,66366,2,0,L|332:111,2,100,0|4|8,1:0|1:3|1:2,0:0:0:0:
439,187,66702,1,0,1:0:0:0:
196,311,66814,6,0,L|325:311,1,100,4|0,1:2|0:0,0:0:0:0:
100,191,67038,1,8,1:2:0:0:
315,310,67150,2,0,L|186:310,1,100,2|0,1:3|2:3,0:0:0:0:
412,191,67374,1,2,1:3:0:0:
155,345,67486,1,8,1:2:0:0:
206,345,67542,1,0,0:0:0:0:
257,346,67598,1,0,0:0:0:0:
308,347,67654,1,0,0:0:0:0:
359,348,67710,5,0,1:0:0:0:
145,274,67821,2,0,L|39:273,1,100,0|8,0:0|1:2,0:0:0:0:
293,231,68045,2,0,L|183:232,1,100,2|0,1:3|0:0,0:0:0:0:
418,284,68269,1,2,1:3:0:0:
158,158,68381,1,8,1:2:0:0:
418,284,68493,2,0,L|496:284,1,50
253,326,68605,6,0,L|140:325,1,100,0|0,1:0|0:0,0:0:0:0:
361,235,68829,2,0,L|475:236,1,100,8|0,1:2|1:3,0:0:0:0:
199,154,69053,1,0,1:0:0:0:
463,151,69165,2,0,L|319:150,2,100,0|8|0,0:0|1:2|1:0,0:0:0:0:
207,292,69501,5,0,1:0:0:0:
307,290,69612,1,0,0:0:0:0:
257,291,69668,1,0,0:0:0:0:
207,292,69724,1,8,1:2:0:0:
307,295,69836,1,0,0:0:0:0:
114,227,69948,1,2,1:3:0:0:
423,181,70060,2,0,L|303:180,2,100,0|8|4,1:3|1:2|1:3,0:0:0:0:
120,339,70396,6,0,L|1:339,1,100,4|0,1:2|0:0,0:0:0:0:
131,302,70620,2,0,L|12:302,1,100,8|4,1:2|0:3,0:0:0:0:
333,249,70844,2,0,L|113:248,3,200,4|0|8|0,1:3|2:3|1:2|0:0,0:0:0:0:
393,186,71292,5,0,1:0:0:0:
172,150,71404,2,0,L|288:152,2,100,0|8|0,0:0|1:2|0:0,0:0:0:0:
362,110,71740,2,0,L|446:110,1,50,2|0,1:3|0:0,0:0:0:0:
173,136,71851,2,0,L|89:136,1,50,2|0,0:3|0:0,0:0:0:0:
362,178,71963,2,0,L|446:178,1,50,10|0,1:3|0:0,0:0:0:0:
173,204,72074,2,0,L|89:204,1,50,2|0,0:3|0:0,0:0:0:0:
389,338,72187,6,0,L|498:338,1,100,4|0,1:2|0:0,0:0:0:0:
370,295,72411,2,0,L|479:295,1,100,8|4,1:2|0:3,0:0:0:0:
168,228,72635,2,0,L|385:226,3,200,4|0|8|0,1:3|2:3|1:2|0:0,0:0:0:0:
153,121,73083,6,0,L|293:120,2,100,0|0|8,1:0|0:0|1:2,0:0:0:0:
415,118,73419,1,0,0:0:0:0:
168,241,73531,2,0,L|102:242,1,50,2|0,1:3|0:0,0:0:0:0:
364,297,73643,2,0,L|430:298,1,50,2|0,0:3|0:0,0:0:0:0:
178,187,73754,2,0,L|112:188,1,50,10|0,1:3|0:0,0:0:0:0:
374,243,73866,2,0,L|440:244,1,50,2|0,0:3|0:0,0:0:0:0:
128,106,73978,6,0,L|14:106,1,100,4|0,1:2|0:0,0:0:0:0:
134,173,74202,2,0,L|20:173,1,100,8|4,1:2|0:3,0:0:0:0:
359,252,74426,2,0,L|137:255,3,200,4|0|8|0,1:3|2:3|1:2|0:0,0:0:0:0:
375,142,74874,5,0,1:0:0:0:
116,112,74986,2,0,L|234:113,2,100,0|8|0,0:0|1:2|0:0,0:0:0:0:
378,181,75322,1,2,1:3:0:0:
493,184,75378,1,0,0:0:0:0:
255,282,75434,1,2,0:3:0:0:
140,285,75490,1,0,0:0:0:0:
378,181,75546,1,10,1:3:0:0:
493,184,75602,1,0,0:0:0:0:
255,282,75658,1,2,0:3:0:0:
140,285,75714,1,0,0:0:0:0:
391,274,75769,6,0,L|512:273,1,100,0|0,1:0|0:0,0:0:0:0:
214,344,75993,2,0,L|344:343,1,100,8|0,1:2|0:0,0:0:0:0:
24,180,76217,2,0,L|272:179,1,200,4|8,1:3|1:2,0:0:0:0:
123,179,76553,1,0,0:0:0:0:
422,178,76665,6,0,L|73:179,7,300.000011444092,8|8|8|8|8|8|8|8,1:2|1:2|1:2|1:2|1:2|1:2|1:2|1:2,0:0:0:0:
362,96,77560,5,6,0:0:0:0:
